osu file format v14

[General]
AudioFilename: audio.mp3
AudioLeadIn: 0
PreviewTime: 142895
Countdown: 0
SampleSet: Soft
StackLeniency: 0.3
Mode: 0
LetterboxInBreaks: 0
EpilepsyWarning: 1
WidescreenStoryboard: 1

[Editor]
Bookmarks: 8099,29672,51245,72818,94392,99785,121358,142931,164504,169698,190026,210421,231994,237083,256283,275483,285083,294685,313738,316612
DistanceSpacing: 1.6
BeatDivisor: 4
GridSize: 32
TimelineZoom: 3.099999

[Metadata]
Title:Kizan
TitleUnicode:鬼斬
Artist:Down
ArtistUnicode:Down
Creator:Down
Version:Slayer
Source:osu! World Cup 2023
Tags:owc osu! world cup osu tb owc2023qftb quarter finals tiebreaker electronic instrumental drumstep psytrance breakcore hardstyle hardcore speedcore glitch hop
BeatmapID:4368642
BeatmapSetID:2085347

[Difficulty]
HPDrainRate:5
CircleSize:4
OverallDifficulty:9
ApproachRate:9.6
SliderMultiplier:2
SliderTickRate:1

[Events]
//Background and Video events
0,0,"kizanbg.jpg",0,0
//Break Periods
2,232103,235366
//Storyboard Layer 0 (Background)
//Storyboard Layer 1 (Fail)
//Storyboard Layer 2 (Pass)
//Storyboard Layer 3 (Foreground)
//Storyboard Layer 4 (Overlay)
//Storyboard Sound Samples

[TimingPoints]
16,337.078651685393,4,2,1,45,1,0
7768,-100,4,2,1,5,0,0
8105,-200,4,2,1,60,0,0
18892,-50,4,2,1,70,0,0
19229,-50,4,2,1,60,0,0
19903,-133.333333333333,4,2,1,60,0,0
21420,-50,4,2,1,60,0,0
21546,-50,4,2,1,5,0,0
21589,-50,4,2,1,70,0,0
21926,-50,4,2,1,60,0,0
22937,-50,4,2,1,70,0,0
23190,-50,4,2,1,5,0,0
23274,-133.333333333333,4,2,1,70,0,0
23611,-50,4,2,1,70,0,0
24369,-50,4,2,1,5,0,0
24454,-50,4,2,1,60,0,0
24622,-133.333333333333,4,2,1,60,0,0
25633,-50,4,2,1,70,0,0
25886,-50,4,2,1,5,0,0
25971,-133.333333333333,4,2,1,60,0,0
26813,-50,4,2,1,60,0,0
26940,-50,4,2,1,5,0,0
26982,-50,4,2,1,70,0,0
29004,-133.333333333333,4,2,1,70,0,0
29060,-133.333333333333,4,2,1,5,0,0
29117,-133.333333333333,4,2,1,70,0,0
29173,-133.333333333333,4,2,1,5,0,0
29229,-133.333333333333,4,2,1,70,0,0
29285,-133.333333333333,4,2,1,5,0,0
29341,-133.333333333333,4,2,1,70,0,0
29398,-133.333333333333,4,2,1,5,0,0
29454,-133.333333333333,4,2,1,70,0,0
29510,-133.333333333333,4,2,1,5,0,0
29566,-133.333333333333,4,2,1,70,0,0
29622,-133.333333333333,4,2,1,5,0,0
29678,-66.6666666666667,4,2,1,65,0,0
29931,-66.6666666666667,4,2,1,5,0,0
30015,-66.6666666666667,4,2,1,65,0,0
30184,-100,4,2,1,65,0,0
31027,-66.6666666666667,4,2,1,65,0,0
31280,-66.6666666666667,4,2,1,5,0,0
31364,-66.6666666666667,4,2,1,65,0,0
31532,-100,4,2,1,65,0,0
31869,-66.6666666666667,4,2,1,65,0,0
32038,-100,4,2,1,65,0,0
32375,-66.6666666666667,4,2,1,65,0,0
32628,-66.6666666666667,4,2,1,5,0,0
32712,-66.6666666666667,4,2,1,65,0,0
32881,-100,4,2,1,65,0,0
33723,-66.6666666666667,4,2,1,65,0,0
33976,-66.6666666666667,4,2,1,5,0,0
34060,-66.6666666666667,4,2,1,65,0,0
34145,-66.6666666666667,4,2,1,5,0,0
34229,-100,4,2,1,65,0,0
34398,-66.6666666666667,4,2,1,65,0,0
34482,-66.6666666666667,4,2,1,5,0,0
34566,-100,4,2,1,65,0,0
35072,-66.6666666666667,4,2,1,65,0,0
35324,-66.6666666666667,4,2,1,5,0,0
35409,-66.6666666666667,4,2,1,65,0,0
35577,-100,4,2,1,65,0,0
35746,-66.6666666666667,4,2,1,65,0,0
35830,-66.6666666666667,4,2,1,5,0,0
35914,-100,4,2,1,65,0,0
36420,-66.6666666666667,4,2,1,65,0,0
36673,-66.6666666666667,4,2,1,5,0,0
36757,-66.6666666666667,4,2,1,65,0,0
36926,-100,4,2,1,65,0,0
37768,-66.6666666666667,4,2,1,65,0,0
38021,-66.6666666666667,4,2,1,5,0,0
38105,-66.6666666666667,4,2,1,65,0,0
38358,-66.6666666666667,4,2,1,5,0,0
38442,-66.6666666666667,4,2,1,65,0,0
38611,-100,4,2,1,65,0,0
38780,-66.6666666666667,4,2,1,65,0,0
39369,-66.6666666666667,4,2,1,5,0,0
39454,-133.333333333333,4,2,1,65,0,0
39791,-133.333333333333,4,2,1,70,0,0
40465,-83.3333333333333,4,2,1,70,0,0
45184,-133.333333333333,4,2,1,70,0,0
51251,-66.6666666666667,4,2,1,80,0,0
51589,-40,4,2,1,80,0,0
52094,-50,4,2,1,80,0,0
52600,-133.333333333333,4,2,1,80,0,0
53611,-50,4,2,1,80,0,0
53948,-250,4,2,1,80,0,0
54074,-250,4,2,1,5,0,0
54117,-40,4,2,1,80,0,0
54243,-40,4,2,1,5,0,0
54285,-40,4,2,1,80,0,0
54749,-40,4,2,1,5,0,0
54791,-66.6666666666667,4,2,1,80,0,0
55802,-100,4,2,1,80,0,0
55971,-50,4,2,1,80,0,0
56097,-50,4,2,1,5,0,0
56139,-66.6666666666667,4,2,1,80,0,0
56392,-40,4,2,1,80,0,0
56645,-33.3333333333333,4,2,1,80,0,0
57319,-40,4,2,1,80,0,0
57445,-40,4,2,1,5,0,0
57487,-40,4,2,1,80,0,0
57656,-250,4,2,1,80,0,0
57782,-250,4,2,1,5,0,0
57824,-40,4,2,1,80,0,0
58667,-100,4,2,1,80,0,0
58836,-66.6666666666667,4,2,1,80,0,0
59173,-40,4,2,1,80,0,0
59299,-40,4,2,1,5,0,0
59341,-200,4,2,1,80,0,0
60015,-40,4,2,1,80,0,0
60142,-40,4,2,1,5,0,0
60184,-40,4,2,1,80,0,0
60353,-100,4,2,1,80,0,0
60858,-40,4,2,1,80,0,0
60985,-40,4,2,1,5,0,0
61027,-100,4,2,1,80,0,0
61195,-40,4,2,1,80,0,0
62038,-25,4,2,1,80,0,1
62207,-25,4,2,1,5,0,1
62375,-40,4,2,1,80,0,0
62881,-50,4,2,1,80,0,0
63386,-133.333333333333,4,2,1,80,0,0
63555,-40,4,2,1,80,0,0
63681,-40,4,2,1,5,0,0
63723,-66.6666666666667,4,2,1,80,0,0
64060,-40,4,2,1,80,0,0
64355,-40,4,2,1,5,0,0
64398,-40,4,2,1,80,0,0
64735,-250,4,2,1,80,0,0
64861,-250,4,2,1,5,0,0
64903,-40,4,2,1,80,0,0
65030,-40,4,2,1,5,0,0
65072,-40,4,2,1,80,0,0
65535,-40,4,2,1,5,0,0
65577,-66.6666666666667,4,2,1,80,0,0
66083,-100,4,2,1,80,0,0
66757,-40,4,2,1,80,0,0
66883,-40,4,2,1,5,0,0
66926,-66.6666666666667,4,2,1,80,0,0
67178,-40,4,2,1,80,0,0
67431,-66.6666666666667,4,2,1,80,0,0
68105,-40,4,2,1,80,0,0
68232,-40,4,2,1,5,0,0
68274,-66.6666666666667,4,2,1,80,0,0
68442,-40,4,2,1,80,0,0
69454,-66.6666666666667,4,2,1,80,0,0
70296,-50,4,2,1,80,0,0
71139,-40,4,2,1,80,0,0
71434,-40,4,2,1,5,0,0
71476,-133.333333333333,4,2,1,80,0,0
71645,-40,4,2,1,80,0,0
73499,-66.6666666666667,4,2,1,80,0,0
73794,-66.6666666666667,4,2,1,5,0,0
73836,-133.333333333333,4,2,1,80,0,0
74173,-40,4,2,1,80,0,0
74299,-40,4,2,1,5,0,0
74341,-66.6666666666667,4,2,1,80,0,0
74510,-50,4,2,1,80,0,0
74636,-50,4,2,1,5,0,0
74678,-100,4,2,1,80,0,0
74847,-100,4,2,1,80,0,0
75353,-250,4,2,1,80,0,0
75648,-250,4,2,1,5,0,0
75690,-40,4,2,1,80,0,0
76027,-66.6666666666667,4,2,1,80,0,0
76195,-40,4,2,1,80,0,0
76490,-40,4,2,1,5,0,0
76532,-133.333333333333,4,2,1,80,0,0
76869,-40,4,2,1,80,0,0
76996,-40,4,2,1,5,0,0
77038,-66.6666666666667,4,2,1,80,0,0
77207,-50,4,2,1,80,0,0
77333,-50,4,2,1,5,0,0
77375,-66.6666666666667,4,2,1,80,0,0
77544,-40,4,2,1,80,0,0
78892,-66.6666666666667,4,2,1,80,0,0
79060,-50,4,2,1,80,0,0
79187,-50,4,2,1,5,0,0
79229,-133.333333333333,4,2,1,80,0,0
79566,-40,4,2,1,80,0,0
79692,-40,4,2,1,5,0,0
79734,-66.6666666666667,4,2,1,80,0,0
79903,-50,4,2,1,80,0,0
80030,-50,4,2,1,5,0,0
80071,-100,4,2,1,80,0,0
80577,-40,4,2,1,80,0,0
80704,-40,4,2,1,5,0,0
80746,-66.6666666666667,4,2,1,80,0,0
80914,-250,4,2,1,80,0,0
81041,-250,4,2,1,5,0,0
81083,-40,4,2,1,80,0,0
81209,-40,4,2,1,5,0,0
81251,-40,4,2,1,80,0,0
81715,-40,4,2,1,5,0,0
81757,-25,4,2,1,80,0,0
81883,-25,4,2,1,5,0,0
81926,-133.333333333333,4,2,1,80,0,0
82431,-40,4,2,1,80,0,0
82558,-40,4,2,1,5,0,0
82600,-40,4,2,1,80,0,0
82768,-66.6666666666667,4,2,1,80,0,0
82937,-40,4,2,1,80,0,0
83611,-28.5714285714286,4,2,1,80,0,1
83780,-28.5714285714286,4,2,1,5,0,1
83948,-40,4,2,1,80,0,0
84453,-50,4,2,1,80,0,0
84959,-133.333333333333,4,2,1,80,0,0
85970,-50,4,2,1,80,0,0
86307,-250,4,2,1,80,0,0
86434,-250,4,2,1,5,0,0
86476,-40,4,2,1,80,0,0
86603,-40,4,2,1,5,0,0
86645,-40,4,2,1,80,0,0
87108,-40,4,2,1,5,0,0
87150,-66.6666666666667,4,2,1,80,0,0
88161,-100,4,2,1,80,0,0
88330,-50,4,2,1,80,0,0
88457,-50,4,2,1,5,0,0
88498,-66.6666666666667,4,2,1,80,0,0
88751,-40,4,2,1,80,0,0
89004,-66.6666666666667,4,2,1,80,0,0
89678,-40,4,2,1,80,0,0
89805,-40,4,2,1,5,0,0
89847,-66.6666666666667,4,2,1,80,0,0
90015,-40,4,2,1,80,0,0
91027,-66.6666666666667,4,2,1,80,0,0
91869,-50,4,2,1,80,0,0
92881,-40,4,2,1,80,0,0
93007,-40,4,2,1,5,0,0
93049,-133.333333333333,4,2,1,80,0,0
93218,-40,4,2,1,80,0,0
94398,-100,4,2,1,70,0,0
97431,-66.6666666666667,4,2,1,70,0,0
97768,-50,4,2,1,70,0,0
98105,-66.6666666666667,4,2,1,70,0,0
99791,-83.3333333333333,4,2,1,65,0,0
109903,-83.3333333333333,4,2,1,70,0,0
112600,-66.6666666666667,4,2,1,70,0,0
113274,-83.3333333333333,4,2,1,70,0,0
115296,-66.6666666666667,4,2,1,70,0,0
115971,-83.3333333333333,4,2,1,70,0,0
118667,-66.6666666666667,4,2,1,70,0,0
119004,-83.3333333333333,4,2,1,70,0,0
120015,-66.6666666666667,4,2,1,70,0,0
120353,-83.3333333333333,4,2,1,70,0,0
121364,-66.6666666666667,4,2,1,75,0,0
131476,-66.6666666666667,4,2,1,80,0,0
139903,-133.333333333333,4,2,1,80,0,0
142937,-133.333333333333,4,2,1,90,0,0
153723,-66.6666666666667,4,2,1,90,0,0
158864,-50,4,2,1,90,0,0
159117,-66.6666666666667,4,2,1,90,0,0
164500,337.078651685393,4,2,1,100,1,0
164500,-100,4,2,1,70,0,0
165850,326.975476839237,4,2,1,70,1,0
167166,317.460317460317,4,2,1,70,1,0
167483,-66.6666666666667,4,2,1,70,0,0
167800,-50,4,2,1,70,0,0
169710,317.460317460317,4,2,1,100,1,0
169710,-66.6666666666667,4,2,1,80,0,0
169869,-50,4,2,1,80,0,0
170345,-66.6666666666667,4,2,1,80,0,0
171774,-50,4,2,1,80,0,0
172250,-66.6666666666667,4,2,1,80,0,0
172409,-50,4,2,1,80,0,0
172567,-66.6666666666667,4,2,1,80,0,0
173678,-50,4,2,1,80,0,0
173996,-66.6666666666667,4,2,1,80,0,0
174948,-50,4,2,1,80,0,0
175107,-66.6666666666667,4,2,1,80,0,0
175901,-50,4,2,1,80,0,0
176059,-66.6666666666667,4,2,1,80,0,0
176218,-50,4,2,1,80,0,0
176694,-66.6666666666667,4,2,1,80,0,0
177488,-50,4,2,1,80,0,0
177647,-66.6666666666667,4,2,1,80,0,0
178758,-50,4,2,1,80,0,0
179234,-66.6666666666667,4,2,1,80,0,0
179393,-50,4,2,1,80,0,0
179472,-50,4,2,1,5,0,0
179551,-28.5714285714286,4,2,1,80,0,1
179710,-28.5714285714286,4,2,1,5,0,1
179868,-66.6666666666667,4,2,1,80,0,0
180028,-50,4,2,1,80,0,0
180504,-66.6666666666667,4,2,1,80,0,0
181932,-50,4,2,1,80,0,0
183044,-66.6666666666667,4,2,1,80,0,0
183202,-50,4,2,1,80,0,0
183361,-66.6666666666667,4,2,1,80,0,0
185107,-50,4,2,1,80,0,0
185424,-66.6666666666667,4,2,1,80,0,0
186377,-50,4,2,1,80,0,0
187170,-66.6666666666667,4,2,1,80,0,0
187647,-50,4,2,1,80,0,0
188123,-66.6666666666667,4,2,1,80,0,0
189709,-25,4,2,1,80,0,1
189868,-25,4,2,1,5,0,1
190027,-50,4,2,1,90,0,0
190266,-50,4,2,1,5,0,0
190345,-50,4,2,1,90,0,0
190583,-50,4,2,1,5,0,0
190662,-50,4,2,1,90,0,0
190901,-50,4,2,1,5,0,0
190980,-50,4,2,1,90,0,0
191218,-50,4,2,1,5,0,0
191297,-50,4,2,1,90,0,0
191536,-50,4,2,1,5,0,0
191615,-50,4,2,1,90,0,0
191853,-50,4,2,1,5,0,0
191932,-50,4,2,1,90,0,0
192170,-50,4,2,1,5,0,0
192249,-50,4,2,1,90,0,0
192805,-50,4,2,1,5,0,0
192884,-50,4,2,1,90,0,0
193123,-50,4,2,1,5,0,0
193202,-50,4,2,1,90,0,0
193440,-50,4,2,1,5,0,0
193519,-50,4,2,1,90,0,0
193758,-50,4,2,1,5,0,0
193837,-50,4,2,1,90,0,0
194075,-50,4,2,1,5,0,0
194154,-50,4,2,1,90,0,0
194393,-50,4,2,1,5,0,0
194472,-50,4,2,1,90,0,0
194710,-50,4,2,1,5,0,0
194789,-50,4,2,1,90,0,0
195345,-50,4,2,1,5,0,0
195424,-50,4,2,1,90,0,0
195663,-50,4,2,1,5,0,0
195742,-50,4,2,1,90,0,0
195980,-50,4,2,1,5,0,0
196059,-50,4,2,1,90,0,0
196297,-50,4,2,1,5,0,0
196376,-50,4,2,1,90,0,0
196615,-50,4,2,1,5,0,0
196694,-50,4,2,1,90,0,0
196932,-50,4,2,1,5,0,0
197011,-50,4,2,1,90,0,0
197250,-50,4,2,1,5,0,0
197329,-50,4,2,1,90,0,0
199155,-50,4,2,1,5,0,0
199234,-50,4,2,1,90,0,0
199472,-50,4,2,1,5,0,0
199551,-50,4,2,1,90,0,0
200186,-40,4,2,1,90,0,0
200424,-40,4,2,1,5,0,0
200504,-40,4,2,1,90,0,0
200742,-40,4,2,1,5,0,0
200822,-40,4,2,1,90,0,0
201059,-40,4,2,1,5,0,0
201139,-40,4,2,1,90,0,0
201377,-40,4,2,1,5,0,0
201457,-40,4,2,1,90,0,0
201694,-40,4,2,1,5,0,0
201774,-40,4,2,1,90,0,0
202012,-40,4,2,1,5,0,0
202092,-40,4,2,1,90,0,0
202329,-40,4,2,1,5,0,0
202409,-40,4,2,1,90,0,0
202964,-40,4,2,1,5,0,0
203044,-40,4,2,1,90,0,0
203282,-40,4,2,1,5,0,0
203362,-40,4,2,1,90,0,0
203599,-40,4,2,1,5,0,0
203679,-40,4,2,1,90,0,0
203917,-40,4,2,1,5,0,0
203997,-40,4,2,1,90,0,0
204234,-40,4,2,1,5,0,0
204314,-40,4,2,1,90,0,0
204551,-40,4,2,1,5,0,0
204631,-40,4,2,1,90,0,0
204869,-40,4,2,1,5,0,0
204949,-40,4,2,1,90,0,0
206139,-40,4,2,1,5,0,0
206219,-40,4,2,1,90,0,0
206456,-40,4,2,1,5,0,0
206536,-40,4,2,1,90,0,0
206774,-40,4,2,1,5,0,0
206854,-40,4,2,1,90,0,0
207091,-40,4,2,1,5,0,0
207171,-40,4,2,1,90,0,0
207409,-40,4,2,1,5,0,0
207489,-40,4,2,1,90,0,0
209067,337.078651685393,4,2,1,90,1,0
209067,-50,4,2,1,90,0,0
209319,-50,4,2,1,5,0,0
209404,-50,4,2,1,90,0,0
209656,-50,4,2,1,5,0,0
209741,-50,4,2,1,90,0,0
210415,-66.6666666666667,4,2,1,65,0,0
210668,-66.6666666666667,4,2,1,5,0,0
210752,-66.6666666666667,4,2,1,65,0,0
210921,-100,4,2,1,65,0,0
211764,-66.6666666666667,4,2,1,65,0,0
212016,-66.6666666666667,4,2,1,5,0,0
212100,-66.6666666666667,4,2,1,65,0,0
212269,-100,4,2,1,65,0,0
212606,-66.6666666666667,4,2,1,65,0,0
212690,-66.6666666666667,4,2,1,5,0,0
212775,-100,4,2,1,65,0,0
213112,-66.6666666666667,4,2,1,65,0,0
213364,-66.6666666666667,4,2,1,5,0,0
213449,-66.6666666666667,4,2,1,65,0,0
213618,-100,4,2,1,65,0,0
214460,-66.6666666666667,4,2,1,65,0,0
214713,-66.6666666666667,4,2,1,5,0,0
214797,-66.6666666666667,4,2,1,65,0,0
214881,-66.6666666666667,4,2,1,5,0,0
214966,-100,4,2,1,65,0,0
215135,-66.6666666666667,4,2,1,65,0,0
215218,-66.6666666666667,4,2,1,5,0,0
215303,-100,4,2,1,65,0,0
215809,-66.6666666666667,4,2,1,65,0,0
216061,-66.6666666666667,4,2,1,5,0,0
216145,-66.6666666666667,4,2,1,65,0,0
216314,-100,4,2,1,65,0,0
216483,-66.6666666666667,4,2,1,65,0,0
216567,-66.6666666666667,4,2,1,5,0,0
216651,-100,4,2,1,65,0,0
217157,-66.6666666666667,4,2,1,65,0,0
217409,-66.6666666666667,4,2,1,5,0,0
217493,-66.6666666666667,4,2,1,65,0,0
217663,-100,4,2,1,65,0,0
218505,-66.6666666666667,4,2,1,65,0,0
218758,-66.6666666666667,4,2,1,5,0,0
218842,-66.6666666666667,4,2,1,65,0,0
219095,-66.6666666666667,4,2,1,5,0,0
219179,-66.6666666666667,4,2,1,65,0,0
219348,-100,4,2,1,65,0,0
219517,-66.6666666666667,4,2,1,65,0,0
220106,-66.6666666666667,4,2,1,5,0,0
220191,-133.333333333333,4,2,1,65,0,0
220527,-133.333333333333,4,2,1,70,0,0
221201,-83.3333333333333,4,2,1,70,0,0
225921,-133.333333333333,4,2,1,70,0,0
233344,317.460317460317,4,2,1,80,1,0
235875,300,4,2,1,80,1,0
236475,-100,4,2,1,90,0,0
237075,-50,4,2,1,90,0,1
241725,-100,4,2,1,90,0,1
241875,-50,4,2,1,90,0,1
245475,-100,4,2,1,90,0,1
245775,-50,4,2,1,90,0,1
250875,-333.333333333333,4,2,1,90,0,0
251100,-333.333333333333,4,2,1,70,0,0
252675,-333.333333333333,4,2,1,80,0,0
253275,-333.333333333333,4,2,1,85,0,0
253875,-50,4,2,1,90,0,1
255075,-100,4,2,1,90,0,1
255375,-50,4,2,1,90,0,1
260925,-100,4,2,1,90,0,1
261075,-50,4,2,1,90,0,1
264675,-100,4,2,1,90,0,1
264975,-50,4,2,1,90,0,1
270525,-100,4,2,1,90,0,1
272175,-66.6666666666667,4,2,1,90,0,1
272475,-50,4,2,1,90,0,1
274275,-66.6666666666667,4,2,1,90,0,0
274350,-66.6666666666667,4,2,1,70,0,0
274575,-66.6666666666667,4,2,1,50,0,0
274875,-66.6666666666667,4,2,1,30,0,0
275325,-66.6666666666667,4,2,1,5,0,0
275475,-66.6666666666667,4,2,1,90,0,1
276375,-50,4,2,1,90,0,1
277875,-100,4,2,1,90,0,1
278025,-50,4,2,1,90,0,1
280275,-66.6666666666667,4,2,1,90,0,1
280575,-50,4,2,1,90,0,1
281475,-100,4,2,1,90,0,1
281625,-66.6666666666667,4,2,1,90,0,1
281775,-50,4,2,1,90,0,1
282675,-100,4,2,1,90,0,1
282825,-50,4,2,1,90,0,1
283875,-100,4,2,1,90,0,1
284025,-50,4,2,1,90,0,1
285075,-66.6666666666667,4,2,1,80,0,1
294687,337.078651685393,4,2,1,80,1,0
294687,-200,4,2,1,60,0,0
310864,359.281437125748,4,2,1,60,1,0
310864,-200,4,2,1,60,0,0
313828,-200,4,2,1,45,0,0
315175,-200,4,2,1,30,0,0
316253,-200,4,2,1,15,0,0
316612,-200,4,2,1,5,0,0

[Colours]
Combo1 : 200,200,200
Combo2 : 159,106,225
Combo3 : 102,135,213
Combo4 : 128,21,24
Combo5 : 255,77,77
Combo6 : 255,217,159
Combo7 : 251,113,0
Combo8 : 122,158,139

[HitObjects]
256,192,353,12,0,7768,0:0:0:0:
238,357,8105,102,0,P|244:299|293:163,2,200,2|2|2,0:3|0:3|0:3,0:3:0:0:
238,357,10128,1,2,0:3:0:0:
31,39,10802,6,0,P|40:81|104:119,1,100,2|0,0:3|0:0,0:0:0:0:
230,183,11476,1,2,0:3:0:0:
327,132,11813,1,2,0:3:0:0:
406,15,12150,102,0,P|456:28|516:39,1,100,2|0,0:3|0:0,0:0:0:0:
453,106,12656,1,2,0:3:0:0:
426,110,12740,1,2,0:3:0:0:
408,128,12824,1,2,0:3:0:0:
408,128,13499,6,0,P|390:199|376:339,1,200,2|2,0:3|0:3,0:0:0:0:
104,256,14847,2,0,P|122:185|136:45,1,200,2|2,0:3|0:3,0:0:0:0:
449,42,16195,102,0,P|403:51|351:60,1,100,2|0,0:3|0:0,0:0:0:0:
284,162,16869,1,2,0:3:0:0:
184,225,17207,1,2,0:3:0:0:
101,171,17544,6,0,P|206:192|396:242,1,300,2|0,0:3|0:0,0:0:0:0:
134,363,18892,6,0,B|156:265|-4:279|9:195|9:195|29:234|85:208|96:309|30:358,2,400,6|0|2,3:1|0:0|0:3,0:0:0:0:
160,289,19735,1,2,0:2:0:0:
239,236,19903,1,2,0:2:0:0:
358,252,20072,1,2,0:2:0:0:
470,354,20240,101,2,0:3:0:0:
477,338,20409,1,2,0:2:0:0:
465,342,20577,1,2,0:2:0:0:
481,349,20746,1,2,0:2:0:0:
454,267,20914,6,0,P|467:229|476:188,1,75.0000028610231,2|0,0:3|0:0,0:0:0:0:
445,79,21251,1,2,0:2:0:0:
302,16,21420,102,0,B|268:27|268:27|336:33|386:108,1,150,2|0,3:2|0:0,0:0:0:0:
365,80,21589,6,0,B|354:201|243:135|242:295|242:295|389:254,2,400,6|2|2,3:1|0:2|0:3,0:0:0:0:
285,82,22431,1,2,0:0:0:0:
191,117,22600,1,2,0:3:0:0:
110,27,22768,1,2,0:0:0:0:
365,80,22937,102,0,B|352:109|352:109|76:169,1,300,6|0,3:1|0:0,0:0:0:0:
89,165,23274,6,0,L|150:182,1,37.5000014305115,2|0,0:0|0:0,0:0:0:0:
269,307,23442,1,6,3:1:0:0:
207,351,23527,1,2,0:3:0:0:
131,328,23611,102,0,B|149:250|149:250|190:232|190:232|215:136,1,200,2|0,0:3|0:0,0:0:0:0:
48,6,23948,6,0,B|66:84|66:84|107:102|107:102|132:198,1,200,6|0,3:1|0:0,0:0:0:0:
337,375,24285,102,0,L|363:266,1,100,6|0,3:1|0:0,0:0:0:0:
424,231,24454,1,2,0:3:0:0:
271,114,24622,6,0,L|237:11,1,75.0000028610231,2|0,0:3|0:0,0:0:0:0:
424,231,24959,101,2,0:3:0:0:
396,123,25128,1,2,0:0:0:0:
465,162,25296,1,2,0:3:0:0:
357,190,25465,1,2,0:0:0:0:
337,375,25633,6,0,P|180:333|169:195,1,300,6|0,3:1|0:0,0:0:0:0:
160,214,25971,102,0,L|249:191,1,75.0000028610231,2|0,0:3|0:0,0:0:0:0:
6,33,26308,5,2,0:3:0:0:
151,89,26476,1,2,0:3:0:0:
78,61,26645,101,2,0:3:0:0:
224,118,26813,2,0,B|252:133|252:133|183:167|189:254,1,150,2|0,3:3|0:0,0:0:0:0:
189,226,26982,38,0,B|198:302|250:255|260:340,2,133.333333333333,6|2|2,3:1|0:3|0:3,0:0:0:0:
117,193,27319,21,2,0:3:0:0:
100,175,27431,1,2,0:3:0:0:
123,169,27544,1,2,0:3:0:0:
145,38,27656,85,2,3:3:0:0:
149,94,27768,1,2,0:3:0:0:
100,69,27881,1,2,0:3:0:0:
224,118,27993,21,2,0:3:0:0:
294,85,28105,1,2,0:3:0:0:
364,52,28218,1,2,0:3:0:0:
453,119,28330,86,0,B|444:194|392:147|382:232,1,133.333333333333,6|2,3:1|0:3,0:0:0:0:
304,314,28555,1,2,0:3:0:0:
376,343,28667,22,0,B|367:267|315:314|305:229,1,133.333333333333,2|2,3:1|0:3,0:0:0:0:
157,178,28892,1,2,0:3:0:0:
177,102,29004,86,0,L|189:55,1,25.0000009536744,2|0,3:1|0:0,0:0:0:0:
212,235,29117,2,0,L|246:269,1,25.0000009536744,2|0,3:3|0:0,0:0:0:0:
79,199,29229,2,0,L|32:211,1,25.0000009536744,2|0,3:3|0:0,0:0:0:0:
233,158,29341,22,0,L|279:145,1,25.0000009536744,2|0,3:1|0:0,0:0:0:0:
136,255,29454,2,0,L|123:301,1,25.0000009536744,2|0,3:3|0:0,0:0:0:0:
100,122,29567,2,0,L|65:87,1,25.0000009536744,2|0,3:3|0:0,0:0:0:0:
157,178,29678,22,0,P|277:200|395:231,1,225.000008583069,6|0,3:2|0:2,0:2:0:0:
398,298,30015,2,0,P|444:264|444:216,1,75.0000028610231,10|0,0:2|0:2,0:2:0:0:
312,3,30184,6,0,L|337:57,1,50,2|0,0:2|0:2,0:2:0:0:
481,43,30353,101,2,0:2:0:0:
426,61,30437,1,0,0:2:0:0:
400,91,30521,1,0,0:2:0:0:
388,122,30605,1,0,0:2:0:0:
396,145,30690,1,8,0:2:0:0:
408,154,30774,1,0,0:2:0:0:
417,151,30858,1,0,0:2:0:0:
421,144,30942,1,0,0:2:0:0:
499,153,31027,6,0,P|422:185|332:305,1,225.000008583069,2|0,3:2|0:2,0:2:0:0:
321,366,31364,2,0,P|285:351|269:291,1,75.0000028610231,10|0,0:2|0:2,0:2:0:0:
0,210,31532,102,0,L|89:184,1,50,2|0,0:2|0:2,0:2:0:0:
268,79,31701,5,0,0:2:0:0:
271,66,31785,1,0,0:2:0:0:
262,55,31869,2,0,L|138:30,1,112.500004291535,2|0,0:2|0:2,0:2:0:0:
151,32,32038,102,0,L|90:48,1,50,10|0,0:2|0:2,0:2:0:0:
124,212,32207,1,0,0:2:0:0:
139,224,32291,1,0,0:2:0:0:
122,297,32375,6,0,B|84:299|84:299|207:104,1,225.000008583069,2|0,3:2|0:2,0:2:0:0:
102,44,32712,2,0,B|84:72|84:72|123:116,1,75.0000028610231,10|0,0:2|0:2,0:2:0:0:
201,265,32881,102,0,L|250:252,1,50,2|0,0:2|0:2,0:2:0:0:
382,321,33049,5,2,0:2:0:0:
437,303,33133,1,0,0:2:0:0:
463,273,33217,1,0,0:2:0:0:
475,242,33301,1,0,0:2:0:0:
467,219,33386,1,8,0:2:0:0:
455,210,33470,1,0,0:2:0:0:
446,213,33554,1,0,0:2:0:0:
442,220,33638,1,0,0:2:0:0:
511,255,33723,102,0,P|382:189|401:93,1,225.000008583069,2|0,3:2|0:2,0:2:0:0:
389,51,34060,2,0,B|378:35|378:35|286:102,1,112.500004291535,10|0,0:2|0:2,0:2:0:0:
302,89,34229,6,0,L|243:71,1,50,2|0,0:2|0:2,0:2:0:0:
116,53,34398,102,0,B|112:85|112:85|195:154,1,112.500004291535,2|0,0:2|0:2,0:2:0:0:
173,136,34566,6,0,L|212:118,2,25,2|0|0,0:2|0:2|0:2,0:2:0:0:
155,210,34735,101,10,0:2:0:0:
167,216,34819,1,0,0:2:0:0:
179,221,34903,1,0,0:2:0:0:
190,226,34987,1,0,0:2:0:0:
270,220,35072,6,0,P|183:250|5:325,1,225.000008583069,2|0,3:2|0:2,0:2:0:0:
8,175,35409,2,0,P|23:197|85:214,1,75.0000028610231,10|0,0:2|0:2,0:2:0:0:
175,381,35577,102,0,L|192:316,1,50,2|0,0:2|0:2,0:2:0:0:
394,366,35746,6,0,P|368:322|309:270,1,112.500004291535,2|0,0:2|0:2,0:2:0:0:
323,279,35914,102,0,L|270:268,1,50,2|0,0:2|0:2,0:2:0:0:
131,162,36083,1,8,0:2:0:0:
128,149,36167,1,0,0:2:0:0:
137,138,36251,2,0,L|196:123,1,50,2|0,0:2|0:2,0:2:0:0:
357,66,36420,5,0,3:2:0:0:
417,21,36504,2,0,P|362:24|316:154,1,187.500007152558,2|0,0:2|0:2,0:2:0:0:
306,130,36757,102,0,P|357:146|379:186,1,75.0000028610231,10|0,0:2|0:2,0:2:0:0:
483,254,36926,6,0,P|482:277|450:307,1,50,2|0,0:2|0:2,0:2:0:0:
333,384,37094,101,2,0:2:0:0:
278,366,37178,1,0,0:2:0:0:
252,336,37262,1,0,0:2:0:0:
240,305,37346,1,0,0:2:0:0:
248,282,37431,1,8,0:2:0:0:
260,273,37515,1,0,0:2:0:0:
269,276,37599,1,0,0:2:0:0:
273,283,37683,1,0,0:2:0:0:
354,281,37768,6,0,P|218:242|109:242,1,225.000008583069,2|0,3:2|0:2,0:2:0:0:
68,199,38105,2,0,B|82:176|106:169|106:169|25:157|3:255|58:295,1,225.000008583069,10|0,0:2|0:2,0:2:0:0:
152,369,38442,102,0,P|193:336|186:295,1,75.0000028610231,2|0,0:2|0:2,0:2:0:0:
282,176,38611,6,0,L|250:123,1,50,2|0,0:2|0:2,0:2:0:0:
401,214,38780,102,0,P|432:128|478:62,1,150.000005722046,10|0,0:2|0:2,0:2:0:0:
346,130,39032,1,0,0:2:0:0:
282,176,39117,6,0,P|187:139|150:23,1,225.000008583069,2|0,3:2|0:2,0:2:0:0:
85,188,39454,102,0,P|90:171|108:151,3,37.5000014305115,10|0|0|0,0:2|0:2|0:2|0:2,0:2:0:0:
198,263,39791,53,2,0:3:0:0:
204,279,39875,21,2,0:3:0:0:
229,289,39959,85,2,0:3:0:0:
259,281,40044,21,2,0:3:0:0:
275,255,40128,85,2,0:3:0:0:
300,216,40212,21,2,0:3:0:0:
356,200,40296,85,2,0:3:0:0:
419,228,40381,21,2,0:3:0:0:
477,277,40465,22,0,L|507:147,1,119.999996337891,6|0,3:2|0:2,0:2:0:0:
302,22,40802,2,0,B|271:65|271:65|316:136,1,119.999996337891,10|0,3:2|0:2,0:2:0:0:
366,185,41055,1,0,0:2:0:0:
366,185,41139,2,0,L|205:225,1,119.999996337891,2|0,3:2|0:2,0:2:0:0:
113,340,41476,2,0,B|82:297|82:297|127:226,1,119.999996337891,10|0,3:2|0:2,0:2:0:0:
177,177,41729,1,0,0:2:0:0:
177,177,41813,6,0,L|16:137,1,119.999996337891,2|0,3:2|0:2,0:2:0:0:
0,58,42150,1,10,3:2:0:0:
134,1,42319,1,2,0:2:0:0:
35,222,42487,101,2,3:2:0:0:
230,245,42656,1,2,0:2:0:0:
0,384,42824,5,10,3:2:0:0:
183,356,42993,1,2,0:2:0:0:
183,356,43077,1,2,0:2:0:0:
183,356,43162,102,0,L|135:235,1,119.999996337891,2|0,3:2|0:2,0:2:0:0:
221,22,43499,2,0,L|353:67,1,119.999996337891,10|0,3:2|0:2,0:2:0:0:
365,136,43751,1,0,0:2:0:0:
365,136,43836,2,0,B|333:151|333:151|296:241,1,119.999996337891,2|0,3:2|0:2,0:2:0:0:
362,368,44173,2,0,L|494:323,1,119.999996337891,10|0,3:2|0:2,0:2:0:0:
506,254,44425,1,0,0:2:0:0:
506,254,44510,6,0,B|474:239|474:239|437:149,1,119.999996337891,2|0,3:2|0:2,0:2:0:0:
512,89,44847,1,10,3:2:0:0:
341,0,45015,1,2,0:2:0:0:
380,261,45184,102,0,L|394:239,12,18.7500007152558,2|0|0|0|0|0|0|0|0|0|0|0|0,3:1|0:2|0:2|0:2|0:2|0:2|0:2|0:2|0:2|0:2|0:2|0:2|0:2,0:2:0:0:
445,311,45858,5,6,3:2:0:0:
381,103,46027,1,2,3:2:0:0:
216,227,46195,101,10,3:2:0:0:
184,157,46364,1,2,3:2:0:0:
67,311,46532,5,2,3:2:0:0:
131,103,46701,1,2,3:2:0:0:
296,227,46869,101,10,3:2:0:0:
328,157,47038,1,2,3:2:0:0:
187,297,47207,5,6,3:2:0:0:
296,89,47375,1,2,3:2:0:0:
325,297,47544,101,10,3:2:0:0:
216,89,47712,1,2,3:2:0:0:
256,352,47881,6,0,L|256:320,12,18.7500007152558,2|0|0|0|0|0|0|0|0|0|0|0|0,3:1|0:2|0:2|0:2|0:2|0:2|0:2|0:2|0:2|0:2|0:2|0:2|0:2,0:2:0:0:
283,263,48555,101,6,3:2:0:0:
245,217,48639,1,2,3:2:0:0:
238,178,48723,1,2,3:2:0:0:
244,146,48807,1,2,3:2:0:0:
263,131,48892,1,10,3:2:0:0:
277,129,48976,1,2,3:2:0:0:
283,136,49060,1,2,3:2:0:0:
284,144,49144,1,2,3:2:0:0:
279,149,49229,5,6,3:2:0:0:
268,167,49313,1,2,3:2:0:0:
276,199,49398,1,2,3:2:0:0:
311,213,49482,1,2,3:2:0:0:
353,200,49566,1,10,3:2:0:0:
376,159,49650,1,2,3:2:0:0:
373,100,49735,1,2,3:2:0:0:
326,54,49819,1,2,3:2:0:0:
250,41,49903,37,6,0:2:0:0:
203,82,49987,1,2,0:3:0:0:
165,101,50072,1,2,0:3:0:0:
133,99,50156,1,2,0:3:0:0:
73,145,50240,21,2,0:3:0:0:
39,128,50324,1,2,0:3:0:0:
32,108,50409,1,2,0:3:0:0:
38,94,50493,1,2,0:3:0:0:
3,28,50577,85,2,0:3:0:0:
89,13,50690,21,2,0:3:0:0:
160,63,50802,85,2,0:3:0:0:
174,148,50914,21,2,0:3:0:0:
244,198,51027,85,2,0:3:0:0:
328,183,51139,21,2,0:3:0:0:
376,112,51251,6,0,B|368:102|368:102|385:57,6,37.5000014305115,6|0|0|0|0|0|0,3:1|0:0|0:0|0:0|0:0|0:0|0:0,0:0:0:0:
438,155,51589,86,0,B|466:167|466:167|429:227|464:321|464:321|422:231|355:207|355:207|366:171,1,375,10|0,1:1|0:2,0:2:0:0:
211,288,51926,21,2,0:2:0:0:
230,276,52010,1,2,0:2:0:0:
306,284,52094,86,0,B|300:265|300:265|200:233,1,100,2|0,3:1|0:2,0:2:0:0:
13,217,52263,21,10,1:2:0:0:
68,197,52347,1,2,0:2:0:0:
124,179,52431,1,2,0:2:0:0:
180,161,52515,1,2,0:2:0:0:
195,169,52600,86,0,L|207:121,1,37.5000014305115,2|0,0:1|0:2,0:2:0:0:
119,59,52768,1,2,3:2:0:0:
107,43,52853,1,2,0:2:0:0:
161,47,52937,21,10,1:2:0:0:
107,103,53021,1,2,0:2:0:0:
31,88,53105,2,0,L|20:51,1,37.5000014305115,2|0,0:1|3:2,0:2:0:0:
0,201,53274,85,2,0:2:0:0:
76,225,53358,1,2,0:2:0:0:
152,249,53442,1,2,3:2:0:0:
228,273,53527,1,2,0:2:0:0:
297,233,53611,22,0,B|319:200|319:200|162:209|151:374,1,300,10|0,1:1|0:2,0:2:0:0:
23,188,53948,86,0,L|7:158,1,30,2|0,3:1|0:2,0:2:0:0:
9,161,54117,22,0,P|89:168|153:260,1,187.5,2|0,0:1|0:2,0:2:0:0:
151,248,54285,2,0,P|91:254|54:331,1,125,10|0,1:1|0:2,0:2:0:0:
315,355,54454,85,2,0:2:0:0:
331,360,54538,1,2,0:2:0:0:
348,366,54622,2,0,B|348:264|242:312|256:181,1,187.5,2|0,0:1|0:2,0:2:0:0:
255,213,54791,22,0,L|343:182,1,75.0000028610231,2|0,3:1|0:2,0:2:0:0:
414,81,54959,85,10,1:2:0:0:
380,91,55044,1,2,0:2:0:0:
342,61,55128,21,2,0:2:0:0:
347,46,55212,1,2,0:2:0:0:
311,7,55296,85,2,0:2:0:0:
237,27,55381,1,2,0:2:0:0:
184,82,55465,1,2,3:2:0:0:
165,157,55549,1,2,0:2:0:0:
94,186,55633,22,0,B|74:178|74:178|44:111,1,75.0000028610231,10|0,1:1|0:2,0:2:0:0:
19,281,55802,1,2,0:2:0:0:
38,288,55886,1,2,3:2:0:0:
44,362,55971,86,0,B|60:374|60:374|121:298|195:306,1,150,2|0,0:1|0:2,0:2:0:0:
236,272,56139,22,0,L|246:206,1,37.5000014305115,2|0,3:2|0:2,0:2:0:0:
248,280,56223,2,0,L|257:213,1,37.5000014305115,2|0,0:2|0:2,0:2:0:0:
261,289,56308,85,2,1:2:0:0:
308,351,56392,22,0,B|317:283|317:283|194:241|194:241|167:171,1,250,10|0,3:1|0:2,0:2:0:0:
160,88,56645,86,0,B|161:39|115:16|115:16|200:-38|289:79|178:112|178:112|88:130|99:207,1,450.000017166138,2|0,3:1|0:0,0:0:0:0:
53,294,56982,1,10,1:2:0:0:
103,353,57066,1,2,0:2:0:0:
138,320,57150,21,2,0:2:0:0:
145,308,57235,1,2,0:2:0:0:
216,333,57319,86,0,B|241:349|241:349|398:292,1,187.5,2|0,0:1|0:2,0:2:0:0:
389,295,57487,2,0,B|385:222|321:274|318:171,1,125,2|0,3:1|0:2,0:2:0:0:
444,38,57656,22,0,L|459:68,1,30,10|0,1:1|0:2,0:2:0:0:
457,64,57824,86,0,P|394:87|376:175,1,125,2|0,0:1|0:2,0:2:0:0:
260,256,57993,21,2,0:2:0:0:
232,183,58077,1,2,0:2:0:0:
205,110,58161,1,2,3:2:0:0:
178,38,58246,1,2,0:2:0:0:
244,84,58330,85,10,1:2:0:0:
232,114,58414,1,2,0:2:0:0:
222,146,58498,1,2,0:2:0:0:
212,177,58582,1,2,3:2:0:0:
139,157,58667,22,0,P|128:137|114:104,1,50,2|0,0:1|0:2,0:2:0:0:
276,225,58836,86,0,P|287:245|314:301,1,75.0000028610231,2|0,3:1|0:2,0:2:0:0:
70,318,59004,21,10,1:2:0:0:
57,308,59089,1,2,0:2:0:0:
45,299,59173,2,0,B|45:273|45:273|215:210,1,187.5,2|0,0:1|0:2,0:2:0:0:
196,216,59341,86,0,L|206:186,1,25,2|0,3:1|0:2,0:2:0:0:
127,28,59510,1,2,0:2:0:0:
110,33,59594,1,2,0:2:0:0:
101,55,59678,21,10,1:2:0:0:
145,68,59763,1,2,0:2:0:0:
179,104,59847,85,2,0:2:0:0:
244,68,59932,1,2,0:2:0:0:
319,71,60015,22,0,B|348:92|348:92|267:123|289:229,1,187.5,2|0,0:1|0:2,0:2:0:0:
286,215,60184,2,0,P|256:160|171:142,1,125,2|0,3:1|0:2,0:2:0:0:
0,206,60353,86,0,B|6:221|6:221|52:232,1,50,10|0,1:1|0:2,0:2:0:0:
141,322,60521,21,2,0:2:0:0:
129,302,60605,1,2,0:2:0:0:
155,263,60690,85,2,0:2:0:0:
82,295,60774,1,2,0:2:0:0:
9,327,60858,22,0,P|10:267|79:131,1,187.5,2|0,3:1|0:2,0:2:0:0:
60,151,61027,86,0,L|128:135,1,50,10|0,1:1|0:2,0:2:0:0:
0,12,61195,22,0,P|68:21|101:101,1,125,2|0,0:1|3:2,0:2:0:0:
177,184,61364,85,2,0:2:0:0:
220,123,61448,1,2,0:2:0:0:
288,93,61532,1,2,3:2:0:0:
361,100,61617,1,2,0:2:0:0:
411,43,61701,21,10,1:2:0:0:
334,29,61785,86,0,B|304:38|273:24|273:24|362:78|388:216,1,250,2|0,3:1|0:2,0:2:0:0:
447,233,62038,54,0,L|17:155,1,400,4|0,0:2|0:2,0:2:0:0:
53,161,62375,54,0,B|26:210|26:210|131:349|131:349|114:186,1,375,14|0,1:1|0:0,0:0:0:0:
219,105,62712,21,2,0:2:0:0:
200,93,62796,1,2,0:2:0:0:
222,20,62881,86,0,B|204:10|204:10|107:53,1,100,2|0,3:1|0:2,0:2:0:0:
115,204,63049,21,10,1:2:0:0:
170,224,63133,1,2,0:2:0:0:
226,242,63217,1,2,0:2:0:0:
282,260,63301,1,2,0:2:0:0:
298,254,63386,86,0,L|310:302,1,37.5000014305115,2|0,0:1|0:2,0:2:0:0:
375,379,63555,22,0,B|365:278|463:331|453:215,1,187.5,2|0,3:1|0:2,0:2:0:0:
372,193,63723,86,0,L|306:183,1,37.5000014305115,10|0,1:2|0:2,0:2:0:0:
382,184,63807,2,0,L|315:175,1,37.5000014305115,2|0,0:2|0:2,0:2:0:0:
392,174,63892,21,2,0:2:0:0:
358,106,63976,1,2,3:2:0:0:
328,36,64060,85,2,0:2:0:0:
333,21,64145,1,2,0:2:0:0:
340,7,64229,2,0,B|316:1|316:1|164:72,1,187.5,2|0,3:1|0:2,0:2:0:0:
168,69,64398,22,0,B|123:51|75:81|75:81|257:90|283:256,1,375,10|0,1:1|0:2,0:2:0:0:
146,384,64735,86,0,L|133:352,1,30,2|0,3:1|0:2,0:2:0:0:
134,356,64903,22,0,B|100:340|100:340|131:249|226:229,1,187.5,2|0,0:1|0:2,0:2:0:0:
200,236,65072,2,0,P|236:300|312:304,1,125,10|0,1:1|0:2,0:2:0:0:
479,315,65240,85,2,0:2:0:0:
459,309,65324,1,2,0:2:0:0:
415,370,65409,22,0,P|356:284|340:190,1,187.5,2|0,0:1|0:2,0:2:0:0:
339,203,65577,86,0,P|379:174|395:129,1,75.0000028610231,2|0,3:1|0:2,0:2:0:0:
263,85,65746,21,10,1:2:0:0:
189,61,65831,1,2,0:2:0:0:
161,110,65915,85,2,0:2:0:0:
174,148,65999,1,2,0:2:0:0:
221,171,66083,21,2,0:2:0:0:
234,182,66168,1,2,0:2:0:0:
247,193,66251,2,0,P|237:215|229:250,1,50,2|0,3:1|0:2,0:2:0:0:
112,358,66420,85,10,1:2:0:0:
168,340,66504,1,2,0:2:0:0:
224,322,66588,1,2,0:2:0:0:
279,302,66672,1,2,3:2:0:0:
230,239,66757,22,0,B|195:235|195:235|189:146|110:80,1,187.5,2|0,0:1|0:2,0:2:0:0:
186,46,66926,86,0,L|167:0,1,37.5000014305115,2|0,3:2|0:2,0:2:0:0:
200,49,67010,2,0,L|181:3,1,37.5000014305115,2|0,0:2|0:2,0:2:0:0:
213,54,67094,21,10,1:2:0:0:
264,113,67178,86,0,P|211:140|94:302,1,250,2|0,3:1|0:2,0:2:0:0:
26,320,67431,22,0,P|37:342|63:351,6,37.5000014305115,2|0|0|0|0|0|0,3:1|0:0|0:0|0:0|0:0|0:0|0:0,0:0:0:0:
8,226,67768,85,10,1:2:0:0:
56,171,67852,1,2,0:2:0:0:
127,189,67936,21,2,0:2:0:0:
134,201,68021,1,2,0:2:0:0:
143,276,68105,86,0,B|129:250|129:250|196:142|196:142|176:101,1,187.5,2|0,0:1|0:2,0:2:0:0:
182,114,68274,22,0,B|168:94|168:94|214:24,1,75.0000028610231,2|0,3:1|0:2,0:2:0:0:
65,163,68442,86,0,B|78:184|78:184|291:227|291:227|288:270|288:270|199:325,1,375,10|0,1:1|0:2,0:2:0:0:
143,276,68780,21,2,0:2:0:0:
112,291,68864,1,2,0:2:0:0:
81,306,68948,1,2,3:2:0:0:
50,321,69032,1,2,0:2:0:0:
0,264,69117,85,10,1:2:0:0:
76,286,69201,1,2,0:2:0:0:
153,309,69285,1,2,0:2:0:0:
229,332,69370,1,2,3:2:0:0:
293,289,69454,22,0,B|315:274|315:274|331:212,1,75.0000028610231,2|0,0:1|0:2,0:2:0:0:
224,81,69622,1,2,3:2:0:0:
236,72,69707,1,2,0:2:0:0:
248,64,69791,2,0,L|336:89,1,75.0000028610231,10|0,1:1|0:2,0:2:0:0:
248,228,69959,85,2,3:2:0:0:
179,257,70044,1,2,3:2:0:0:
110,286,70128,22,0,B|83:281|83:281|53:222,1,75.0000028610231,6|0,3:1|0:2,0:2:0:0:
171,359,70296,86,0,B|192:268|192:268|182:252|182:252|205:143,2,200,2|0|4,1:1|0:2|3:2,0:2:0:0:
97,45,70802,22,0,B|91:92|91:92|143:118,1,100,2|0,1:1|0:2,0:2:0:0:
272,179,70971,1,2,0:2:0:0:
318,121,71055,1,2,0:2:0:0:
280,57,71139,85,6,3:2:0:0:
289,49,71223,1,2,0:2:0:0:
298,41,71308,2,0,B|318:23|318:23|419:43|419:153,1,187.5,2|0,1:1|0:2,0:2:0:0:
417,132,71476,22,0,L|395:175,1,37.5000014305115,2|0,0:1|0:2,0:2:0:0:
267,236,71645,86,0,B|273:255|273:255|398:284,1,125,6|0,3:1|0:2,0:2:0:0:
440,233,71813,21,2,1:2:0:0:
375,278,71898,2,0,B|359:304|359:304|135:349,1,250,2|0,3:1|0:2,0:2:0:0:
110,218,72150,85,6,3:2:0:0:
79,203,72234,1,2,0:2:0:0:
48,188,72318,1,2,0:2:0:0:
17,173,72402,1,2,3:2:0:0:
0,184,72487,21,2,1:2:0:0:
23,112,72572,1,2,3:2:0:0:
95,88,72656,85,2,0:2:0:0:
108,92,72740,1,2,0:2:0:0:
119,96,72824,2,2,B|116:57|66:26|66:26|61:17|61:17|221:72|129:133|86:207|179:259|255:213|255:213|243:217|243:217|151:165|99:197|24:232|60:352|60:352|63:266|119:261,1,875,6|0,3:1|0:1,0:1:0:0:
5,167,73499,22,0,B|-11:188|-11:188|132:178|176:318,1,262.500010013581,10|0,1:1|0:2,0:2:0:0:
171,305,73836,86,0,L|223:319,1,37.5000014305115,2|0,3:2|0:2,0:2:0:0:
320,342,74004,2,0,L|268:328,1,37.5000014305115,2|0,3:2|0:2,0:2:0:0:
327,138,74173,22,0,B|299:146|299:146|279:48|395:23,1,187.5,2|0,0:1|0:2,0:2:0:0:
375,27,74341,86,0,P|419:46|428:93,1,75.0000028610231,2|0,3:1|0:2,0:2:0:0:
512,235,74510,22,0,P|464:183|369:200,1,150,2|0,3:1|0:2,0:2:0:0:
389,185,74678,86,0,P|380:213|353:237,1,50,2|0,0:1|0:2,0:2:0:0:
379,351,74847,22,0,P|379:361|394:381,2,25,10|0|0,1:2|0:2|0:2,0:2:0:0:
454,338,75015,86,0,P|455:301|467:271,1,50,2|0,3:1|0:2,0:2:0:0:
300,265,75184,21,2,0:2:0:0:
234,228,75268,1,2,0:2:0:0:
240,154,75353,85,2,3:2:0:0:
249,145,75437,1,2,0:2:0:0:
256,135,75521,2,0,L|225:125,1,30,2|0,3:1|0:2,0:2:0:0:
227,125,75690,22,0,B|222:89|222:89|310:73|310:73|297:88|297:88|99:126|99:126|61:106,1,375,2|0,0:1|0:2,0:2:0:0:
113,47,76027,86,0,B|95:32|95:32|100:18|100:18|116:26|116:26|115:46,1,75.0000028610231,2|0,3:2|0:2,0:2:0:0:
259,204,76195,22,0,B|265:244|265:244|182:305|182:305|182:376|182:376|219:314|219:314|157:226|157:226|182:190,1,437.5,10|0,1:1|0:2,0:2:0:0:
182,190,76532,86,0,L|198:146,1,37.5000014305115,2|0,3:2|0:2,0:2:0:0:
232,48,76701,2,0,L|216:92,1,37.5000014305115,2|0,3:2|0:2,0:2:0:0:
5,72,76869,22,0,B|-7:95|-7:95|102:168|102:168|80:207,1,187.5,2|0,0:1|0:2,0:2:0:0:
87,194,77038,86,0,L|-10:223,1,75.0000028610231,2|0,3:1|0:2,0:2:0:0:
0,300,77207,22,0,L|154:255,1,150,2|0,3:1|0:2,0:2:0:0:
194,336,77375,86,0,L|210:388,1,37.5000014305115,2|0,0:2|0:2,0:2:0:0:
204,327,77459,2,0,L|219:378,1,37.5000014305115,2|0,0:2|0:2,0:2:0:0:
215,318,77544,22,0,B|210:247|262:276|247:187,1,125,10|0,1:1|0:2,0:2:0:0:
285,71,77712,1,2,3:2:0:0:
271,49,77796,1,2,0:2:0:0:
203,84,77881,85,2,0:2:0:0:
276,110,77965,1,2,0:2:0:0:
349,136,78049,1,2,3:2:0:0:
422,162,78133,1,2,0:2:0:0:
469,100,78218,22,2,B|463:73|491:50|491:50|335:64|323:178|379:266|379:266|384:242|384:242|371:195|395:148|395:148|284:171|205:168|171:76|210:27|210:27|200:93|250:123,1,875,2|0,3:1|0:1,0:1:0:0:
287,50,78892,86,0,B|291:41|291:41|300:37|300:37|307:38|307:38|312:44|312:44|311:56|311:56|306:60|306:60|298:61|298:61|291:55|291:55|287:50,1,75.0000028610231,10|0,1:1|0:2,0:2:0:0:
279,237,79060,22,0,P|232:249|163:351,1,150,2|0,0:1|0:2,0:2:0:0:
168,323,79229,86,0,L|120:316,1,37.5000014305115,2|0,3:2|0:2,0:2:0:0:
20,296,79398,2,0,L|68:303,1,37.5000014305115,2|0,3:2|0:2,0:2:0:0:
227,374,79566,22,0,B|246:279|155:288|159:196,1,187.5,2|0,0:1|0:2,0:2:0:0:
159,207,79735,86,0,P|199:178|208:150,1,75.0000028610231,2|0,3:1|0:2,0:2:0:0:
39,10,79903,22,0,B|21:34|21:34|106:40|122:103,1,150,2|0,3:1|0:2,0:2:0:0:
118,91,80072,86,0,P|124:128|151:142,1,50,2|0,0:1|0:2,0:2:0:0:
258,229,80240,21,10,1:2:0:0:
332,222,80324,1,2,0:2:0:0:
392,178,80408,1,2,3:2:0:0:
422,111,80493,1,2,0:2:0:0:
496,99,80577,86,0,B|481:71|481:71|294:152,1,187.5,2|0,0:1|0:2,0:2:0:0:
338,132,80746,22,0,B|324:160|324:160|369:189,1,75.0000028610231,2|0,3:1|0:2,0:2:0:0:
489,294,80914,86,0,L|503:265,1,30,2|0,3:1|0:2,0:2:0:0:
502,266,81083,22,0,B|493:236|493:236|389:275|409:381,1,187.5,2|0,0:1|0:2,0:2:0:0:
405,351,81251,2,0,P|366:293|272:295,1,125,2|0,0:1|0:2,0:2:0:0:
179,204,81420,1,2,3:2:0:0:
191,196,81504,1,2,0:2:0:0:
263,223,81589,86,0,B|218:146|143:161|143:161|158:87,1,187.5,10|0,1:1|0:2,0:2:0:0:
151,119,81757,22,0,B|160:87|191:75|191:75|162:47|162:47|36:20|36:20|79:45|74:96,1,300,2|0,0:1|0:2,0:2:0:0:
73,74,81926,86,0,L|63:114,1,37.5000014305115,2|0,3:2|0:2,0:2:0:0:
0,223,82094,21,2,3:2:0:0:
69,253,82178,1,2,0:2:0:0:
138,283,82263,86,0,L|144:309,2,18.7500007152558,2|0|0,0:2|0:2|0:2,0:2:0:0:
217,271,82431,22,0,B|230:245|230:245|356:297|356:297|342:327,1,187.5,2|0,3:1|0:2,0:2:0:0:
346,317,82600,86,0,B|290:295|290:295|351:175,1,187.5,2|0,3:1|0:2,0:2:0:0:
446,234,82768,22,0,L|472:192,1,37.5000014305115,2|0,0:2|0:2,0:2:0:0:
435,223,82853,2,0,L|461:181,1,37.5000014305115,2|0,0:2|0:2,0:2:0:0:
423,215,82937,86,0,B|418:144|470:173|455:84,1,125,10|0,1:1|0:2,0:2:0:0:
345,10,83105,21,2,3:2:0:0:
322,20,83190,1,2,0:2:0:0:
315,78,83274,85,2,0:2:0:0:
335,92,83359,1,2,0:2:0:0:
387,70,83442,21,2,3:2:0:0:
389,45,83527,1,2,3:2:0:0:
349,52,83611,22,0,L|170:367,1,350.00000333786,4|0,0:2|0:2,0:2:0:0:
176,356,83948,86,0,B|184:334|184:334|120:303|88:210|88:210|112:307|70:363|70:363|96:377,1,375,14|0,1:1|0:0,0:0:0:0:
281,360,84285,85,2,0:2:0:0:
300,348,84369,1,2,0:2:0:0:
376,356,84453,22,0,B|370:337|370:337|270:305,1,100,2|0,3:1|0:2,0:2:0:0:
81,246,84622,85,10,1:2:0:0:
101,191,84706,1,2,0:2:0:0:
119,135,84790,1,2,0:2:0:0:
137,79,84874,1,2,0:2:0:0:
129,64,84959,22,0,L|177:52,1,37.5000014305115,2|0,0:1|0:2,0:2:0:0:
273,130,85127,1,2,3:2:0:0:
297,112,85212,1,2,0:2:0:0:
258,85,85296,85,10,1:2:0:0:
195,129,85380,1,2,0:2:0:0:
217,201,85464,2,0,L|258:217,1,37.5000014305115,2|0,0:1|3:2,0:2:0:0:
405,286,85633,21,2,0:2:0:0:
329,310,85717,1,2,0:2:0:0:
253,334,85801,1,2,3:2:0:0:
177,358,85886,1,2,0:2:0:0:
105,325,85970,86,0,B|74:329|62:372|62:372|43:271|187:279|116:164,1,300,10|0,1:1|0:2,0:2:0:0:
205,17,86307,22,0,L|238:26,1,30,2|0,3:1|0:2,0:2:0:0:
233,24,86476,86,0,B|257:43|257:43|162:98|216:187,1,187.5,2|0,0:1|0:2,0:2:0:0:
208,173,86644,2,0,B|240:188|240:188|341:149,1,125,10|0,1:1|0:2,0:2:0:0:
353,60,86813,21,2,0:2:0:0:
340,68,86897,1,2,0:2:0:0:
329,77,86981,2,0,B|329:179|435:131|421:262,1,187.5,2|0,0:1|0:2,0:2:0:0:
421,229,87150,86,0,P|384:258|363:307,1,75.0000028610231,2|0,3:1|0:2,0:2:0:0:
225,313,87318,21,10,1:2:0:0:
205,303,87403,1,2,0:2:0:0:
173,269,87487,85,2,0:2:0:0:
180,248,87571,1,2,0:2:0:0:
218,215,87655,21,2,0:2:0:0:
292,195,87740,1,2,0:2:0:0:
345,140,87824,1,2,3:2:0:0:
364,65,87908,1,2,0:2:0:0:
308,13,87992,86,0,B|293:9|293:9|223:49,1,75.0000028610231,10|0,1:1|0:2,0:2:0:0:
194,144,88161,1,2,0:2:0:0:
178,150,88245,1,2,3:2:0:0:
142,214,88330,22,0,B|122:209|122:209|99:140|30:100,1,150,2|0,0:1|0:2,0:2:0:0:
118,67,88498,86,0,L|128:1,1,37.5000014305115,2|0,3:2|0:2,0:2:0:0:
128,78,88582,2,0,L|137:11,1,37.5000014305115,2|0,0:2|0:2,0:2:0:0:
137,88,88667,21,10,1:2:0:0:
178,150,88751,86,0,B|186:182|186:182|32:284|32:284|41:328,1,250,2|0,3:1|0:2,0:2:0:0:
120,325,89004,22,0,B|138:334|138:334|145:371,6,37.5000014305115,2|0|0|0|0|0|0,3:1|0:0|0:0|0:0|0:0|0:0|0:0,0:0:0:0:
188,275,89341,85,10,1:2:0:0:
258,309,89425,1,2,0:2:0:0:
317,258,89509,21,2,0:2:0:0:
324,246,89594,1,2,0:2:0:0:
295,172,89678,86,0,B|242:134|242:134|256:49|256:49|295:31,1,187.5,2|0,0:1|0:2,0:2:0:0:
288,33,89847,22,0,B|329:37|329:37|353:76,1,75.0000028610231,2|0,3:1|0:2,0:2:0:0:
295,172,90015,86,0,B|407:136|407:136|425:144|425:144|236:210|236:210|222:255,1,375,10|0,1:1|0:2,0:2:0:0:
297,267,90353,21,2,0:2:0:0:
328,282,90437,1,2,0:2:0:0:
359,297,90521,1,2,3:2:0:0:
390,312,90605,1,2,0:2:0:0:
445,257,90690,85,10,1:2:0:0:
369,279,90774,1,2,0:2:0:0:
292,302,90858,1,2,0:2:0:0:
216,325,90943,1,2,3:2:0:0:
168,382,91027,22,0,B|146:367|146:367|130:305,1,75.0000028610231,2|0,0:1|0:2,0:2:0:0:
23,89,91195,1,2,3:2:0:0:
36,81,91280,1,2,0:2:0:0:
49,74,91364,2,0,B|73:81|73:81|106:145,1,75.0000028610231,10|0,1:1|0:2,0:2:0:0:
131,242,91532,85,2,3:2:0:0:
200,271,91617,1,2,3:2:0:0:
269,300,91701,22,0,B|296:295|296:295|326:236,1,75.0000028610231,6|0,3:1|0:2,0:2:0:0:
309,79,91869,86,0,B|223:110|223:110|217:127|217:127|252:216,2,200,2|0|4,1:1|0:2|3:2,0:2:0:0:
425,374,92375,22,0,B|431:327|431:327|379:301,1,100,2|0,1:1|0:2,0:2:0:0:
344,180,92544,1,2,0:2:0:0:
414,215,92628,1,2,0:2:0:0:
468,157,92712,85,6,3:2:0:0:
457,146,92796,1,2,0:2:0:0:
489,77,92881,22,0,B|304:39,1,187.5,2|0,1:1|0:2,0:2:0:0:
305,39,93049,86,0,L|297:86,1,37.5000014305115,2|0,0:1|0:2,0:2:0:0:
344,180,93218,22,0,B|338:199|338:199|278:201|237:274,1,125,6|0,3:1|0:2,0:2:0:0:
192,200,93386,85,2,1:2:0:0:
251,251,93471,2,0,B|267:277|267:277|388:288|470:388,1,250,2|0,3:1|0:2,0:2:0:0:
447,260,93723,21,6,3:2:0:0:
462,229,93807,1,2,0:2:0:0:
477,198,93891,1,2,0:2:0:0:
492,167,93975,1,2,3:2:0:0:
429,206,94060,85,2,1:2:0:0:
403,137,94145,1,2,3:2:0:0:
363,170,94229,21,2,0:2:0:0:
368,154,94313,1,2,0:2:0:0:
293,142,94398,6,0,P|275:95|244:47,1,100,6|0,3:1|0:0,0:0:0:0:
59,31,94735,1,2,3:2:0:0:
59,55,94819,1,2,0:2:0:0:
71,77,94903,1,2,0:2:0:0:
91,91,94987,1,2,0:2:0:0:
116,94,95072,1,2,3:2:0:0:
0,247,95240,5,2,0:2:0:0:
16,258,95324,1,2,0:2:0:0:
31,271,95409,2,0,P|65:256|92:248,1,50,2|0,3:2|0:2,0:2:0:0:
154,165,95577,1,2,0:2:0:0:
130,380,95746,102,0,P|139:320|164:268,1,100,2|0,3:2|0:2,0:2:0:0:
36,175,96083,1,2,3:2:0:0:
36,151,96167,1,2,0:2:0:0:
48,129,96251,1,2,0:2:0:0:
68,115,96335,1,2,0:2:0:0:
93,112,96420,1,2,3:2:0:0:
291,213,96589,5,2,0:2:0:0:
275,224,96673,1,2,0:2:0:0:
260,237,96758,2,0,P|226:222|199:214,1,50,2|0,3:2|0:2,0:2:0:0:
172,95,96926,1,2,0:2:0:0:
353,70,97094,102,0,P|335:77|290:95,1,50,2|0,3:2|0:2,0:2:0:0:
159,314,97263,2,0,P|177:307|222:289,1,50,2|0,3:2|0:2,0:2:0:0:
427,176,97431,6,0,P|393:163|339:144,1,75.0000028610231,2|0,3:2|0:2,0:2:0:0:
85,208,97600,2,0,P|119:221|173:240,1,75.0000028610231,2|0,3:2|0:2,0:2:0:0:
340,335,97768,102,0,P|351:278|368:236,1,100,2|0,3:2|0:2,0:2:0:0:
172,49,97937,2,0,P|161:106|144:148,1,100,2|0,3:2|0:2,0:2:0:0:
234,196,98105,5,2,3:2:0:0:
269,207,98190,1,2,0:2:0:0:
262,171,98274,1,2,3:2:0:0:
462,68,98442,37,2,3:3:0:0:
381,100,98555,21,2,0:3:0:0:
347,180,98667,85,2,0:3:0:0:
380,260,98779,21,2,0:3:0:0:
347,339,98892,85,2,0:3:0:0:
268,371,99004,21,2,0:3:0:0:
190,336,99116,86,0,P|164:295|103:256,1,100.000003814697,2|0,3:3|0:0,0:0:0:0:
0,146,99341,22,0,P|48:143|112:110,1,100.000003814697,2|0,3:3|0:0,0:0:0:0:
262,80,99566,86,0,P|239:123|236:195,1,100.000003814697,2|0,3:3|0:0,0:0:0:0:
155,191,99791,101,6,3:2:0:0:
155,191,99903,1,0,0:2:0:0:
155,191,100015,1,0,0:2:0:0:
147,274,100128,101,2,3:2:0:0:
178,265,100240,1,0,0:2:0:0:
209,256,100353,1,0,0:2:0:0:
292,296,100465,5,2,3:2:0:0:
360,257,100577,1,0,0:2:0:0:
366,178,100690,1,0,0:2:0:0:
290,106,100802,102,0,P|267:73|272:35,1,79.9999975585938,2|0,3:2|0:2,0:2:0:0:
346,1,101027,1,0,0:2:0:0:
374,83,101139,5,2,3:2:0:0:
374,83,101251,1,0,0:2:0:0:
374,83,101364,1,0,0:2:0:0:
290,106,101476,101,2,3:2:0:0:
281,137,101588,1,0,0:2:0:0:
272,168,101701,1,0,0:2:0:0:
193,208,101813,5,2,3:2:0:0:
174,136,101926,1,0,0:2:0:0:
155,64,102038,1,0,0:2:0:0:
63,111,102150,102,0,B|29:136|29:136|35:212,1,79.9999975585938,2|0,3:2|0:2,0:2:0:0:
92,226,102375,1,0,0:2:0:0:
58,313,102487,5,2,3:2:0:0:
58,313,102600,1,0,0:2:0:0:
58,313,102712,1,0,0:2:0:0:
142,355,102824,102,0,P|183:333|234:322,1,79.9999975585938,2|0,3:2|0:2,0:2:0:0:
336,201,103049,1,0,0:2:0:0:
339,291,103162,6,0,P|298:269|247:258,1,79.9999975585938,2|0,3:2|0:2,0:2:0:0:
220,196,103386,1,0,0:2:0:0:
200,75,103499,101,2,3:2:0:0:
279,57,103611,1,0,0:2:0:0:
358,39,103723,1,0,0:2:0:0:
432,102,103836,5,2,3:2:0:0:
432,102,103948,1,0,0:2:0:0:
432,102,104060,1,0,0:2:0:0:
415,187,104173,101,2,3:2:0:0:
446,178,104285,1,0,0:2:0:0:
477,169,104398,1,0,0:2:0:0:
512,245,104510,5,2,3:2:0:0:
433,227,104622,1,0,0:2:0:0:
354,209,104734,1,0,0:2:0:0:
415,306,104847,101,2,3:2:0:0:
433,227,104959,1,0,0:2:0:0:
451,148,105071,1,0,0:2:0:0:
386,85,105184,5,2,3:2:0:0:
386,85,105296,1,0,0:2:0:0:
386,85,105409,1,0,0:2:0:0:
312,138,105521,101,2,3:2:0:0:
303,106,105633,1,0,0:2:0:0:
294,75,105746,1,0,0:2:0:0:
219,129,105858,5,2,3:2:0:0:
201,208,105970,1,0,0:2:0:0:
183,287,106082,1,0,0:2:0:0:
81,316,106195,102,0,P|39:289|39:225,1,79.9999975585938,2|0,3:2|0:2,0:2:0:0:
60,190,106420,1,0,0:2:0:0:
0,128,106532,5,2,3:2:0:0:
0,128,106645,1,0,0:2:0:0:
0,128,106757,1,0,0:2:0:0:
74,76,106869,101,2,3:2:0:0:
107,65,106982,1,0,0:2:0:0:
125,37,107094,1,0,0:2:0:0:
203,76,107207,5,2,3:2:0:0:
278,98,107319,1,0,0:2:0:0:
301,174,107432,1,0,0:2:0:0:
395,199,107544,102,0,B|417:188|417:188|451:120,1,79.9999975585938,2|0,3:2|0:2,0:2:0:0:
471,64,107768,1,0,0:2:0:0:
393,47,107881,5,2,3:2:0:0:
393,47,107993,1,0,0:2:0:0:
393,47,108105,1,0,0:2:0:0:
332,116,108218,102,0,P|324:149|310:210,1,79.9999975585938,2|0,3:2|0:2,0:2:0:0:
174,65,108442,1,0,0:2:0:0:
266,41,108555,6,0,P|258:74|244:135,1,79.9999975585938,2|0,3:2|0:2,0:2:0:0:
81,262,108780,1,0,0:2:0:0:
24,203,108892,101,2,3:2:0:0:
103,185,109004,1,0,0:2:0:0:
182,167,109116,1,0,0:2:0:0:
122,110,109229,6,0,P|96:81|111:19,2,79.9999975585938,2|0|0,3:2|0:2|0:2,0:2:0:0:
269,198,109566,102,0,P|240:220|217:274,2,79.9999975585938,2|0|0,3:2|0:2|0:2,0:2:0:0:
488,292,109903,21,2,3:3:0:0:
401,284,110016,21,2,0:3:0:0:
347,215,110128,85,2,0:3:0:0:
359,128,110240,21,2,3:3:0:0:
306,62,110353,85,2,0:3:0:0:
222,51,110465,21,2,0:3:0:0:
156,105,110577,70,0,P|120:146|118:201,1,79.9999975585938,6|0,3:2|0:2,0:2:0:0:
209,289,110802,1,0,0:2:0:0:
120,308,110914,101,10,3:2:0:0:
129,276,111026,1,0,0:2:0:0:
138,245,111139,1,0,0:2:0:0:
42,212,111251,6,0,P|32:171|-6:119,1,79.9999975585938,2|0,3:2|0:2,0:2:0:0:
134,33,111476,1,0,0:2:0:0:
85,102,111589,101,10,3:2:0:0:
117,111,111701,1,0,0:2:0:0:
148,120,111814,1,0,0:2:0:0:
201,200,111926,6,0,P|251:183|305:170,1,79.9999975585938,2|0,3:2|0:2,0:2:0:0:
388,64,112150,1,0,0:2:0:0:
300,46,112263,101,10,3:2:0:0:
309,78,112375,1,0,0:2:0:0:
318,109,112488,1,0,0:2:0:0:
405,143,112600,6,0,B|419:166|419:166|315:199|320:321,1,200.000007629395,2|0,3:2|0:2,0:2:0:0:
239,352,112937,101,10,3:2:0:0:
164,330,113049,1,0,0:2:0:0:
141,254,113162,1,0,0:2:0:0:
201,200,113274,6,0,P|251:183|305:170,1,79.9999975585938,2|0,3:2|0:2,0:2:0:0:
123,79,113499,1,0,0:2:0:0:
195,117,113611,101,10,3:2:0:0:
228,106,113724,1,0,0:2:0:0:
246,78,113836,1,0,0:2:0:0:
333,120,113948,6,0,P|369:140|395:194,1,79.9999975585938,2|0,3:2|0:2,0:2:0:0:
311,289,114173,1,0,0:2:0:0:
379,250,114285,101,10,3:2:0:0:
412,261,114398,1,0,0:2:0:0:
430,289,114510,1,0,0:2:0:0:
475,207,114622,6,0,P|487:145|503:109,1,79.9999975585938,2|0,3:2|0:2,0:2:0:0:
396,8,114847,1,0,0:2:0:0:
437,75,114959,101,10,3:2:0:0:
404,86,115072,1,0,0:2:0:0:
386,114,115184,1,0,0:2:0:0:
493,129,115296,6,0,P|398:150|243:201,1,200.000007629395,2|0,3:2|0:2,0:2:0:0:
215,244,115633,101,10,3:2:0:0:
136,226,115745,1,0,0:2:0:0:
57,208,115857,1,0,0:2:0:0:
26,136,115971,6,0,P|53:97|82:76,1,79.9999975585938,2|0,3:2|0:2,0:2:0:0:
234,42,116195,1,0,0:2:0:0:
147,29,116308,101,10,3:2:0:0:
156,61,116420,1,0,0:2:0:0:
165,92,116533,1,0,0:2:0:0:
101,159,116645,6,0,P|65:141|26:136,1,79.9999975585938,2|0,3:2|0:2,0:2:0:0:
0,245,116869,1,0,0:2:0:0:
67,300,116982,101,10,3:2:0:0:
76,268,117094,1,0,0:2:0:0:
85,237,117207,1,0,0:2:0:0:
157,293,117319,6,0,P|180:330|198:370,2,79.9999975585938,2|0|0,3:2|0:2|0:2,0:2:0:0:
179,189,117656,101,10,3:2:0:0:
211,198,117768,1,0,0:2:0:0:
242,207,117881,1,0,0:2:0:0:
284,136,117993,5,2,3:2:0:0:
212,155,118105,1,0,0:2:0:0:
140,174,118218,1,0,0:2:0:0:
70,118,118330,102,0,P|37:89|36:40,1,79.9999975585938,10|0,3:2|0:2,0:2:0:0:
94,8,118555,1,0,0:2:0:0:
178,87,118667,6,0,P|103:133|84:264,1,200.000007629395,2|0,3:2|0:2,0:2:0:0:
62,369,119004,102,0,P|47:332|0:272,1,79.9999975585938,10|0,3:2|0:2,0:2:0:0:
160,237,119229,1,0,0:2:0:0:
126,308,119341,5,2,3:2:0:0:
158,317,119453,1,0,0:2:0:0:
189,326,119566,1,0,0:2:0:0:
236,260,119678,101,10,3:2:0:0:
308,241,119791,1,0,0:2:0:0:
380,222,119903,1,0,0:2:0:0:
423,290,120015,6,0,P|451:150|486:66,1,200.000007629395,2|0,3:2|0:2,0:2:0:0:
308,59,120353,102,0,B|285:59|285:59|253:-4,2,79.9999975585938,10|0|0,3:2|0:2|0:2,0:2:0:0:
385,89,120690,21,2,3:3:0:0:
347,168,120803,21,2,0:3:0:0:
264,195,120915,85,2,0:3:0:0:
186,154,121027,21,2,3:3:0:0:
106,181,121140,85,2,0:3:0:0:
67,256,121252,21,2,0:3:0:0:
95,337,121364,70,0,L|182:313,1,75.0000028610231,6|0,3:2|0:2,0:2:0:0:
280,357,121532,1,0,0:2:0:0:
324,329,121617,1,0,0:2:0:0:
379,333,121701,69,10,3:2:0:0:
399,276,121785,1,0,0:2:0:0:
427,223,121869,1,0,0:2:0:0:
463,175,121954,1,0,0:2:0:0:
488,104,122038,38,0,B|477:94|477:94|395:120,1,75.0000028610231,2|0,3:2|0:2,0:2:0:0:
292,48,122207,1,0,0:2:0:0:
255,69,122291,1,0,0:2:0:0:
223,103,122375,69,10,3:2:0:0:
269,119,122459,1,0,0:2:0:0:
313,142,122544,1,0,0:2:0:0:
348,176,122628,1,0,0:2:0:0:
320,223,122712,37,2,3:2:0:0:
303,227,122796,1,0,0:2:0:0:
290,239,122881,1,0,0:2:0:0:
287,256,122965,1,0,0:2:0:0:
317,324,123049,70,0,B|302:338|302:338|223:311,1,75.0000028610231,10|0,3:2|0:2,0:2:0:0:
97,253,123218,2,0,B|105:237|105:237|176:217,1,75.0000028610231,0|0,0:2|0:2,0:2:0:0:
251,148,123386,37,2,3:2:0:0:
269,95,123471,1,0,0:2:0:0:
245,44,123555,1,0,0:2:0:0:
194,20,123639,1,0,0:2:0:0:
127,51,123723,70,0,B|112:68|112:68|133:129,1,75.0000028610231,10|0,3:2|0:2,0:2:0:0:
0,162,123892,1,0,0:2:0:0:
24,180,123976,1,0,0:2:0:0:
33,207,124060,37,2,3:2:0:0:
46,175,124145,1,0,0:2:0:0:
74,154,124229,1,0,0:2:0:0:
107,146,124313,1,0,0:2:0:0:
140,186,124398,69,10,3:2:0:0:
163,230,124482,1,0,0:2:0:0:
208,249,124566,1,0,0:2:0:0:
258,240,124650,1,0,0:2:0:0:
284,170,124735,38,0,B|290:157|290:157|361:133,1,75.0000028610231,2|0,3:2|0:2,0:2:0:0:
484,279,124903,1,0,0:2:0:0:
448,329,124987,1,0,0:2:0:0:
395,354,125072,69,10,3:2:0:0:
390,319,125156,1,0,0:2:0:0:
374,289,125240,1,0,0:2:0:0:
352,265,125324,1,0,0:2:0:0:
300,275,125409,37,2,3:2:0:0:
270,317,125493,1,0,0:2:0:0:
224,339,125577,1,0,0:2:0:0:
172,344,125662,1,0,0:2:0:0:
132,283,125746,70,0,B|119:276|119:276|42:297,1,75.0000028610231,10|0,3:2|0:2,0:2:0:0:
0,64,125914,2,0,B|21:66|21:66|66:122,1,75.0000028610231,0|0,0:2|0:2,0:2:0:0:
132,283,126083,38,0,L|156:185,1,75.0000028610231,2|0,3:2|0:2,0:2:0:0:
303,41,126251,2,0,B|292:33|292:33|224:68,1,75.0000028610231,0|0,0:2|0:2,0:2:0:0:
69,211,126420,70,0,B|50:203|50:203|45:171,6,37.5000014305115,10|0|0|0|0|0|0,3:2|0:2|0:2|0:2|0:2|0:2|0:2,0:2:0:0:
149,210,126757,38,0,L|232:228,1,75.0000028610231,2|0,3:2|0:2,0:2:0:0:
397,362,126926,1,0,0:2:0:0:
353,334,127011,1,0,0:2:0:0:
303,322,127095,69,10,3:2:0:0:
345,279,127179,1,0,0:2:0:0:
394,244,127263,1,0,0:2:0:0:
447,216,127348,1,0,0:2:0:0:
500,166,127432,38,0,B|498:155|498:155|417:131,1,75.0000028610231,2|0,3:2|0:2,0:2:0:0:
308,195,127601,1,0,0:2:0:0:
271,174,127685,1,0,0:2:0:0:
248,145,127769,69,10,3:2:0:0:
202,161,127853,1,0,0:2:0:0:
158,184,127938,1,0,0:2:0:0:
123,218,128022,1,0,0:2:0:0:
92,257,128106,37,2,3:2:0:0:
75,253,128190,1,0,0:2:0:0:
62,241,128275,1,0,0:2:0:0:
59,224,128359,1,0,0:2:0:0:
40,154,128443,70,0,B|58:145|58:145|137:172,1,75.0000028610231,10|0,3:2|0:2,0:2:0:0:
285,267,128612,2,0,B|277:283|277:283|206:303,1,75.0000028610231,0|0,0:2|0:2,0:2:0:0:
83,363,128780,37,2,3:2:0:0:
65,310,128865,1,0,0:2:0:0:
89,259,128949,1,0,0:2:0:0:
140,235,129033,1,0,0:2:0:0:
188,179,129117,70,0,B|203:162|203:162|182:101,1,75.0000028610231,10|0,3:2|0:2,0:2:0:0:
341,43,129286,1,0,0:2:0:0:
359,29,129370,1,0,0:2:0:0:
376,2,129454,37,2,3:2:0:0:
389,34,129539,1,0,0:2:0:0:
417,55,129623,1,0,0:2:0:0:
450,63,129707,1,0,0:2:0:0:
464,113,129792,69,10,3:2:0:0:
441,157,129876,1,0,0:2:0:0:
396,176,129960,1,0,0:2:0:0:
346,167,130044,1,0,0:2:0:0:
304,109,130129,38,0,B|290:104|290:104|223:137,1,75.0000028610231,2|0,3:2|0:2,0:2:0:0:
144,231,130297,1,0,0:2:0:0:
87,254,130381,1,0,0:2:0:0:
34,235,130466,69,10,3:2:0:0:
42,200,130550,1,0,0:2:0:0:
60,171,130634,1,0,0:2:0:0:
84,149,130718,1,0,0:2:0:0:
132,165,130803,37,2,3:2:0:0:
162,207,130887,1,0,0:2:0:0:
208,229,130971,1,0,0:2:0:0:
260,234,131056,1,0,0:2:0:0:
309,181,131140,70,0,B|322:174|322:174|399:195,1,75.0000028610231,10|0,3:2|0:2,0:2:0:0:
512,324,131308,2,0,L|411:346,1,75.0000028610231,0|0,0:2|0:2,0:2:0:0:
277,362,131476,53,2,3:3:0:0:
273,369,131560,21,2,0:3:0:0:
264,372,131644,85,2,0:3:0:0:
252,363,131728,21,2,0:3:0:0:
244,340,131813,85,2,3:3:0:0:
256,309,131897,21,2,0:3:0:0:
282,279,131981,85,2,0:3:0:0:
337,261,132065,21,2,0:3:0:0:
409,271,132150,70,0,B|422:261|422:261|438:188,1,75.0000028610231,6|0,3:2|0:2,0:2:0:0:
337,135,132319,1,0,0:2:0:0:
293,107,132404,1,0,0:2:0:0:
242,86,132488,69,10,3:2:0:0:
293,56,132572,1,0,0:2:0:0:
349,33,132656,1,0,0:2:0:0:
407,19,132741,1,0,0:2:0:0:
481,7,132825,38,0,B|491:18|491:18|465:100,1,75.0000028610231,2|0,3:2|0:2,0:2:0:0:
365,162,132994,1,0,0:2:0:0:
322,149,133078,1,0,0:2:0:0:
276,155,133162,69,10,3:2:0:0:
310,189,133246,1,0,0:2:0:0:
339,229,133331,1,0,0:2:0:0:
356,275,133415,1,0,0:2:0:0:
394,310,133499,37,2,3:2:0:0:
411,306,133583,1,0,0:2:0:0:
424,294,133668,1,0,0:2:0:0:
427,277,133752,1,0,0:2:0:0:
456,208,133836,70,0,B|441:194|441:194|362:221,1,75.0000028610231,10|0,3:2|0:2,0:2:0:0:
279,328,134005,2,0,B|265:338|265:338|198:313,1,75.0000028610231,0|0,0:2|0:2,0:2:0:0:
156,203,134173,37,2,3:2:0:0:
103,185,134258,1,0,0:2:0:0:
52,209,134342,1,0,0:2:0:0:
28,260,134426,1,0,0:2:0:0:
61,325,134510,70,0,B|81:335|81:335|142:315,1,75.0000028610231,10|0,3:2|0:2,0:2:0:0:
262,252,134679,1,0,0:2:0:0:
280,228,134763,1,0,0:2:0:0:
307,219,134847,37,2,3:2:0:0:
275,206,134932,1,0,0:2:0:0:
254,178,135016,1,0,0:2:0:0:
246,145,135100,1,0,0:2:0:0:
215,106,135185,69,10,3:2:0:0:
238,62,135269,1,0,0:2:0:0:
283,43,135353,1,0,0:2:0:0:
333,52,135437,1,0,0:2:0:0:
385,105,135522,38,0,B|393:119|393:119|473:144,1,75.0000028610231,2|0,3:2|0:2,0:2:0:0:
512,227,135690,1,0,0:2:0:0:
462,263,135774,1,0,0:2:0:0:
435,308,135859,69,10,3:2:0:0:
400,303,135943,1,0,0:2:0:0:
370,287,136027,1,0,0:2:0:0:
346,265,136111,1,0,0:2:0:0:
303,228,136196,37,2,3:2:0:0:
253,241,136280,1,0,0:2:0:0:
216,277,136364,1,0,0:2:0:0:
194,324,136449,1,0,0:2:0:0:
130,365,136533,70,0,B|117:363|117:363|76:283,1,75.0000028610231,10|0,3:2|0:2,0:2:0:0:
0,120,136701,2,0,B|2:140|2:140|66:178,1,75.0000028610231,0|0,0:2|0:2,0:2:0:0:
274,45,136870,38,0,B|268:35|268:35|189:17,1,75.0000028610231,2|0,3:2|0:2,0:2:0:0:
49,168,137038,2,0,B|137:142,1,75.0000028610231,0|0,0:2|0:2,0:2:0:0:
321,111,137207,70,0,B|340:103|340:103|345:71,6,37.5000014305115,10|0|0|0|0|0|0,3:2|0:2|0:2|0:2|0:2|0:2|0:2,0:2:0:0:
360,179,137544,38,0,P|351:197|336:257,1,75.0000028610231,6|0,3:2|0:2,0:2:0:0:
109,291,137712,2,0,B|114:312|114:312|175:336,1,75.0000028610231,2|0,3:2|0:2,0:2:0:0:
403,291,137881,70,0,B|398:312|398:312|337:336,1,75.0000028610231,10|0,3:2|0:2,0:2:0:0:
152,179,138049,2,0,P|161:197|176:257,1,75.0000028610231,2|0,3:2|0:2,0:2:0:0:
256,343,138218,37,2,3:2:0:0:
240,327,138302,1,0,0:2:0:0:
256,311,138386,1,2,3:2:0:0:
271,327,138471,1,0,0:2:0:0:
255,355,138555,69,10,3:2:0:0:
224,324,138639,1,0,0:2:0:0:
255,292,138723,1,2,3:2:0:0:
287,324,138808,1,0,0:2:0:0:
348,275,138892,38,0,P|355:238|378:186,1,75.0000028610231,6|0,3:2|0:2,0:2:0:0:
164,275,139060,2,0,P|157:238|134:186,1,75.0000028610231,2|0,3:2|0:2,0:2:0:0:
328,78,139229,70,0,B|348:95|348:95|317:151,1,75.0000028610231,10|0,3:2|0:2,0:2:0:0:
184,78,139398,2,0,B|164:95|164:95|195:151,1,75.0000028610231,2|0,3:2|0:2,0:2:0:0:
440,184,139566,38,0,P|403:192|359:206,1,75.0000028610231,2|0,3:2|0:2,0:2:0:0:
72,184,139735,2,0,P|109:192|153:206,1,75.0000028610231,2|0,3:2|0:2,0:2:0:0:
258,328,139903,70,0,B|249:346|249:346|254:377,3,37.5000014305115,10|0|0|0,3:2|0:2|0:2|0:2,0:2:0:0:
333,360,140240,37,6,3:2:0:0:
349,350,140324,1,2,3:2:0:0:
365,341,140408,1,2,3:2:0:0:
382,333,140492,1,2,3:2:0:0:
399,326,140577,1,10,3:2:0:0:
417,319,140661,1,2,3:2:0:0:
435,314,140745,1,2,3:2:0:0:
453,309,140829,1,2,3:2:0:0:
471,305,140914,69,6,3:2:0:0:
419,264,140998,1,2,3:2:0:0:
365,227,141082,1,2,3:2:0:0:
308,194,141166,1,2,3:2:0:0:
249,165,141251,1,10,3:2:0:0:
188,141,141335,1,2,3:2:0:0:
126,121,141419,1,2,3:2:0:0:
62,105,141503,1,2,3:2:0:0:
0,94,141588,1,6,3:2:0:0:
389,127,142263,53,2,0:3:0:0:
382,131,142347,21,2,0:3:0:0:
379,140,142431,85,2,0:3:0:0:
389,152,142515,21,2,0:3:0:0:
413,158,142600,85,2,0:3:0:0:
443,144,142684,21,2,0:3:0:0:
471,116,142768,85,2,0:3:0:0:
485,60,142852,21,2,0:3:0:0:
437,4,142937,85,6,3:2:0:0:
364,28,143021,1,2,0:0:0:0:
331,76,143105,1,2,0:0:0:0:
334,111,143190,1,2,0:0:0:0:
350,126,143274,1,2,1:0:0:0:
274,289,143442,37,6,3:2:0:0:
263,293,143527,1,2,0:0:0:0:
264,304,143611,1,2,0:0:0:0:
275,307,143695,1,2,0:0:0:0:
281,297,143780,1,2,1:0:0:0:
286,284,143948,69,6,3:2:0:0:
213,260,144032,1,2,0:0:0:0:
180,212,144116,1,2,0:0:0:0:
183,177,144201,1,2,0:0:0:0:
199,162,144285,1,2,1:0:0:0:
58,55,144454,37,6,3:2:0:0:
47,51,144539,1,2,0:0:0:0:
48,40,144623,1,2,0:0:0:0:
59,37,144707,1,2,0:0:0:0:
65,47,144792,1,2,1:0:0:0:
73,58,144959,69,6,3:2:0:0:
101,126,145044,1,2,0:0:0:0:
160,159,145128,1,2,0:0:0:0:
216,160,145212,1,2,0:0:0:0:
249,136,145296,1,2,1:0:0:0:
257,107,145381,1,2,3:0:0:0:
251,83,145465,1,2,0:0:0:0:
236,71,145549,1,2,0:0:0:0:
225,71,145633,37,6,3:2:0:0:
233,52,145718,1,2,0:0:0:0:
273,45,145802,1,2,0:0:0:0:
328,69,145886,1,2,0:0:0:0:
364,133,145971,1,2,1:0:0:0:
417,349,146139,69,6,3:2:0:0:
419,340,146223,1,2,0:0:0:0:
423,331,146307,1,2,0:0:0:0:
427,322,146391,1,2,0:0:0:0:
432,314,146476,1,2,1:0:0:0:
420,302,146645,37,6,3:2:0:0:
412,283,146730,1,2,0:0:0:0:
372,276,146814,1,2,0:0:0:0:
317,300,146898,1,2,0:0:0:0:
281,364,146983,1,2,1:0:0:0:
114,241,147150,69,6,3:2:0:0:
112,232,147234,1,2,0:0:0:0:
108,223,147318,1,2,0:0:0:0:
104,214,147402,1,2,0:0:0:0:
99,206,147487,1,2,1:0:0:0:
84,196,147656,37,6,3:2:0:0:
73,196,147740,1,2,0:0:0:0:
58,184,147824,1,2,0:0:0:0:
52,160,147908,1,2,0:0:0:0:
60,131,147993,1,2,1:0:0:0:
93,107,148077,1,2,3:0:0:0:
149,108,148161,1,2,0:0:0:0:
208,141,148245,1,2,0:0:0:0:
236,209,148330,69,6,3:2:0:0:
212,282,148414,1,2,0:0:0:0:
164,315,148498,1,2,0:0:0:0:
129,312,148583,1,2,0:0:0:0:
114,296,148667,1,2,1:0:0:0:
26,88,148836,37,6,3:2:0:0:
15,84,148921,1,2,0:0:0:0:
16,73,149005,1,2,0:0:0:0:
27,70,149089,1,2,0:0:0:0:
33,80,149174,1,2,1:0:0:0:
39,93,149341,69,6,3:2:0:0:
63,166,149425,1,2,0:0:0:0:
111,199,149509,1,2,0:0:0:0:
146,196,149594,1,2,0:0:0:0:
161,180,149678,1,2,1:0:0:0:
303,40,149847,37,6,3:2:0:0:
314,36,149932,1,2,0:0:0:0:
313,25,150016,1,2,0:0:0:0:
302,22,150100,1,2,0:0:0:0:
296,32,150184,1,2,1:0:0:0:
288,43,150353,69,6,3:2:0:0:
356,71,150438,1,2,0:0:0:0:
389,130,150522,1,2,0:0:0:0:
390,186,150606,1,2,0:0:0:0:
366,219,150690,1,2,1:0:0:0:
337,227,150775,1,2,3:0:0:0:
313,221,150859,1,2,0:0:0:0:
301,206,150943,1,2,0:0:0:0:
301,195,151027,37,6,3:2:0:0:
309,176,151112,1,2,0:0:0:0:
349,169,151196,1,2,0:0:0:0:
404,193,151280,1,2,0:0:0:0:
440,257,151365,1,2,1:0:0:0:
215,308,151532,69,6,3:2:0:0:
224,306,151616,1,2,0:0:0:0:
233,302,151700,1,2,0:0:0:0:
242,298,151784,1,2,0:0:0:0:
250,293,151869,1,2,1:0:0:0:
262,304,152038,37,6,3:2:0:0:
254,323,152123,1,2,0:0:0:0:
214,330,152207,1,2,0:0:0:0:
159,306,152291,1,2,0:0:0:0:
123,242,152376,1,2,1:0:0:0:
0,129,152544,69,6,3:2:0:0:
9,131,152628,1,2,0:0:0:0:
18,135,152712,1,2,0:0:0:0:
27,139,152796,1,2,0:0:0:0:
35,144,152881,1,2,1:0:0:0:
35,126,153049,21,6,3:2:0:0:
119,105,153162,85,2,0:3:0:0:
203,84,153274,21,2,0:3:0:0:
257,144,153386,85,2,3:3:0:0:
341,165,153499,21,2,0:3:0:0:
425,186,153611,85,2,0:3:0:0:
481,126,153723,38,2,L|458:44,1,75.0000028610231,6|2,3:2|0:0,0:0:0:0:
341,165,153892,2,2,L|318:83,1,75.0000028610231,2|2,3:0|0:0,0:0:0:0:
201,204,154060,1,2,1:0:0:0:
75,310,154229,69,6,3:2:0:0:
112,311,154313,1,2,0:0:0:0:
147,324,154397,1,2,3:0:0:0:
177,346,154481,1,2,0:0:0:0:
200,375,154566,1,2,1:0:0:0:
61,165,154735,38,2,L|84:83,1,75.0000028610231,6|2,3:2|0:0,0:0:0:0:
201,204,154904,2,2,L|224:122,1,75.0000028610231,2|2,3:0|0:0,0:0:0:0:
341,243,155072,1,2,1:0:0:0:
500,37,155240,69,6,3:2:0:0:
463,38,155324,1,2,0:0:0:0:
428,51,155408,1,2,3:0:0:0:
398,73,155492,1,2,0:0:0:0:
375,102,155577,1,2,1:0:0:0:
387,111,155746,37,6,3:2:0:0:
455,139,155831,1,2,0:0:0:0:
488,198,155915,1,2,3:0:0:0:
489,254,155999,1,2,0:0:0:0:
465,287,156083,1,2,1:0:0:0:
436,295,156168,1,2,3:0:0:0:
412,289,156252,1,2,0:0:0:0:
400,274,156336,1,2,0:0:0:0:
400,263,156420,70,2,P|428:221|475:210,1,75.0000028610231,6|2,3:2|0:0,0:0:0:0:
274,278,156589,2,2,P|251:232|265:186,1,75.0000028610231,2|2,3:0|0:0,0:0:0:0:
189,367,156757,1,2,1:0:0:0:
0,343,156926,37,6,3:2:0:0:
36,332,157010,1,2,0:0:0:0:
72,322,157094,1,2,3:0:0:0:
108,312,157178,1,2,0:0:0:0:
144,302,157263,1,2,1:0:0:0:
121,117,157431,70,2,P|93:75|46:64,1,75.0000028610231,6|2,3:2|0:0,0:0:0:0:
247,132,157600,2,2,P|269:86|255:40,1,75.0000028610231,2|2,3:0|0:0,0:0:0:0:
332,221,157768,1,2,1:0:0:0:
506,73,157937,37,6,3:2:0:0:
470,62,158021,1,2,0:0:0:0:
434,52,158105,1,2,3:0:0:0:
398,42,158189,1,2,0:0:0:0:
362,32,158274,1,2,1:0:0:0:
368,19,158442,69,6,3:2:0:0:
297,39,158527,37,2,3:0:0:0:
246,92,158611,69,2,3:0:0:0:
229,162,158695,37,2,3:0:0:0:
248,231,158780,69,2,1:0:0:0:
327,203,158864,2,2,B|336:237|336:237|264:184|155:186,1,200,2|2,3:0|0:0,0:0:0:0:
132,245,159117,37,6,3:2:0:0:
59,221,159201,1,2,0:0:0:0:
26,173,159285,1,2,0:0:0:0:
29,138,159370,1,2,0:0:0:0:
45,123,159454,1,2,1:0:0:0:
195,30,159622,69,6,3:2:0:0:
184,26,159707,1,2,0:0:0:0:
185,15,159791,1,2,0:0:0:0:
196,12,159875,1,2,0:0:0:0:
202,22,159960,1,2,1:0:0:0:
208,35,160128,37,6,3:2:0:0:
200,56,160213,1,2,0:0:0:0:
218,89,160297,1,2,0:0:0:0:
277,101,160381,1,2,0:0:0:0:
340,64,160466,1,2,1:0:0:0:
471,203,160634,69,6,3:2:0:0:
469,194,160718,1,2,0:0:0:0:
465,185,160802,1,2,0:0:0:0:
461,176,160886,1,2,0:0:0:0:
456,168,160971,1,2,1:0:0:0:
468,159,161139,37,6,3:2:0:0:
479,159,161223,1,2,0:0:0:0:
494,147,161307,1,2,0:0:0:0:
500,123,161391,1,2,0:0:0:0:
492,94,161476,1,2,1:0:0:0:
459,70,161560,1,2,3:0:0:0:
403,71,161644,1,2,0:0:0:0:
344,104,161728,1,2,0:0:0:0:
316,172,161813,69,6,3:2:0:0:
340,245,161897,1,2,0:0:0:0:
388,278,161981,1,2,0:0:0:0:
423,275,162066,1,2,0:0:0:0:
438,259,162150,1,2,1:0:0:0:
243,326,162319,37,6,3:2:0:0:
232,322,162404,1,2,0:0:0:0:
233,311,162488,1,2,0:0:0:0:
244,308,162572,1,2,0:0:0:0:
250,318,162657,1,2,1:0:0:0:
262,328,162824,69,6,3:2:0:0:
267,308,162909,1,2,0:0:0:0:
238,280,162993,1,2,0:0:0:0:
179,268,163077,1,2,0:0:0:0:
113,300,163162,1,2,1:0:0:0:
20,176,163330,37,6,3:2:0:0:
22,167,163414,1,2,0:0:0:0:
26,158,163498,1,2,0:0:0:0:
30,149,163582,1,2,0:0:0:0:
35,141,163667,1,2,1:0:0:0:
28,126,163836,69,6,3:2:0:0:
114,111,163949,21,2,0:3:0:0:
185,161,164061,85,2,0:3:0:0:
199,246,164173,21,2,3:3:0:0:
269,296,164286,85,2,0:3:0:0:
353,281,164398,21,2,0:3:0:0:
401,210,164500,22,0,P|385:163|368:98,1,100,6|0,3:1|0:0,0:0:0:0:
446,0,164837,1,2,3:2:0:0:
446,24,164921,1,2,0:2:0:0:
458,46,165005,1,2,0:2:0:0:
478,60,165090,1,2,0:2:0:0:
503,63,165174,1,2,3:2:0:0:
294,109,165342,5,2,0:2:0:0:
310,120,165426,1,2,0:2:0:0:
325,133,165511,2,0,P|359:118|386:110,1,50,2|0,3:2|0:2,0:2:0:0:
478,207,165679,1,2,0:2:0:0:
259,185,165850,102,0,P|236:221|224:295,1,100,2|0,3:2|0:2,0:2:0:0:
82,377,166176,2,0,P|64:334|12:272,1,100,2|0,3:2|0:2,0:2:0:0:
41,213,166422,1,2,0:2:0:0:
41,213,166503,2,0,P|77:201|95:193,1,50,2|0,3:2|0:2,0:2:0:0:
180,31,166667,2,0,B|192:35|192:35|205:72,1,50,2|0,0:2|0:2,0:2:0:0:
50,127,166830,1,2,3:2:0:0:
28,117,166912,1,2,0:2:0:0:
19,96,166994,1,2,0:2:0:0:
159,314,167166,6,0,P|177:307|222:289,1,50,2|0,3:2|0:2,0:2:0:0:
353,70,167324,2,0,P|335:77|290:95,1,50,2|0,3:2|0:2,0:2:0:0:
85,208,167483,102,0,P|119:221|173:240,1,75.0000028610231,2|0,3:2|0:2,0:2:0:0:
427,175,167642,2,0,P|393:163|339:144,1,75.0000028610231,2|0,3:2|0:2,0:2:0:0:
172,49,167800,6,0,P|161:105|144:148,1,100,2|0,3:2|0:2,0:2:0:0:
340,335,167959,2,0,P|351:278|368:236,1,100,2|0,3:2|0:2,0:2:0:0:
262,171,168118,101,2,3:2:0:0:
269,207,168198,1,2,0:2:0:0:
234,196,168277,1,2,3:2:0:0:
254,62,168435,5,2,3:0:0:0:
220,100,168514,1,2,3:0:0:0:
169,111,168594,1,2,3:0:0:0:
369,255,168753,101,2,3:0:0:0:
353,206,168832,1,2,3:0:0:0:
369,157,168912,1,2,3:0:0:0:
144,258,169070,5,2,3:0:0:0:
194,269,169149,1,2,3:0:0:0:
229,307,169229,1,2,3:0:0:0:
256,192,169388,101,2,3:1:0:0:
21,43,169710,22,0,B|21:66|21:66|54:67|75:89,1,75.0000028610231,4|0,3:2|0:3,0:3:0:0:
150,219,169869,86,0,B|158:163|190:190|197:125,1,100,8|0,0:3|0:3,0:3:0:0:
100,10,170028,1,4,3:3:0:0:
0,163,170186,21,2,0:2:0:0:
6,180,170266,1,2,0:2:0:0:
19,186,170345,2,0,P|64:164|106:155,1,75.0000028610231,8|0,3:3|0:3,0:3:0:0:
179,61,170504,1,8,0:3:0:0:
93,239,170663,85,4,3:3:0:0:
134,251,170742,1,4,0:3:0:0:
157,285,170821,1,8,0:3:0:0:
412,143,170980,22,0,P|344:168|302:272,1,150.000005722046,4|8,3:3|0:3,0:3:0:0:
285,359,171218,1,8,0:3:0:0:
285,359,171297,2,0,B|280:272|224:315|223:220,1,150.000005722046,4|8,3:3|0:3,0:3:0:0:
160,186,171536,1,8,0:3:0:0:
160,186,171615,2,0,B|168:168|168:168|238:135,1,75.0000028610231,8|0,3:3|0:3,0:3:0:0:
457,57,171774,86,0,B|449:113|417:86|410:151,1,100,8|0,0:1|0:3,0:3:0:0:
304,231,171932,1,8,3:1:0:0:
348,241,172012,1,8,0:1:0:0:
393,252,172091,1,8,0:1:0:0:
438,263,172171,1,8,0:1:0:0:
500,303,172250,22,0,B|500:326|500:326|467:327|446:349,1,75.0000028610231,8|0,3:3|0:3,0:3:0:0:
411,142,172409,86,0,B|432:142|432:142|445:181|489:191,1,100,8|0,0:3|0:3,0:3:0:0:
286,369,172567,22,0,B|281:354|281:354|336:301,1,75.0000028610231,4|0,3:3|0:3,0:3:0:0:
359,200,172726,86,0,B|341:196|341:196|329:152,2,37.5000014305115,8|0|0,0:2|0:3|0:3,0:3:0:0:
411,142,172885,21,8,3:2:0:0:
421,98,172963,1,2,0:2:0:0:
432,53,173043,1,8,0:2:0:0:
443,8,173122,1,2,0:2:0:0:
378,56,173202,85,4,3:3:0:0:
382,63,173281,1,4,0:3:0:0:
387,71,173360,1,4,0:3:0:0:
392,79,173440,1,4,0:3:0:0:
345,136,173520,22,0,B|331:139|331:139|312:117|251:94,1,75.0000028610231,8|0,3:3|0:3,0:3:0:0:
49,219,173678,86,0,B|105:211|78:179|143:172,1,100,8|0,0:3|0:3,0:3:0:0:
191,65,173837,21,4,3:3:0:0:
203,51,173917,1,4,0:3:0:0:
216,50,173996,2,0,P|200:104|195:146,1,75.0000028610231,8|0,0:3|0:3,0:3:0:0:
144,307,174154,85,8,3:3:0:0:
154,319,174233,1,8,0:3:0:0:
169,322,174313,2,0,P|153:267|148:225,1,75.0000028610231,4|0,0:3|0:3,0:3:0:0:
280,106,174471,21,4,3:3:0:0:
321,123,174551,1,4,0:3:0:0:
364,139,174630,1,4,0:3:0:0:
408,156,174710,1,4,0:3:0:0:
458,211,174790,86,0,B|454:227|454:227|391:260,1,75.0000028610231,4|0,3:1|0:3,0:3:0:0:
330,377,174948,22,0,B|313:381|313:381|287:338|223:324,1,100,8|0,0:3|0:3,0:3:0:0:
199,189,175107,86,4,P|176:191|143:180,1,37.5000014305115,4|4,3:3|0:3,0:3:0:0:
201,175,175186,22,4,P|180:166|157:139,1,37.5000014305115,4|4,0:3|0:3,0:3:0:0:
214,165,175266,86,4,P|200:147|193:112,1,37.5000014305115,4|0,0:3|0:3,0:3:0:0:
227,164,175345,22,0,P|224:141|235:108,1,37.5000014305115,4|0,0:3|0:3,0:3:0:0:
279,219,175424,85,8,3:2:0:0:
296,221,175503,1,2,0:2:0:0:
312,228,175582,1,8,0:2:0:0:
327,241,175662,1,2,0:2:0:0:
402,254,175742,22,0,P|423:221|451:189,1,75.0000028610231,8|0,3:1|0:3,0:3:0:0:
249,331,175901,86,0,P|195:283|206:228,1,100,4|0,0:3|0:3,0:3:0:0:
78,122,176059,22,0,B|79:140|79:140|144:163,1,75.0000028610231,8|0,3:2|0:3,0:3:0:0:
328,0,176218,86,0,B|320:56|288:29|281:94,1,100,8|0,0:1|0:3,0:3:0:0:
147,77,176377,1,8,3:3:0:0:
368,161,176536,21,2,0:2:0:0:
362,144,176614,1,2,0:2:0:0:
349,138,176694,2,0,P|304:160|262:169,1,75.0000028610231,8|0,3:3|0:3,0:3:0:0:
118,237,176853,1,4,0:3:0:0:
313,377,177012,85,8,3:1:0:0:
272,365,177091,1,8,0:1:0:0:
249,331,177170,1,8,0:3:0:0:
477,331,177329,22,0,B|474:313|474:313|505:298|516:258,1,75.0000028610231,8|0,3:3|0:3,0:3:0:0:
322,303,177488,86,0,B|314:247|282:274|275:209,1,100,8|0,0:1|0:3,0:3:0:0:
134,58,177647,21,2,3:2:0:0:
125,45,177726,1,2,0:2:0:0:
109,43,177806,2,0,P|96:85|64:130,1,75.0000028610231,8|0,0:3|0:3,0:3:0:0:
204,185,177964,86,0,B|205:167|205:167|264:133,1,75.0000028610231,8|0,3:3|0:3,0:3:0:0:
244,319,178123,1,2,0:2:0:0:
232,330,178202,1,2,0:2:0:0:
217,334,178282,21,4,3:3:0:0:
173,324,178360,1,4,0:3:0:0:
128,313,178441,1,4,0:3:0:0:
83,302,178519,1,4,0:3:0:0:
39,242,178599,86,0,P|33:222|8:169,1,75.0000028610231,8|0,3:3|0:3,0:3:0:0:
109,43,178758,22,0,B|132:38|132:38|156:86|212:89,1,100,8|0,0:3|0:3,0:3:0:0:
160,216,178917,85,8,3:2:0:0:
143,218,178996,1,2,0:2:0:0:
127,225,179075,1,8,0:2:0:0:
112,238,179155,1,2,0:2:0:0:
39,242,179234,22,0,B|25:259|25:259|77:310,1,75.0000028610231,8|0,3:3|0:3,0:3:0:0:
120,375,179393,86,0,P|144:316|178:284,1,100,4|0,0:3|0:3,0:3:0:0:
340,319,179551,6,0,B|166:-12,1,350.00000333786,4|0,0:2|0:3,0:3:0:0:
177,9,179869,6,0,B|177:32|177:32|144:33|123:55,1,75.0000028610231,4|0,3:1|0:3,0:3:0:0:
325,116,180028,86,0,B|333:60|365:87|372:22,1,100,8|0,0:3|0:3,0:3:0:0:
177,113,180186,1,4,3:3:0:0:
370,186,180345,21,2,0:2:0:0:
364,203,180425,1,2,0:2:0:0:
351,209,180504,2,0,P|306:187|264:178,1,75.0000028610231,8|0,3:3|0:3,0:3:0:0:
294,13,180663,1,8,0:3:0:0:
481,78,180822,85,4,3:3:0:0:
440,90,180901,1,4,0:3:0:0:
417,124,180980,1,8,0:3:0:0:
512,261,181139,22,0,B|507:285|507:285|386:331,1,150.000005722046,8|0,3:3|0:3,0:3:0:0:
322,371,181377,1,2,0:2:0:0:
322,371,181456,2,0,B|311:346|311:346|225:321|225:321|203:282,1,150.000005722046,8|0,3:3|0:3,0:3:0:0:
272,201,181694,1,2,0:2:0:0:
272,201,181774,2,0,B|299:215|299:215|278:272,1,75.0000028610231,8|0,3:3|0:3,0:3:0:0:
86,355,181932,86,0,B|94:299|126:326|133:261,1,100,4|0,0:3|0:3,0:3:0:0:
223,123,182090,1,4,3:3:0:0:
179,133,182170,1,4,0:3:0:0:
134,144,182249,1,4,0:3:0:0:
89,155,182329,1,4,0:3:0:0:
155,195,182409,21,8,3:2:0:0:
167,197,182488,1,2,0:2:0:0:
179,200,182567,1,8,0:2:0:0:
191,203,182647,1,2,0:2:0:0:
228,270,182726,85,8,3:1:0:0:
284,222,182805,1,8,0:1:0:0:
351,187,182885,1,8,0:3:0:0:
389,22,183044,22,0,B|373:35|373:35|319:16,1,75.0000028610231,8|0,3:3|0:3,0:3:0:0:
149,34,183202,86,0,B|145:52|145:52|206:58|224:117,1,100,2|0,0:2|0:3,0:3:0:0:
81,141,183361,22,0,B|98:155|98:155|174:111,1,75.0000028610231,8|0,3:3|0:3,0:3:0:0:
290,86,183520,86,0,L|333:101,2,37.5000014305115,4|0|0,0:3|0:3|0:3,0:3:0:0:
210,171,183678,21,8,3:1:0:0:
374,209,183837,1,4,0:3:0:0:
336,373,183996,1,8,3:3:0:0:
172,335,184155,1,2,0:2:0:0:
212,173,184313,86,4,P|235:175|268:164,1,37.5000014305115,12|4,3:3|0:3,0:3:0:0:
210,159,184392,22,4,P|231:150|254:123,1,37.5000014305115,4|4,0:3|0:3,0:3:0:0:
197,149,184472,86,8,P|211:131|218:96,1,37.5000014305115,12|0,0:3|0:3,0:3:0:0:
184,148,184551,22,0,P|187:125|176:92,1,37.5000014305115,2|0,0:2|0:3,0:3:0:0:
126,198,184631,85,8,3:3:0:0:
319,116,184790,2,0,B|335:104|335:104|335:63,2,37.5000014305115,4|0|0,0:3|0:3|0:3,0:3:0:0:
195,35,184948,22,0,P|243:56|266:102,1,75.0000028610231,4|0,3:1|0:3,0:3:0:0:
344,249,185107,86,0,B|352:193|384:220|391:155,1,100,8|0,0:3|0:3,0:3:0:0:
217,139,185266,1,4,3:3:0:0:
296,316,185424,1,2,0:2:0:0:
308,327,185503,1,2,0:2:0:0:
323,331,185583,21,8,3:2:0:0:
367,321,185663,1,2,0:2:0:0:
412,310,185742,1,8,0:2:0:0:
457,299,185822,1,2,0:2:0:0:
409,359,185901,85,4,3:3:0:0:
398,356,185980,1,4,0:3:0:0:
388,353,186059,1,4,0:3:0:0:
378,350,186139,1,4,0:3:0:0:
306,369,186218,22,0,B|288:367|288:367|244:301,1,75.0000028610231,8|0,3:3|0:3,0:3:0:0:
195,116,186377,86,0,B|205:134|205:134|154:151|146:207,1,100,8|0,0:3|0:3,0:3:0:0:
76,352,186536,21,8,3:2:0:0:
87,349,186615,1,2,0:2:0:0:
97,346,186694,1,8,0:2:0:0:
107,343,186774,1,2,0:2:0:0:
182,341,186853,85,4,3:3:0:0:
138,326,186933,1,4,0:3:0:0:
94,313,187012,1,4,0:3:0:0:
50,299,187090,1,4,0:3:0:0:
80,232,187170,22,0,B|69:197|45:214|28:152,1,75.0000028610231,8|0,3:3|0:3,0:3:0:0:
195,116,187329,86,0,B|196:100|196:100|224:70,2,37.5000014305115,8|0|0,0:3|0:3|0:3,0:3:0:0:
68,26,187488,22,0,B|88:28|88:28|104:58|141:64,1,75.0000028610231,4|0,3:3|0:3,0:3:0:0:
270,137,187647,86,0,B|264:193|232:166|224:222,1,100,8|0,0:3|0:3,0:3:0:0:
111,145,187805,21,4,3:3:0:0:
303,241,187964,1,4,0:3:0:0:
494,186,188123,86,0,B|481:174|481:174|408:219,1,75.0000028610231,8|0,3:3|0:3,0:3:0:0:
315,334,188282,21,2,0:2:0:0:
282,316,188361,1,2,0:2:0:0:
247,302,188440,1,8,3:3:0:0:
210,293,188520,1,2,0:2:0:0:
173,289,188599,1,4,0:3:0:0:
0,165,188758,85,8,3:1:0:0:
49,158,188837,1,8,0:1:0:0:
90,131,188916,1,8,0:1:0:0:
117,89,188996,1,8,0:1:0:0:
52,134,189075,21,8,3:2:0:0:
60,138,189154,1,2,0:2:0:0:
68,142,189233,1,8,0:2:0:0:
77,146,189313,1,2,0:2:0:0:
39,215,189393,86,0,B|18:228|18:228|54:234|68:253,1,75.0000028610231,8|0,3:3|0:3,0:3:0:0:
128,304,189551,1,8,0:3:0:0:
8,304,189710,6,0,L|396:180,1,400,4|0,0:2|0:3,0:3:0:0:
389,182,190028,38,0,L|85:141,1,300,6|0,3:1|0:0,0:0:0:0:
357,99,190345,2,0,B|304:71|304:71|462:2|462:2|437:75,1,300,2|0,3:1|0:0,0:0:0:0:
389,182,190663,2,0,L|85:141,1,300,2|0,3:1|0:0,0:0:0:0:
305,251,190980,2,0,B|271:273|271:273|297:381|297:381|358:289|358:289|335:248,1,300,2|0,3:1|0:0,0:0:0:0:
389,182,191297,2,0,L|85:141,1,300,2|0,3:1|0:0,0:0:0:0:
357,99,191615,2,0,B|294:91|294:91|363:27|363:27|456:23|456:23|421:80,1,300,2|0,3:1|0:0,0:0:0:0:
389,182,191932,2,0,L|85:141,1,300,2|0,3:1|0:0,0:0:0:0:
44,202,192250,69,2,3:1:0:0:
282,359,192409,1,2,0:0:0:0:
282,359,192488,1,2,0:0:0:0:
282,359,192567,38,0,L|207:66,1,300,2|0,3:1|0:0,0:0:0:0:
183,296,192885,2,0,B|85:347|85:347|215:192,1,300,2|0,3:1|0:0,0:0:0:0:
282,359,193202,2,0,L|207:66,1,300,2|0,3:1|0:0,0:0:0:0:
321,178,193520,2,0,B|404:234|404:234|125:188,1,300,2|0,3:1|0:0,0:0:0:0:
282,359,193837,2,0,L|207:66,1,300,2|0,3:1|0:0,0:0:0:0:
68,163,194155,2,0,B|16:98|16:98|219:208,1,300,2|0,3:1|0:0,0:0:0:0:
282,359,194472,2,0,L|207:66,1,300,2|0,3:1|0:0,0:0:0:0:
268,18,194790,69,2,3:1:0:0:
268,18,194948,1,2,3:1:0:0:
16,225,195107,38,0,B|158:191|158:191|199:347,1,300,2|0,3:1|0:0,0:0:0:0:
278,193,195424,2,0,B|245:204|245:204|274:324|274:324|303:310|303:310|279:199,1,300,2|0,3:1|0:0,0:0:0:0:
16,225,195742,2,0,B|158:191|158:191|199:347,1,300,2|0,3:1|0:0,0:0:0:0:
213,99,196059,2,0,B|224:131|224:131|342:95|342:95|331:64|331:64|219:97,1,300,2|0,3:1|0:0,0:0:0:0:
16,225,196377,2,0,B|158:191|158:191|199:347,1,300,2|0,3:1|0:0,0:0:0:0:
104,125,196694,2,0,B|137:117|137:117|108:-2|108:-2|79:11|79:11|103:122,1,300,2|0,3:1|0:0,0:0:0:0:
16,225,197012,2,0,B|158:191|158:191|199:347,1,300,2|0,3:1|0:0,0:0:0:0:
270,366,197329,69,2,3:1:0:0:
441,171,197488,1,2,0:0:0:0:
441,171,197567,1,2,0:0:0:0:
441,171,197647,38,0,B|250:218|250:218|194:4,3,400,2|2|2|2,3:1|3:1|3:1|3:1,0:0:0:0:
198,21,198917,2,0,L|114:338,1,300,2|0,3:1|0:0,0:0:0:0:
307,195,199234,2,0,L|-10:111,1,300,2|0,3:1|0:0,0:0:0:0:
5,193,199551,69,2,3:1:0:0:
5,193,199710,1,2,3:1:0:0:
76,276,200186,38,0,B|303:302|158:104|385:127,1,375,6|0,3:1|0:0,0:0:0:0:
90,127,200504,2,0,B|-13:154|-70:88|-5:-48|120:68|149:221,1,375,2|0,3:1|0:0,0:0:0:0:
76,276,200821,2,0,B|303:302|158:104|385:127,1,375,2|0,3:1|0:0,0:0:0:0:
389,301,201139,2,0,B|371:412|177:388|351:326|474:306|429:136|285:190|310:234,1,375,2|0,3:1|0:0,0:0:0:0:
76,276,201456,2,0,B|303:302|158:104|385:127,1,375,2|0,3:1|0:0,0:0:0:0:
132,63,201774,2,0,B|163:78|207:3|114:-87|28:19|-23:68|178:221,1,375,2|0,3:1|0:0,0:0:0:0:
76,276,202091,2,0,B|303:302|158:104|385:127,1,375,2|0,3:1|0:0,0:0:0:0:
438,185,202409,69,2,3:1:0:0:
314,353,202567,1,2,0:0:0:0:
314,353,202647,1,2,0:0:0:0:
314,353,202726,38,0,B|340:126|142:271|165:44,1,375,2|0,3:1|0:0,0:0:0:0:
121,274,203044,2,0,B|97:195|-33:208|-19:353|111:410|94:332|151:222|216:259|235:289,1,375,2|0,3:1|0:0,0:0:0:0:
314,353,203361,2,0,B|340:126|142:271|165:44,1,375,2|0,3:1|0:0,0:0:0:0:
402,115,203678,2,0,B|396:26|290:-81|195:1|327:-9|398:102|308:146|214:142|252:84,1,375,2|0,3:1|0:0,0:0:0:0:
314,353,203996,2,0,B|340:126|142:271|165:44,1,375,2|0,3:1|0:0,0:0:0:0:
153,317,204313,2,0,B|72:247|-7:281|-9:432|154:383|247:258,1,375,2|0,3:1|0:0,0:0:0:0:
314,353,204631,2,0,B|340:126|142:271|165:44,1,375,2|0,3:1|0:0,0:0:0:0:
242,20,204948,69,2,3:1:0:0:
242,20,205107,1,2,3:1:0:0:
331,131,205266,38,0,B|187:159|293:241|131:270,2,250,2|2|2,3:1|3:1|3:1,0:0:0:0:
391,263,205901,2,0,P|194:217|160:37,1,375,2|0,3:1|0:0,0:0:0:0:
67,49,206218,2,0,B|53:19|21:40|-41:131|149:258|35:-58|196:-31|256:35|230:128,1,375,2|0,3:1|0:0,0:0:0:0:
391,263,206536,2,0,P|194:217|160:37,1,375,2|0,3:1|0:0,0:0:0:0:
67,49,206853,2,0,B|6:88|83:255|213:-34|361:21|266:109,1,375,2|0,3:1|0:0,0:0:0:0:
391,263,207170,2,0,P|194:217|160:37,1,375,2|0,3:1|0:0,0:0:0:0:
222,24,207488,69,2,3:1:0:0:
222,24,207647,1,2,3:1:0:0:
338,164,207805,38,0,B|321:115|374:91|443:115|459:245|425:254|338:301|303:203|146:221|103:349|273:482|308:365|278:309,3,500,2|2|2|2,3:1|3:1|3:1|3:1,0:0:0:0:
283,350,209067,2,0,P|269:255|108:143,1,300,2|0,3:1|0:0,0:0:0:0:
338,164,209404,2,0,P|243:178|131:339,1,300,2|0,3:1|0:0,0:0:0:0:
207,368,209741,69,2,3:1:0:0:
207,368,209909,1,2,3:1:0:0:
207,368,210415,102,0,P|327:346|445:315,1,225.000008583069,6|0,3:2|0:2,0:2:0:0:
512,266,210752,2,0,P|472:254|428:232,1,75.0000028610231,10|0,0:2|0:2,0:2:0:0:
267,66,210921,6,0,L|298:113,1,50,2|0,0:2|0:2,0:2:0:0:
301,243,211090,101,2,3:2:0:0:
356,225,211174,1,0,0:2:0:0:
382,195,211258,1,0,0:2:0:0:
394,164,211342,1,0,0:2:0:0:
386,141,211427,1,8,0:2:0:0:
374,132,211511,1,0,0:2:0:0:
365,135,211595,1,0,0:2:0:0:
361,142,211679,1,0,0:2:0:0:
409,197,211764,6,0,P|330:166|189:140,1,225.000008583069,2|0,3:2|0:2,0:2:0:0:
143,80,212101,2,0,P|107:95|91:155,1,75.0000028610231,10|0,0:2|0:2,0:2:0:0:
184,358,212269,102,0,L|152:311,1,50,2|0,0:2|0:2,0:2:0:0:
8,243,212438,5,0,3:2:0:0:
5,230,212522,1,0,0:2:0:0:
14,219,212606,2,0,L|138:194,1,112.500004291535,2|0,0:2|0:2,0:2:0:0:
124,196,212775,102,0,B|142:213|142:213|129:255,1,50,10|0,0:2|0:2,0:2:0:0:
228,354,212944,1,0,0:2:0:0:
213,366,213028,1,0,0:2:0:0:
155,316,213112,6,0,P|265:334|407:377,1,225.000008583069,2|0,3:2|0:2,0:2:0:0:
450,340,213449,2,0,B|468:312|468:312|429:268,1,75.0000028610231,10|0,0:2|0:2,0:2:0:0:
236,126,213618,102,0,L|251:181,1,50,2|0,0:2|0:2,0:2:0:0:
403,172,213786,5,2,3:2:0:0:
385,227,213870,1,0,0:2:0:0:
355,253,213954,1,0,0:2:0:0:
324,265,214038,1,0,0:2:0:0:
301,257,214123,1,8,0:2:0:0:
292,245,214207,1,0,0:2:0:0:
295,236,214291,1,0,0:2:0:0:
302,232,214375,1,0,0:2:0:0:
375,217,214460,102,0,P|280:201|138:128,1,225.000008583069,2|0,3:2|0:2,0:2:0:0:
44,35,214797,2,0,B|55:19|55:19|113:34|109:119,1,112.500004291535,10|0,0:2|0:2,0:2:0:0:
108,87,214966,6,0,L|48:114,1,50,2|0,0:2|0:2,0:2:0:0:
0,220,215135,102,0,B|7:243|7:243|54:243|100:286,1,112.500004291535,2|0,3:2|0:2,0:2:0:0:
87,275,215303,6,0,L|126:257,2,25,2|0|0,0:2|0:2|0:2,0:2:0:0:
193,275,215472,101,10,0:2:0:0:
187,287,215556,1,0,0:2:0:0:
182,299,215640,1,0,0:2:0:0:
177,310,215724,1,0,0:2:0:0:
247,345,215809,6,0,P|180:254|187:135,1,225.000008583069,2|0,3:2|0:2,0:2:0:0:
86,163,216146,2,0,P|93:187|155:204,1,75.0000028610231,10|0,0:2|0:2,0:2:0:0:
394,37,216314,102,0,L|339:55,1,50,2|0,0:2|0:2,0:2:0:0:
162,28,216483,6,0,P|226:61|247:124,1,112.500004291535,2|0,3:2|0:2,0:2:0:0:
243,94,216651,102,0,L|305:111,1,50,2|0,0:2|0:2,0:2:0:0:
449,174,216820,1,8,0:2:0:0:
452,187,216904,1,0,0:2:0:0:
443,198,216988,2,0,L|384:213,1,50,2|0,0:2|0:2,0:2:0:0:
287,316,217157,5,0,3:2:0:0:
229,366,217241,2,0,P|131:323|149:245,1,187.500007152558,2|0,0:2|0:2,0:2:0:0:
138,257,217494,102,0,P|182:243|201:201,1,75.0000028610231,10|0,0:2|0:2,0:2:0:0:
0,73,217663,6,0,L|58:89,1,50,2|0,0:2|0:2,0:2:0:0:
225,62,217831,101,2,3:2:0:0:
207,117,217915,1,0,0:2:0:0:
177,143,217999,1,0,0:2:0:0:
146,155,218083,1,0,0:2:0:0:
123,147,218168,1,8,0:2:0:0:
114,135,218252,1,0,0:2:0:0:
117,126,218336,1,0,0:2:0:0:
124,122,218420,1,0,0:2:0:0:
192,158,218505,6,0,B|186:191|164:214|164:214|263:126|324:138,1,225.000008583069,2|0,3:2|0:2,0:2:0:0:
405,101,218842,2,0,B|364:97|325:171|325:171|358:94|322:59,1,225.000008583069,10|0,0:2|0:2,0:2:0:0:
192,158,219179,102,0,P|228:170|256:229,1,75.0000028610231,2|0,3:2|0:2,0:2:0:0:
409,288,219348,6,0,L|349:278,1,50,2|0,0:2|0:2,0:2:0:0:
179,365,219517,102,0,P|213:299|294:271,1,150.000005722046,10|0,0:2|0:2,0:2:0:0:
326,171,219769,1,0,0:2:0:0:
250,198,219854,6,0,B|208:141|146:139|146:139|140:74|194:46,1,225.000008583069,2|0,3:2|0:2,0:2:0:0:
262,37,220191,102,0,P|257:20|239:0,3,37.5000014305115,10|0|0|0,0:2|0:2|0:2|0:2,0:2:0:0:
171,124,220527,53,2,0:3:0:0:
147,121,220611,21,2,0:3:0:0:
121,138,220695,85,2,0:3:0:0:
110,170,220780,21,2,0:3:0:0:
117,205,220864,85,2,0:3:0:0:
142,247,220948,21,2,0:3:0:0:
189,275,221032,85,2,0:3:0:0:
257,283,221117,21,2,0:3:0:0:
324,242,221201,22,0,L|354:112,1,119.999996337891,6|0,3:2|0:2,0:2:0:0:
102,1,221539,2,0,B|71:44|71:44|116:115,1,119.999996337891,10|0,3:2|0:2,0:2:0:0:
64,169,221792,1,0,0:2:0:0:
64,169,221876,2,0,L|225:209,1,119.999996337891,2|0,3:2|0:2,0:2:0:0:
320,264,222213,2,0,B|351:221|351:221|306:150,1,119.999996337891,10|0,3:2|0:2,0:2:0:0:
325,85,222466,1,0,0:2:0:0:
325,85,222550,6,0,L|164:125,1,119.999996337891,2|0,3:2|0:2,0:2:0:0:
184,275,222887,1,10,3:2:0:0:
376,352,223056,1,2,0:2:0:0:
129,384,223224,101,2,3:2:0:0:
315,164,223393,1,2,0:2:0:0:
107,16,223561,5,10,3:2:0:0:
374,232,223730,1,2,0:2:0:0:
374,232,223814,1,2,0:2:0:0:
374,232,223899,102,0,L|422:111,1,119.999996337891,2|0,3:2|0:2,0:2:0:0:
331,0,224236,2,0,L|199:45,1,119.999996337891,10|0,3:2|0:2,0:2:0:0:
197,117,224488,1,0,0:2:0:0:
197,117,224573,2,0,B|229:132|229:132|266:222,1,119.999996337891,2|0,3:2|0:2,0:2:0:0:
85,371,224910,2,0,L|217:326,1,119.999996337891,10|0,3:2|0:2,0:2:0:0:
196,254,225162,1,0,0:2:0:0:
196,254,225247,6,0,B|164:239|164:239|127:149,1,119.999996337891,2|0,3:2|0:2,0:2:0:0:
304,82,225584,1,10,3:2:0:0:
101,2,225752,1,2,0:2:0:0:
226,178,225921,102,0,L|240:156,12,18.7500007152558,2|0|0|0|0|0|0|0|0|0|0|0|0,3:1|0:2|0:2|0:2|0:2|0:2|0:2|0:2|0:2|0:2|0:2|0:2|0:2,0:2:0:0:
133,7,226595,5,6,3:2:0:0:
365,98,226764,1,2,3:2:0:0:
217,233,226932,101,10,3:2:0:0:
290,268,227101,1,2,3:2:0:0:
133,377,227269,5,2,3:2:0:0:
365,286,227438,1,2,3:2:0:0:
217,151,227606,101,10,3:2:0:0:
290,116,227775,1,2,3:2:0:0:
166,209,227943,5,6,3:2:0:0:
360,146,228112,1,2,3:2:0:0:
106,159,228281,101,10,3:2:0:0:
399,210,228449,1,2,3:2:0:0:
256,192,228618,6,0,L|256:160,12,18.7500007152558,2|0|0|0|0|0|0|0|0|0|0|0|0,3:1|0:2|0:2|0:2|0:2|0:2|0:2|0:2|0:2|0:2|0:2|0:2|0:2,0:2:0:0:
20,259,229292,101,6,3:2:0:0:
57,212,229376,1,2,3:2:0:0:
94,198,229460,1,2,3:2:0:0:
127,198,229544,1,2,3:2:0:0:
145,214,229629,1,10,3:2:0:0:
150,226,229713,1,2,3:2:0:0:
144,234,229797,1,2,3:2:0:0:
137,237,229881,1,2,3:2:0:0:
131,233,229966,5,6,3:2:0:0:
111,225,230050,1,2,3:2:0:0:
81,239,230135,1,2,3:2:0:0:
74,276,230219,1,2,3:2:0:0:
95,315,230303,1,10,3:2:0:0:
139,330,230387,1,2,3:2:0:0:
197,316,230472,1,2,3:2:0:0:
233,261,230556,1,2,3:2:0:0:
256,192,230640,37,2,0:3:0:0:
221,172,230724,1,2,0:3:0:0:
220,150,230808,1,2,0:3:0:0:
229,146,230892,1,2,0:3:0:0:
256,192,230977,21,2,0:3:0:0:
275,157,231061,1,2,0:3:0:0:
297,156,231145,1,2,0:3:0:0:
301,165,231229,1,2,0:3:0:0:
256,192,231314,85,2,0:3:0:0:
290,211,231398,1,2,0:3:0:0:
291,233,231482,1,2,0:3:0:0:
282,237,231566,1,2,0:3:0:0:
256,192,231651,21,2,0:3:0:0:
236,226,231735,1,2,0:3:0:0:
214,227,231819,1,2,0:3:0:0:
210,218,231903,1,2,0:3:0:0:
92,237,235875,21,2,3:2:0:0:
256,192,236100,1,2,3:2:0:0:
420,147,236325,1,2,3:2:0:0:
70,57,236475,5,2,3:1:0:0:
70,57,237075,86,0,P|179:98|199:200,1,200,6|0,3:1|0:2,0:2:0:0:
260,241,237300,1,2,0:2:0:0:
246,256,237375,2,0,P|200:251|147:246,1,100,10|0,1:2|0:2,0:2:0:0:
11,343,237525,2,0,P|41:303|94:298,1,100,2|0,0:2|0:2,0:2:0:0:
375,238,237675,37,2,3:2:0:0:
334,301,237750,2,0,B|311:295|311:295|290:186|191:167,1,200,2|0,0:2|0:2,0:2:0:0:
134,132,237975,2,0,B|144:107|144:107|234:79,1,100,10|0,1:2|0:2,0:2:0:0:
405,70,238125,69,2,0:2:0:0:
419,53,238200,1,2,0:2:0:0:
440,47,238275,2,0,P|353:61|360:180,1,200,2|0,3:2|0:2,0:2:0:0:
414,203,238500,1,2,0:2:0:0:
434,212,238575,2,0,P|383:224|332:252,1,100,10|0,1:2|0:2,0:2:0:0:
308,368,238725,38,0,B|298:250|204:314|203:179,1,200,2|0,0:2|3:2,0:2:0:0:
238,139,238950,1,2,0:2:0:0:
227,120,239025,2,0,P|167:130|137:183,1,100,2|0,0:2|0:2,0:2:0:0:
0,320,239175,69,10,1:2:0:0:
20,323,239250,1,2,0:2:0:0:
41,332,239325,1,2,0:2:0:0:
58,345,239400,1,2,0:2:0:0:
72,362,239475,2,0,L|296:306,1,200,2|0,3:2|0:2,0:2:0:0:
324,367,239700,1,2,0:2:0:0:
342,354,239775,2,0,P|352:275|362:237,1,100,10|0,1:2|0:2,0:2:0:0:
371,4,239925,38,0,P|304:10|257:124,1,200,2|0,0:2|3:2,0:2:0:0:
311,177,240150,1,2,0:2:0:0:
298,195,240225,2,0,P|219:205|181:215,1,100,2|0,0:2|0:2,0:2:0:0:
101,90,240375,70,0,B|103:111|103:111|192:136,1,100,10|0,1:2|0:2,0:2:0:0:
412,146,240525,2,0,B|410:125|410:125|321:100,1,100,2|0,0:2|0:2,0:2:0:0:
175,45,240675,37,2,3:2:0:0:
197,34,240750,1,2,0:2:0:0:
219,27,240825,1,2,0:2:0:0:
123,229,240975,69,10,1:2:0:0:
74,202,241050,1,2,0:2:0:0:
22,187,241125,1,2,0:2:0:0:
99,370,241275,38,0,P|187:289|295:269,1,200,2|0,3:2|0:2,0:2:0:0:
337,297,241500,1,2,0:2:0:0:
357,288,241575,2,0,B|378:266|378:266|322:196,1,100,10|0,1:2|0:2,0:2:0:0:
220,67,241725,70,0,L|292:84,1,50,2|0,3:2|0:2,0:2:0:0:
332,31,241875,38,0,L|93:85,1,200,2|0,3:1|0:2,0:2:0:0:
59,66,242100,1,2,0:2:0:0:
43,79,242175,2,0,B|41:102|41:102|116:159,1,100,10|0,1:2|0:2,0:2:0:0:
137,309,242325,2,0,B|146:282|146:282|188:263|188:263|206:224,1,100,2|0,0:2|0:2,0:2:0:0:
80,229,242475,70,0,P|146:234|207:356,1,200,2|0,3:2|0:2,0:2:0:0:
286,376,242700,1,2,0:2:0:0:
302,360,242775,1,10,1:2:0:0:
467,116,242925,37,2,0:2:0:0:
454,94,243000,1,2,0:2:0:0:
432,83,243075,2,0,P|333:124|315:229,1,200,2|0,3:2|0:2,0:2:0:0:
388,228,243300,1,2,0:2:0:0:
405,240,243375,2,0,B|395:264|395:264|299:291,1,100,10|0,1:2|0:2,0:2:0:0:
152,176,243525,2,0,P|100:191|79:247,1,100,2|0,0:2|0:2,0:2:0:0:
0,285,243675,69,2,3:2:0:0:
20,288,243750,1,2,0:2:0:0:
41,297,243825,1,2,0:2:0:0:
58,310,243900,1,2,0:2:0:0:
78,356,243975,69,2,1:3:0:0:
152,314,244075,21,2,0:3:0:0:
223,358,244175,85,2,0:3:0:0:
292,306,244275,38,0,B|286:201|206:259|197:128,1,200,2|0,3:2|0:2,0:2:0:0:
269,85,244500,1,2,0:2:0:0:
289,76,244575,2,0,B|317:99|317:99|261:193,1,100,10|0,1:2|0:2,0:2:0:0:
138,250,244725,2,0,B|137:270|137:270|223:301,1,100,2|0,0:2|0:2,0:2:0:0:
441,235,244875,38,0,P|395:219|322:207,1,100,2|0,3:2|0:2,0:2:0:0:
491,102,245025,1,2,0:2:0:0:
476,86,245100,2,0,P|413:110|400:163,1,100,2|8,0:2|1:2,0:2:0:0:
385,307,245250,1,2,0:2:0:0:
366,292,245325,1,2,0:2:0:0:
127,172,245475,70,0,L|191:155,1,50,2|0,3:2|0:2,0:2:0:0:
344,209,245625,2,0,L|280:226,1,50,2|0,3:2|0:2,0:2:0:0:
157,337,245775,38,0,L|188:208,1,100,10|0,1:2|0:2,0:2:0:0:
326,41,245925,2,0,L|302:138,1,100,2|0,3:2|0:2,0:2:0:0:
62,127,246075,69,2,3:2:0:0:
52,121,246150,1,2,3:2:0:0:
44,104,246225,1,2,3:2:0:0:
50,80,246300,1,2,3:2:0:0:
71,58,246375,1,10,1:2:0:0:
111,52,246450,1,2,3:2:0:0:
160,79,246525,1,2,3:2:0:0:
193,136,246600,1,2,3:2:0:0:
177,207,246675,38,0,P|86:250|78:347,1,200,6|0,3:1|0:2,0:2:0:0:
232,266,246900,1,2,0:2:0:0:
250,255,246975,2,0,P|261:188|281:137,1,100,10|0,1:2|0:2,0:2:0:0:
408,56,247125,2,0,P|378:96|325:101,1,100,2|0,0:2|0:2,0:2:0:0:
117,95,247275,69,2,3:2:0:0:
41,80,247350,2,0,B|47:102|47:102|157:119|179:218,1,200,2|0,0:2|0:2,0:2:0:0:
112,243,247575,2,0,B|105:255|105:255|181:316,1,100,10|0,1:2|0:2,0:2:0:0:
411,315,247725,37,2,0:2:0:0:
425,298,247800,1,2,0:2:0:0:
446,292,247875,2,0,P|360:270|215:252,1,200,2|0,3:2|0:2,0:2:0:0:
266,172,248100,1,2,0:2:0:0:
248,160,248175,2,0,B|248:142|248:142|333:105,1,100,10|0,1:2|0:2,0:2:0:0:
365,3,248325,70,0,B|375:121|469:57|470:192,1,200,2|0,0:2|3:2,0:2:0:0:
380,184,248550,1,2,0:2:0:0:
394,198,248625,2,0,P|357:240|356:290,1,100,2|0,0:2|0:2,0:2:0:0:
68,329,248775,37,10,1:2:0:0:
88,326,248850,1,2,0:2:0:0:
109,317,248925,1,2,0:2:0:0:
126,304,249000,1,2,0:2:0:0:
140,287,249075,2,0,P|107:186|57:80,1,200,2|0,3:2|0:2,0:2:0:0:
4,48,249300,1,2,0:2:0:0:
17,30,249375,2,0,P|65:18|128:-8,1,100,10|0,1:2|0:2,0:2:0:0:
393,166,249525,70,0,P|302:162|275:49,1,200,2|0,0:2|3:2,0:2:0:0:
206,13,249750,1,2,0:2:0:0:
188,26,249825,2,0,P|178:105|168:143,1,100,2|0,0:2|0:2,0:2:0:0:
347,258,249975,38,0,P|302:265|267:331,1,100,10|0,1:2|0:2,0:2:0:0:
104,164,250125,2,0,B|106:185|106:185|195:210,1,100,2|0,0:2|0:2,0:2:0:0:
369,49,250275,69,2,3:2:0:0:
358,71,250350,1,2,0:2:0:0:
351,93,250425,1,2,0:2:0:0:
131,23,250575,37,10,1:2:0:0:
158,72,250650,1,2,0:2:0:0:
173,124,250725,1,2,0:2:0:0:
404,154,250875,102,0,P|423:146|449:135,2,44.999998626709,6|0|0,3:2|0:2|0:2,0:2:0:0:
315,324,251475,37,2,3:1:0:0:
293,335,251575,21,2,3:3:0:0:
250,331,251675,85,2,3:3:0:0:
212,287,251775,21,2,3:3:0:0:
220,223,251875,85,2,3:3:0:0:
279,177,251975,21,2,3:3:0:0:
322,112,252075,85,2,3:3:0:0:
305,44,252175,21,2,3:3:0:0:
257,13,252275,85,2,3:3:0:0:
211,21,252375,21,2,3:3:0:0:
190,44,252475,85,2,3:3:0:0:
189,68,252575,21,2,3:3:0:0:
120,102,252675,85,2,3:3:0:0:
155,114,252775,1,2,3:3:0:0:
185,137,252875,1,2,3:3:0:0:
266,154,252975,21,2,3:3:0:0:
213,172,253075,1,2,3:3:0:0:
168,206,253175,1,2,3:3:0:0:
89,222,253275,85,2,3:3:0:0:
159,246,253375,1,2,3:3:0:0:
219,292,253475,1,2,3:3:0:0:
257,356,253575,1,2,3:3:0:0:
257,356,253875,38,0,P|276:215|292:147,1,200,6|0,3:1|0:2,0:2:0:0:
223,46,254100,1,2,0:2:0:0:
205,55,254175,2,0,B|181:86|181:86|218:150,1,100,10|0,1:2|0:2,0:2:0:0:
359,125,254325,2,0,B|383:94|383:94|346:30,1,100,2|0,0:2|0:2,0:2:0:0:
123,275,254475,37,2,3:2:0:0:
104,266,254550,2,0,B|96:210|64:237|57:172,1,100,2|0,0:2|0:2,0:2:0:0:
22,299,254700,1,2,0:2:0:0:
36,314,254775,2,0,P|86:226|197:217,1,200,10|0,1:2|0:2,0:2:0:0:
176,210,255075,70,0,L|158:161,1,50,2|0,3:2|0:2,0:2:0:0:
336,174,255225,2,0,L|354:223,1,50,2|0,3:2|0:2,0:2:0:0:
87,134,255375,38,0,B|97:110|97:110|181:66,1,100,10|0,1:2|0:2,0:2:0:0:
425,250,255525,2,0,B|415:274|415:274|331:318,1,100,2|0,3:2|0:2,0:2:0:0:
139,299,255675,69,2,3:2:0:0:
129,305,255750,1,2,3:2:0:0:
121,322,255825,1,2,3:2:0:0:
127,346,255900,1,2,3:2:0:0:
148,368,255975,1,2,3:2:0:0:
188,374,256050,1,2,3:2:0:0:
237,347,256125,1,2,3:2:0:0:
270,290,256200,1,2,3:2:0:0:
254,219,256275,38,0,B|235:154|235:154|195:132|195:132|170:43,1,200,6|0,3:1|0:2,0:2:0:0:
331,26,256500,1,2,0:2:0:0:
348,38,256575,2,0,B|336:58|336:58|247:77,1,100,8|0,1:1|0:2,0:2:0:0:
80,173,256725,2,0,B|92:193|92:193|181:212,1,100,2|0,0:2|0:2,0:2:0:0:
386,191,256875,69,2,3:1:0:0:
332,245,256950,2,0,P|242:272|207:365,1,200,2|0,0:2|0:2,0:2:0:0:
126,364,257175,2,0,P|104:298|81:258,1,100,8|0,1:1|0:2,0:2:0:0:
45,92,257325,37,2,0:2:0:0:
31,75,257400,1,2,0:2:0:0:
10,69,257475,2,0,P|124:64|163:134,1,200,2|0,3:1|0:2,0:2:0:0:
209,190,257700,1,2,0:2:0:0:
229,199,257775,2,0,P|241:137|258:85,1,100,8|0,1:1|0:2,0:2:0:0:
479,67,257925,70,0,B|360:72|421:169|286:165,1,200,2|0,0:2|3:2,0:2:0:0:
296,240,258150,1,2,0:2:0:0:
308,257,258225,2,0,P|372:276|406:313,1,100,2|0,0:2|0:2,0:2:0:0:
183,359,258375,37,8,1:1:0:0:
195,342,258450,1,2,0:2:0:0:
212,328,258525,1,2,0:2:0:0:
232,319,258600,1,2,0:2:0:0:
253,315,258675,2,0,P|277:198|308:90,1,200,2|0,3:1|0:2,0:2:0:0:
326,45,258900,1,2,0:2:0:0:
306,35,258975,2,0,P|231:63|193:72,1,100,8|0,1:1|0:2,0:2:0:0:
367,183,259125,70,0,P|434:189|481:303,1,200,2|2,0:2|3:1,0:2:0:0:
420,348,259350,1,2,0:2:0:0:
402,360,259425,2,0,P|357:341|336:289,1,100,2|0,0:2|0:2,0:2:0:0:
111,199,259575,38,0,B|113:178|113:178|202:153,1,100,8|0,1:1|0:2,0:2:0:0:
313,38,259725,2,0,P|265:64|248:121,1,100,2|0,0:2|0:2,0:2:0:0:
224,258,259875,69,2,3:1:0:0:
202,247,259950,1,2,0:2:0:0:
180,240,260025,1,2,0:2:0:0:
327,116,260175,37,8,1:1:0:0:
376,89,260250,1,2,0:2:0:0:
428,74,260325,1,2,0:2:0:0:
170,20,260475,70,0,P|239:115|271:231,1,200,2|0,3:2|0:2,0:2:0:0:
318,256,260700,1,2,0:2:0:0:
334,269,260775,2,0,B|309:284|309:284|230:264,1,100,8|0,1:1|0:2,0:2:0:0:
101,254,260925,38,0,L|130:184,1,50,2|0,3:2|0:2,0:2:0:0:
45,179,261075,70,0,B|38:204|38:204|147:225|177:324,1,200,2|0,3:1|0:2,0:2:0:0:
240,266,261300,1,2,0:2:0:0:
256,279,261375,2,0,B|261:311|261:311|227:375,1,100,8|0,1:1|0:2,0:2:0:0:
5,361,261525,2,0,B|138:334,1,100,2|0,0:2|0:2,0:2:0:0:
362,288,261675,38,0,P|267:252|238:161,1,200,2|0,3:1|0:2,0:2:0:0:
309,125,261900,1,2,0:2:0:0:
293,109,261975,1,8,1:1:0:0:
12,132,262125,69,2,0:2:0:0:
25,110,262200,1,2,0:2:0:0:
47,99,262275,2,0,P|151:79|249:48,1,200,2|0,3:1|0:2,0:2:0:0:
317,16,262500,1,2,0:2:0:0:
334,28,262575,2,0,P|317:77|308:140,1,100,8|0,1:1|0:2,0:2:0:0:
122,166,262725,2,0,B|119:191|119:191|195:237,1,100,2|0,0:2|0:2,0:2:0:0:
406,288,262875,37,2,3:2:0:0:
386,291,262950,1,2,0:2:0:0:
365,300,263025,1,2,0:2:0:0:
348,313,263100,1,2,0:2:0:0:
319,349,263175,21,2,1:3:0:0:
340,262,263275,21,2,0:3:0:0:
261,224,263375,85,2,0:3:0:0:
299,147,263475,86,0,B|276:130|276:130|223:230|126:226,1,200,2|0,3:1|0:2,0:2:0:0:
83,175,263700,1,2,0:2:0:0:
63,166,263775,2,0,B|35:189|35:189|91:283,1,100,8|0,1:1|0:2,0:2:0:0:
216,380,263925,2,0,P|229:313|250:262,1,100,2|0,0:2|0:2,0:2:0:0:
131,47,264075,70,0,P|185:68|196:146,1,100,2|0,3:1|0:2,0:2:0:0:
304,228,264225,1,2,0:2:0:0:
319,244,264300,2,0,P|382:220|395:167,1,100,2|8,0:2|1:1,0:2:0:0:
334,76,264450,1,2,0:2:0:0:
353,61,264525,1,2,0:1:0:0:
428,291,264675,38,0,L|416:342,1,50,2|0,3:1|0:2,0:2:0:0:
84,291,264825,2,0,L|96:342,1,50,2|0,3:2|0:2,0:2:0:0:
335,352,264975,70,0,L|366:223,1,100,8|0,1:1|0:2,0:2:0:0:
177,352,265125,2,0,L|153:254,1,100,2|0,3:2|0:2,0:2:0:0:
256,192,265275,37,2,3:2:0:0:
263,200,265350,1,2,3:2:0:0:
281,206,265425,1,2,3:2:0:0:
304,196,265500,1,2,3:2:0:0:
322,173,265575,1,8,1:1:0:0:
322,132,265650,1,2,3:2:0:0:
288,87,265725,1,2,3:2:0:0:
226,64,265800,1,2,3:2:0:0:
158,90,265875,70,0,P|251:73|360:28,1,200,6|0,3:1|0:2,0:2:0:0:
430,16,266100,1,2,0:2:0:0:
448,27,266175,2,0,B|466:52|466:52|429:72|410:132,1,100,8|0,1:1|0:2,0:2:0:0:
394,271,266325,2,0,B|368:279|368:279|302:208,1,100,2|0,0:2|0:2,0:2:0:0:
226,316,266475,37,2,3:1:0:0:
300,342,266550,2,0,B|310:224|404:288|405:153,1,200,2|0,0:2|0:2,0:2:0:0:
279,74,266775,2,0,B|272:86|272:86|331:96|353:145,1,100,8|0,1:1|0:2,0:2:0:0:
390,334,266925,69,2,0:2:0:0:
404,317,267000,1,2,0:2:0:0:
425,311,267075,2,0,P|291:245|275:173,1,200,2|0,3:1|0:2,0:2:0:0:
138,166,267300,1,2,0:2:0:0:
120,178,267375,2,0,B|120:196|120:196|205:233,1,100,8|0,1:1|0:2,0:2:0:0:
365,3,267525,38,0,B|375:121|469:57|470:192,1,200,2|0,0:2|3:2,0:2:0:0:
380,184,267750,1,2,0:2:0:0:
394,198,267825,2,0,P|357:240|356:290,1,100,2|0,0:2|0:2,0:2:0:0:
68,329,267975,69,8,1:1:0:0:
88,326,268050,1,2,0:2:0:0:
109,317,268125,1,2,0:2:0:0:
126,304,268200,1,2,0:2:0:0:
140,287,268275,2,0,P|107:186|57:80,1,200,2|0,3:1|0:2,0:2:0:0:
4,48,268500,1,2,0:2:0:0:
17,30,268575,2,0,P|65:18|128:-8,1,100,8|0,1:1|0:2,0:2:0:0:
393,166,268725,38,0,P|302:162|275:49,1,200,2|2,0:2|3:1,0:2:0:0:
206,13,268950,1,2,0:2:0:0:
188,26,269025,2,0,P|178:105|168:143,1,100,2|0,0:2|0:2,0:2:0:0:
347,258,269175,70,0,P|302:265|267:331,1,100,8|0,1:1|0:2,0:2:0:0:
104,164,269325,2,0,B|106:185|106:185|195:210,1,100,2|0,0:2|0:2,0:2:0:0:
369,49,269475,37,2,3:1:0:0:
358,71,269550,1,2,0:2:0:0:
351,93,269625,1,2,0:2:0:0:
131,23,269775,69,8,1:1:0:0:
158,72,269850,1,2,0:2:0:0:
173,124,269925,1,2,0:2:0:0:
0,211,270075,38,0,P|118:241|194:308,1,200,2|0,3:2|0:2,0:2:0:0:
248,335,270300,1,2,0:2:0:0:
269,325,270375,2,0,B|283:302|283:302|217:212,1,100,10|0,1:1|0:2,0:2:0:0:
48,338,270525,70,0,L|105:321,1,50,2|0,3:2|0:2,0:2:0:0:
258,168,270675,37,6,3:1:0:0:
205,73,270825,1,2,3:2:0:0:
337,193,270975,69,8,1:1:0:0:
206,260,271125,1,2,3:2:0:0:
353,117,271275,37,2,3:1:0:0:
428,279,271425,1,2,3:2:0:0:
278,94,271575,69,8,1:1:0:0:
464,0,271725,1,2,3:2:0:0:
258,168,271875,38,0,L|190:183,1,50,6|0,3:1|0:2,0:2:0:0:
428,264,272025,2,0,L|496:249,1,50,2|0,3:2|0:2,0:2:0:0:
255,246,272175,70,0,P|228:271|187:331,1,75.0000028610231,8|0,1:1|0:2,0:2:0:0:
441,184,272325,2,0,P|468:159|509:99,1,75.0000028610231,2|0,3:2|0:2,0:2:0:0:
305,303,272475,38,0,P|316:339|381:382,1,100,2|0,3:2|0:2,0:2:0:0:
389,125,272625,2,0,P|378:89|313:46,1,100,2|0,3:2|0:2,0:2:0:0:
326,208,272775,69,8,1:1:0:0:
354,233,272850,1,2,0:2:0:0:
361,197,272925,1,2,0:2:0:0:
33,213,273075,37,6,3:1:0:0:
79,251,273150,1,2,3:2:0:0:
118,258,273225,1,2,3:2:0:0:
150,252,273300,1,2,3:2:0:0:
165,233,273375,1,2,3:2:0:0:
167,219,273450,1,2,3:2:0:0:
160,213,273525,1,2,3:2:0:0:
152,212,273600,1,2,3:2:0:0:
147,216,273675,69,6,3:2:0:0:
129,228,273750,1,2,3:2:0:0:
97,220,273825,1,2,3:2:0:0:
83,185,273900,1,2,3:2:0:0:
96,143,273975,1,2,3:2:0:0:
137,120,274050,1,2,3:2:0:0:
196,123,274125,1,2,3:2:0:0:
242,170,274200,1,2,3:2:0:0:
255,246,274275,37,6,3:2:0:0:
256,192,274350,12,0,275325,0:0:0:0:
312,143,275475,22,0,B|305:159|305:159|230:137,1,75.0000028610231,6|0,3:2|0:0,0:0:0:0:
77,123,275625,6,0,B|59:116|59:116|56:88,6,37.5000014305115,2|0|0|0|8|0|0,3:1|0:0|0:0|0:0|1:2|0:0|0:0,0:0:0:0:
135,72,275925,101,2,3:2:0:0:
153,59,276000,1,2,3:2:0:0:
182,55,276075,5,2,0:2:0:0:
158,75,276150,1,2,3:2:0:0:
158,116,276225,1,2,3:2:0:0:
172,165,276300,1,2,0:2:0:0:
225,193,276375,102,0,P|330:163|442:141,1,200,10|0,1:2|0:2,0:2:0:0:
499,228,276600,1,2,0:2:0:0:
483,241,276675,2,0,B|471:255|471:255|359:219,1,100,2|0,3:2|0:2,0:2:0:0:
225,193,276825,2,0,B|214:218|214:218|276:290,1,100,2|0,3:2|0:2,0:2:0:0:
402,319,276975,5,10,1:2:0:0:
368,333,277050,1,2,0:2:0:0:
354,347,277125,1,2,3:2:0:0:
348,360,277200,1,2,3:2:0:0:
354,371,277275,101,2,0:2:0:0:
375,363,277350,1,2,3:2:0:0:
401,343,277425,1,2,3:2:0:0:
415,289,277500,1,2,0:2:0:0:
393,230,277575,5,10,1:2:0:0:
349,251,277650,1,2,3:2:0:0:
298,237,277725,1,2,3:2:0:0:
262,186,277800,1,2,3:2:0:0:
282,116,277875,102,0,L|347:101,1,50,2|0,3:2|0:2,0:2:0:0:
406,73,278025,6,0,P|310:71|200:33,1,200,2|8,3:1|1:2,0:2:0:0:
135,15,278250,1,2,0:2:0:0:
121,30,278325,2,0,B|106:51|106:51|147:69|172:127,1,100,2|0,3:2|3:2,0:2:0:0:
196,242,278475,101,2,0:2:0:0:
171,297,278550,1,2,3:2:0:0:
124,323,278625,1,2,3:2:0:0:
83,318,278700,1,2,0:2:0:0:
72,307,278775,5,10,1:2:0:0:
86,290,278850,1,2,3:2:0:0:
129,280,278925,1,2,0:2:0:0:
181,312,279000,1,2,0:2:0:0:
220,375,279075,102,0,P|233:321|258:264,1,100,2|0,3:2|0:2,0:2:0:0:
88,61,279225,2,0,P|169:148|196:246,1,200,2|8,3:2|1:2,0:2:0:0:
274,199,279450,1,2,0:2:0:0:
289,212,279525,2,0,P|309:156|337:108,1,100,2|0,3:2|3:2,0:2:0:0:
382,25,279675,6,0,B|366:14|366:14|266:66,1,100,2|0,0:2|3:2,0:2:0:0:
47,140,279825,2,0,P|104:149|177:171,1,100,2|0,3:2|0:2,0:2:0:0:
328,279,279975,1,10,1:2:0:0:
353,290,280050,1,2,3:2:0:0:
393,283,280125,1,2,0:2:0:0:
430,233,280200,1,2,3:2:0:0:
395,171,280275,102,0,P|347:189|306:197,1,75.0000028610231,2|0,3:2|0:2,0:2:0:0:
159,307,280425,6,0,B|147:323|147:323|178:358,2,37.5000014305115,2|0|0,3:1|0:2|0:2,0:2:0:0:
234,308,280575,102,0,P|194:274|167:200,1,100,10|0,1:2|0:2,0:2:0:0:
223,144,280725,5,2,3:2:0:0:
237,138,280800,1,2,3:2:0:0:
259,106,280875,102,0,B|243:58|210:81|193:9,1,100,2|0,0:2|3:2,0:2:0:0:
393,4,281025,2,0,P|355:23|340:108,1,100,2|0,3:2|0:2,0:2:0:0:
70,106,281175,2,0,B|71:119|71:119|127:124|152:164,1,100,10|0,1:2|3:2,0:2:0:0:
399,283,281325,2,0,P|357:273|280:260,1,100,2|0,0:2|0:2,0:2:0:0:
192,327,281475,6,0,P|226:311|272:299,1,50,2|0,3:2|0:2,0:2:0:0:
59,224,281625,102,0,P|27:205|12:171,1,75.0000028610231,2|0,3:2|0:2,0:2:0:0:
179,68,281775,6,0,P|148:106|146:156,1,100,10|0,1:2|0:2,0:2:0:0:
110,326,281925,1,2,3:2:0:0:
95,339,282000,1,2,3:2:0:0:
70,346,282075,101,2,0:2:0:0:
74,321,282150,1,2,3:2:0:0:
111,282,282225,1,2,3:2:0:0:
172,270,282300,1,2,0:2:0:0:
242,295,282375,5,10,1:2:0:0:
239,304,282450,1,2,3:2:0:0:
236,312,282525,1,2,3:2:0:0:
235,322,282600,1,2,3:2:0:0:
234,330,282675,102,0,L|298:316,1,50,2|0,3:2|0:2,0:2:0:0:
368,324,282825,6,0,P|257:294|180:247,2,200,2|8|0,3:1|1:2|3:2,0:2:0:0:
443,293,283200,101,2,3:2:0:0:
455,278,283275,2,0,P|423:237|417:189,1,100,2|0,0:2|3:2,0:2:0:0:
230,33,283425,2,0,B|221:50|221:50|311:94,1,100,2|0,3:2|0:2,0:2:0:0:
462,9,283575,5,10,1:2:0:0:
404,26,283650,1,2,3:2:0:0:
371,69,283725,1,2,0:2:0:0:
371,110,283800,1,2,0:2:0:0:
380,122,283875,102,0,L|445:97,1,50,2|0,3:2|0:2,0:2:0:0:
483,160,284025,6,0,B|478:123|513:99|513:99|359:148|383:285,1,300,2|0,3:1|0:2,0:2:0:0:
351,331,284325,1,2,3:2:0:0:
334,343,284400,1,2,3:2:0:0:
317,364,284475,101,2,0:2:0:0:
287,363,284550,1,2,3:2:0:0:
251,329,284625,1,2,3:2:0:0:
256,271,284700,1,2,0:2:0:0:
311,227,284775,5,10,1:2:0:0:
332,165,284850,1,2,0:2:0:0:
311,119,284925,1,2,0:2:0:0:
287,108,285000,1,2,0:2:0:0:
272,113,285075,101,6,3:1:0:0:
200,214,285175,2,0,P|159:225|90:249,1,100.000003814697,2|2,0:1|3:0,0:0:0:0:
197,97,285375,21,10,1:1:0:0:
244,330,285475,2,0,P|260:275|293:218,1,100.000003814697,2|2,0:1|3:0,0:0:0:0:
10,70,285675,86,0,P|69:144|107:272,1,200.000007629395,2|2,3:1|3:0,0:0:0:0:
159,345,285975,21,8,1:0:0:0:
343,294,286075,1,2,0:3:0:0:
148,333,286175,1,2,3:3:0:0:
312,376,286275,85,2,3:1:0:0:
182,236,286375,2,0,P|230:219|281:198,1,100.000003814697,0|0,0:0|3:0,0:0:0:0:
383,104,286575,21,8,1:0:0:0:
271,63,286675,1,2,0:3:0:0:
388,118,286775,1,2,3:3:0:0:
218,8,286875,86,0,P|146:87|138:206,1,200.000007629395,2|2,3:1|3:3,0:0:0:0:
395,328,287175,2,0,B|384:274|348:306|340:223,2,100.000003814697,8|2|2,1:0|3:3|3:3,0:0:0:0:
471,317,287475,22,0,P|367:297|258:285,1,200.000007629395,2|2,3:1|3:3,0:0:0:0:
67,319,287775,1,8,1:0:0:0:
177,238,287875,1,2,0:3:0:0:
61,305,287975,1,2,3:3:0:0:
241,359,288075,86,0,P|262:237|306:147,1,200.000007629395,0|2,3:0|3:3,0:0:0:0:
316,85,288375,1,10,1:1:0:0:
225,14,288475,1,2,0:3:0:0:
305,95,288575,1,2,3:1:0:0:
222,205,288675,21,2,3:1:0:0:
332,304,288775,2,0,P|378:285|445:271,1,100.000003814697,2|2,0:3|3:3,0:0:0:0:
293,168,288975,85,8,1:0:0:0:
174,315,289075,2,0,P|128:295|105:242,1,100.000003814697,2|2,0:3|3:3,0:0:0:0:
33,29,289275,22,0,B|49:132|133:74|145:184,1,200.000007629395,2|2,3:1|3:1,0:0:0:0:
60,181,289575,1,10,1:1:0:0:
211,120,289675,1,2,3:3:0:0:
45,173,289775,1,2,3:1:0:0:
235,256,289875,86,0,L|270:49,1,200.000007629395,2|2,3:1|3:3,0:0:0:0:
314,268,290175,2,0,L|349:61,1,200.000007629395,8|2,1:0|3:3,0:0:0:0:
200,16,290475,21,2,3:3:0:0:
37,104,290575,2,0,L|83:211,1,100.000003814697,2|2,0:3|3:3,0:0:0:0:
269,364,290775,86,0,B|253:261|169:319|157:209,1,200.000007629395,10|2,1:1|3:3,0:0:0:0:
299,73,291075,22,0,P|249:67|203:48,1,100.000003814697,2|2,3:1|0:3,0:0:0:0:
271,236,291275,2,0,P|300:195|340:165,1,100.000003814697,2|8,3:1|1:0,0:0:0:0:
130,115,291475,2,0,P|150:161|157:211,1,100.000003814697,2|2,0:1|3:3,0:0:0:0:
233,144,291675,86,0,P|110:193|80:273,1,200.000007629395,2|2,3:1|3:3,0:0:0:0:
69,368,291975,1,10,1:1:0:0:
156,282,292075,1,2,3:3:0:0:
52,360,292175,1,2,3:3:0:0:
228,258,292275,22,0,P|166:155|137:64,1,200.000007629395,2|2,3:1|3:3,0:0:0:0:
331,129,292575,2,0,B|342:75|378:107|386:24,2,100.000003814697,8|2|2,1:0|0:3|3:3,0:0:0:0:
277,187,292875,86,0,L|-12:151,1,200.000007629395,0|2,3:0|3:3,0:0:0:0:
270,263,293175,2,0,L|-19:227,1,200.000007629395,8|2,1:0|3:3,0:0:0:0:
380,357,293475,21,2,3:1:0:0:
442,166,293575,2,0,P|397:194|349:261,1,100.000003814697,2|2,3:1|3:3,0:0:0:0:
307,328,293775,85,10,1:1:0:0:
213,142,293875,2,0,P|267:159|309:206,1,100.000003814697,2|2,3:1|3:3,0:0:0:0:
380,357,294075,22,0,B|400:368|400:368|402:260|499:225,2,200.000007629395,2|10|2,3:1|3:1|3:1,0:0:0:0:
307,328,294575,1,2,0:3:0:0:
229,314,294687,21,6,3:2:0:0:
229,314,295361,2,0,P|172:273|148:135,1,200,2|2,0:3|0:3,0:0:0:0:
143,151,296710,1,2,0:3:0:0:
506,124,297384,6,0,P|454:121|400:94,1,100,2|0,0:3|0:0,0:0:0:0:
323,193,298058,1,2,0:3:0:0:
380,275,298395,1,2,0:3:0:0:
458,371,298732,102,0,P|408:358|348:347,1,100,2|0,0:3|0:0,0:0:0:0:
443,228,299238,1,2,0:3:0:0:
470,224,299322,1,2,0:3:0:0:
488,206,299406,1,2,0:3:0:0:
488,206,300081,6,0,P|390:230|298:301,1,200,2|2,0:3|0:3,0:0:0:0:
24,178,301428,2,0,P|122:154|214:83,1,200,2|2,0:3|0:3,0:0:0:0:
93,332,302777,102,0,P|139:341|191:350,1,100,2|0,0:3|0:0,0:0:0:0:
272,227,303451,1,2,0:3:0:0:
231,126,303789,1,2,0:3:0:0:
318,82,304126,6,0,P|242:195|187:373,1,300,2|0,0:3|0:0,0:0:0:0:
190,349,305473,102,0,P|155:247|104:155,2,200,2|2|2,0:3|0:3|0:3,0:0:0:0:
190,349,307495,1,2,0:3:0:0:
384,22,308170,6,0,P|347:37|288:52,1,100,2|0,0:3|0:0,0:0:0:0:
161,147,308844,1,2,0:3:0:0:
273,192,309181,1,2,0:3:0:0:
316,275,309518,102,0,P|285:325|277:386,1,100,2|0,0:3|0:0,0:0:0:0:
135,336,310024,1,2,0:3:0:0:
108,332,310108,1,2,0:3:0:0:
90,314,310192,1,2,0:3:0:0:
90,314,310864,6,0,P|76:231|64:207,1,100,2|0,0:3|0:0,0:0:0:0:
126,116,311582,1,2,0:3:0:0:
216,47,311941,1,2,0:3:0:0:
363,15,312301,101,2,0:3:0:0:
224,151,313019,5,2,0:3:0:0:
96,358,313738,101,2,0:3:0:0:
256,192,313828,12,0,316612,0:0:0:0:
