osu file format v14

[General]
AudioFilename: audio.mp3
AudioLeadIn: 0
PreviewTime: 75590
Countdown: 0
SampleSet: Soft
StackLeniency: 0.7
Mode: 0
LetterboxInBreaks: 0
EpilepsyWarning: 1
WidescreenStoryboard: 1

[Editor]
Bookmarks: 2909,3000,5818,8727,11636,14545,17454,20363,23272,26181,39272,40727,41090,42181,43636,45090,46545,50909,52363,55090,59636,64000,69818,75636,87272,97454
DistanceSpacing: 1.9
BeatDivisor: 6
GridSize: 16
TimelineZoom: 3.5

[Metadata]
Title:Ekoro
TitleUnicode:Ekoro
Artist:Down
ArtistUnicode:Down
Creator:Down
Version:kieg's Insane
Source:東方花映塚 ~ Phantasmagoria of Flower View.
Tags:instrumental electronic video game izayoi sakuya flowering night deviouspanda kieg enri cellina reana 東方project touhou project フラワリングナイト
BeatmapID:3493929
BeatmapSetID:1683876

[Difficulty]
HPDrainRate:5
CircleSize:4
OverallDifficulty:8
ApproachRate:8.8
SliderMultiplier:1.65
SliderTickRate:1

[Events]
//Background and Video events
0,0,"bg.jpg",0,0
//Break Periods
//Storyboard Layer 0 (Background)
//Storyboard Layer 1 (Fail)
//Storyboard Layer 2 (Pass)
//Storyboard Layer 3 (Foreground)
//Storyboard Layer 4 (Overlay)
//Storyboard Sound Samples

[TimingPoints]
0,363.636363636364,4,2,1,60,1,0
1818,-90.9090909090909,4,2,1,40,0,0
2909,-100,4,2,1,55,0,0
5818,-100,4,2,1,60,0,1
6060,-100,4,2,1,60,0,0
6545,-80,4,2,1,60,0,0
7272,-100,4,2,1,60,0,0
8727,-80,4,2,1,60,0,1
8909,-80,4,2,1,60,0,0
11636,-80,4,2,1,60,0,1
11787,-80,4,2,1,60,0,0
13606,-74.0740740740741,4,2,1,60,0,0
13818,-80,4,2,1,60,0,0
14545,-80,4,2,1,60,0,1
14690,-80,4,2,1,60,0,0
17454,-80,4,2,1,60,0,1
17662,-80,4,2,1,60,0,0
20363,-80,4,2,1,60,0,1
20525,-80,4,2,1,60,0,0
23272,-80,4,2,1,60,0,1
23424,-80,4,2,1,60,0,0
24727,-166.666666666667,4,2,1,45,0,0
26181,-100,4,2,1,50,0,1
26363,-100,4,2,1,50,0,0
30545,-100,4,2,1,45,0,0
30636,-100,4,2,1,40,0,0
30727,-100,4,2,1,35,0,0
30818,-100,4,2,1,30,0,0
31000,-100,4,2,1,25,0,0
31090,-100,4,2,1,20,0,0
31181,-100,4,2,1,15,0,0
31272,-133.333333333333,4,2,1,10,0,0
31636,-133.333333333333,4,2,1,50,0,0
32000,-80,4,2,1,80,0,0
32727,-80,4,2,1,60,0,0
37090,-80,4,2,1,35,0,0
37454,-80,4,2,1,45,0,0
37636,-80,4,2,1,50,0,0
37818,-117.647058823529,4,2,1,55,0,0
39272,-117.647058823529,4,2,1,55,0,1
39515,-117.647058823529,4,2,1,55,0,0
40727,-117.647058823529,4,2,1,55,0,1
40909,-117.647058823529,4,2,1,55,0,0
42181,-117.647058823529,4,2,1,55,0,1
42424,-117.647058823529,4,2,1,55,0,0
43636,-117.647058823529,4,2,1,55,0,1
43818,-117.647058823529,4,2,1,55,0,0
45090,-117.647058823529,4,2,1,55,0,1
45236,-117.647058823529,4,2,1,55,0,0
46545,-117.647058823529,4,2,1,55,0,1
46727,-117.647058823529,4,2,1,55,0,0
49272,-100,4,2,1,55,0,0
49818,-117.647058823529,4,2,1,55,0,0
50909,-117.647058823529,4,2,1,55,0,1
51116,-117.647058823529,4,2,1,55,0,0
52363,-117.647058823529,4,2,1,55,0,1
52545,-117.647058823529,4,2,1,55,0,0
55090,-100,4,2,1,55,0,1
55454,-100,4,2,1,55,0,0
55636,-117.647058823529,4,2,1,55,0,0
61090,-117.647058823529,4,2,1,55,0,1
61181,-117.647058823529,4,2,1,55,0,0
63636,-117.647058823529,4,2,1,65,0,0
64000,-83.3333333333333,4,2,1,75,0,1
64145,-83.3333333333333,4,2,1,75,0,0
69818,-83.3333333333333,4,2,1,75,0,1
69974,-83.3333333333333,4,2,1,75,0,0
74649,-83.3333333333333,4,2,1,55,0,0
75376,-83.3333333333333,4,2,1,75,0,0
75636,-83.3333333333333,4,2,1,75,0,1
75787,-83.3333333333333,4,2,1,75,0,0
85818,-83.3333333333333,4,2,1,55,0,0
86787,-83.3333333333333,4,2,1,75,0,0
87272,-133.333333333333,4,2,1,65,0,1
87515,-133.333333333333,4,2,1,65,0,0
96000,-133.333333333333,4,2,1,40,0,0

[Colours]
Combo1 : 255,115,199
Combo2 : 95,95,95
Combo3 : 247,247,247
Combo4 : 250,33,38
Combo5 : 255,239,130
Combo6 : 168,255,125
Combo7 : 89,155,255
Combo8 : 184,104,255

[HitObjects]
40,51,2909,6,0,P|54:90|63:130,1,82.5,6|2,1:2|3:2,0:0:0:0:
19,200,3272,1,8,1:0:0:0:
19,200,3363,1,2,0:0:0:0:
19,200,3454,1,2,3:2:0:0:
113,262,3636,6,0,P|137:230|175:217,1,82.5,0|2,1:0|3:2,0:0:0:0:
252,252,4000,1,8,1:0:0:0:
262,269,4090,1,2,0:0:0:0:
267,289,4181,1,2,3:2:0:0:
266,309,4272,1,2,0:0:0:0:
259,329,4363,102,0,P|298:318|339:313,1,82.5,0|0,1:0|3:0,0:0:0:0:
447,197,4727,2,0,P|449:176|455:156,1,41.25,8|2,1:0|0:0,0:0:0:0:
378,140,4909,2,0,P|375:160|369:180,1,41.25,2|2,3:2|0:0,0:0:0:0:
394,255,5090,6,0,P|428:274|477:270,1,82.5,0|2,1:0|3:2,0:0:0:0:
431,83,5454,2,0,P|395:63|354:65,1,82.5,8|2,1:0|3:2,0:0:0:0:
229,86,5818,86,0,P|215:139|208:194,1,110,6|0,1:0|1:0,0:0:0:0:
287,181,6181,1,8,1:0:0:0:
292,154,6303,1,2,3:2:0:0:
299,127,6424,1,2,3:2:0:0:
231,69,6545,22,0,B|193:61|165:86|171:93|143:118|106:111,1,137.5,6|0,1:2|1:0,0:0:0:0:
76,42,6909,1,8,1:0:0:0:
41,66,7030,1,2,3:2:0:0:
29,106,7151,1,2,3:2:0:0:
65,175,7272,86,0,P|73:202|78:229,2,55,2|2|2,1:2|1:2|1:2,0:0:0:0:
149,184,7636,2,0,P|154:211|162:237,2,55,8|2|2,1:0|1:2|1:2,0:0:0:0:
113,304,8000,2,0,P|166:317|218:336,1,110,6|0,1:2|1:0,0:0:0:0:
287,243,8363,2,0,P|260:250|234:260,1,55,8|2,1:0|1:2,0:0:0:0:
149,184,8727,102,0,P|152:136|106:85,1,103.125,6|2,1:0|1:2,0:0:0:0:
60,48,9030,1,2,3:2:0:0:
60,48,9090,2,0,P|110:50|151:20,1,103.125,8|2,1:0|1:2,0:0:0:0:
271,6,9454,38,0,P|261:39|245:118,1,103.125,6|2,1:2|3:2,0:0:0:0:
364,68,9818,70,0,P|391:64|419:58,2,34.375,8|2|2,1:0|3:2|3:2,0:0:0:0:
432,36,10000,2,0,P|459:40|487:46,2,34.375,2|2|2,1:2|1:2|1:2,0:0:0:0:
499,64,10181,38,0,P|484:113|471:163,1,103.125,6|2,1:2|1:2,0:0:0:0:
509,317,10545,2,0,P|492:287|460:275,1,68.75,8|2,1:0|3:2,0:0:0:0:
430,266,10727,2,0,P|398:277|365:270,1,68.75,2|2,1:2|3:2,0:0:0:0:
336,250,10909,2,0,P|350:200|363:150,1,103.125,2|2,1:2|1:2,0:0:0:0:
229,96,11272,70,0,P|233:112|238:129,2,34.375,6|0|0,1:2|1:0|1:0,0:0:0:0:
267,160,11454,2,0,P|262:176|257:193,2,34.375,0|2|2,1:0|3:2|3:2,0:0:0:0:
228,222,11636,54,0,P|258:249|247:343,1,137.5,6|2,1:0|1:2,0:0:0:0:
162,339,12000,2,0,P|146:330|131:323,1,34.375,8|2,1:0|3:2,0:0:0:0:
101,308,12151,2,0,P|65:323|30:325,1,68.75,2|2,1:2|1:2,0:0:0:0:
7,232,12363,102,0,P|49:235|114:165,1,137.5,2|0,1:2|1:0,0:0:0:0:
50,105,12727,2,0,P|40:129|34:154,1,51.5625,8|2,1:0|3:2,0:0:0:0:
34,154,12878,2,0,P|18:123|0:94,1,68.75,2|2,1:2|1:2,0:0:0:0:
48,16,13090,6,0,P|91:30|149:108,1,137.5,2|2,1:2|1:2,0:0:0:0:
222,78,13454,102,0,P|235:67|250:61,1,34.375,8|2,1:0|3:2,0:0:0:0:
272,49,13606,2,0,P|306:63|320:110,1,74.2500002832413,2|2,1:2|1:2,0:0:0:0:
380,156,13818,6,0,P|412:145|446:137,1,68.75,6|0,1:2|0:0,0:0:0:0:
469,117,13969,2,0,P|485:122|502:126,2,34.375,2|2|2,1:2|3:2|1:2,0:0:0:0:
407,55,14181,1,8,1:0:0:0:
495,199,14545,22,0,P|481:238|472:278,1,82.5,6|2,1:0|1:2,0:0:0:0:
357,235,14836,2,0,P|370:196|380:155,2,82.5,0|8|0,1:0|1:0|1:0,0:0:0:0:
337,323,15272,70,0,P|295:304|272:267,1,82.5,0|2,1:0|3:2,0:0:0:0:
197,243,15563,2,0,P|221:210|258:194,2,82.5,2|8|0,1:2|1:0|1:0,0:0:0:0:
126,337,16000,38,0,P|102:304|69:277,1,82.5,0|2,1:0|3:2,0:0:0:0:
2,220,16290,2,0,P|39:203|71:177,2,82.5,2|8|2,1:2|1:0|1:2,0:0:0:0:
113,109,16727,69,2,3:2:0:0:
113,109,16872,2,0,P|142:140|148:181,1,82.5,2|2,1:2|1:2,0:0:0:0:
240,133,17163,2,0,P|211:103|204:63,1,82.5,8|2,1:0|1:2,0:0:0:0:
268,4,17454,54,0,P|326:9|348:61,1,117.857142857143,6|2,1:0|3:2,0:0:0:0:
386,126,17766,1,2,3:2:0:0:
407,110,17870,1,2,1:2:0:0:
431,98,17974,1,8,1:0:0:0:
457,92,18077,1,2,3:2:0:0:
484,92,18181,54,0,P|463:148|450:205,1,117.857142857143,6|2,1:2|3:2,0:0:0:0:
383,253,18493,1,2,3:2:0:0:
392,276,18597,1,2,1:2:0:0:
399,298,18701,1,8,1:0:0:0:
405,321,18805,1,2,3:2:0:0:
410,345,18909,54,0,P|341:355|315:301,1,117.857142857143,6|2,1:2|1:2,0:0:0:0:
226,237,19324,2,0,P|212:262|202:289,1,58.9285714285714,2|8,1:2|1:0,0:0:0:0:
138,332,19532,2,0,P|127:304|113:278,1,58.9285714285714,2|2,3:2|1:2,0:0:0:0:
125,197,19740,54,0,P|91:243|24:254,1,117.857142857143,6|2,3:2|3:2,0:0:0:0:
4,242,20051,1,2,1:2:0:0:
4,242,20155,1,8,1:0:0:0:
4,88,20363,22,0,P|25:128|42:172,1,91.6666666666667,6|0,1:0|1:0,0:0:0:0:
125,197,20686,2,0,P|142:178|175:166,1,45.8333333333333,2|2,1:2|3:2,0:0:0:0:
187,132,20848,2,0,P|232:141|257:180,1,91.6666666666667,8|2,1:0|3:2,0:0:0:0:
318,221,21090,86,0,P|341:190|400:182,1,91.6666666666667,6|2,1:2|1:2,0:0:0:0:
511,259,21414,2,0,P|499:239|491:218,1,45.8333333333333,2|2,3:2|3:2,0:0:0:0:
472,199,21575,2,0,P|494:158|510:116,1,91.6666666666667,8|2,1:0|3:2,0:0:0:0:
463,57,21818,22,0,P|420:73|380:95,1,91.6666666666667,6|2,1:2|1:2,0:0:0:0:
253,159,22141,2,0,P|272:176|284:209,1,45.8333333333333,2|2,3:2|3:2,0:0:0:0:
318,221,22303,2,0,P|309:266|270:291,1,91.6666666666667,8|2,1:0|3:2,0:0:0:0:
210,335,22545,86,0,P|169:312|127:296,1,91.6666666666667,2|2,1:2|1:2,0:0:0:0:
49,334,22868,1,2,1:2:0:0:
49,334,23030,1,8,1:0:0:0:
82,223,23191,1,2,3:2:0:0:
60,240,23272,6,0,P|45:199|24:161,1,85.9375,6|2,1:0|1:2,0:0:0:0:
34,64,23636,102,0,P|58:72|80:85,1,51.5625,0|8,1:0|1:0,0:0:0:0:
172,126,23848,2,0,P|187:118|203:112,1,34.375,2|2,1:2|3:2,0:0:0:0:
228,81,24000,2,0,P|261:86|282:113,1,68.75,0|2,1:0|3:2,0:0:0:0:
348,210,24363,6,0,P|339:225|333:241,1,34.375,8|2,1:0|3:2,0:0:0:0:
310,262,24515,2,0,P|326:292|338:324,1,68.75,2|2,1:2|3:2,0:0:0:0:
280,377,24727,2,0,P|343:291|494:304,1,263.99999194336,2|6,1:2|1:2,0:0:0:0:
488,299,26181,86,0,P|478:258|464:219,1,82.5,6|2,1:0|3:2,0:0:0:0:
399,175,26545,1,2,1:2:0:0:
399,175,26636,1,2,3:2:0:0:
399,175,26727,1,2,3:2:0:0:
487,105,26909,6,0,P|462:72|423:59,1,82.5,6|2,1:2|3:2,0:0:0:0:
346,24,27272,101,2,1:2:0:0:
336,41,27362,1,2,0:0:0:0:
321,56,27453,1,2,0:0:0:0:
303,65,27544,1,2,0:0:0:0:
282,69,27636,6,0,P|243:55|203:45,1,82.5,6|0,1:2|0:0,0:0:0:0:
49,51,28000,102,0,P|57:69|64:89,1,41.25,2|2,1:2|0:0,0:0:0:0:
122,134,28181,2,0,P|113:152|106:172,1,41.25,2|2,0:0|0:0,0:0:0:0:
57,229,28363,6,0,P|93:277|92:309,1,82.5,6|2,1:2|3:2,0:0:0:0:
181,355,28727,2,0,P|189:315|218:286,1,82.5,2|2,3:2|3:2,0:0:0:0:
314,264,29090,102,0,P|354:273|392:287,1,82.5,6|2,1:2|1:2,0:0:0:0:
468,331,29454,1,2,1:2:0:0:
468,331,29636,1,2,1:2:0:0:
456,182,29818,6,0,P|415:191|377:205,1,82.5,2|2,1:2|1:2,0:0:0:0:
314,264,30182,1,2,1:2:0:0:
314,264,30364,1,2,1:2:0:0:
468,331,30545,101,6,1:2:0:0:
465,293,30636,1,0,1:0:0:0:
462,256,30727,1,0,1:0:0:0:
459,218,30818,1,0,1:0:0:0:
456,182,30909,6,0,P|476:186|495:192,3,41.25,0|0|0|0,1:0|1:0|1:0|1:0,0:0:0:0:
393,127,31272,2,0,P|333:137|299:205,1,123.750004720688,0|2,1:0|3:2,0:0:0:0:
248,355,32000,102,0,B|165:332|165:332|127:146|127:146|45:124|45:124,1,360.9375,6|0,1:0|0:0,0:0:0:0:
43,140,32727,2,0,L|67:146,4,25.78125,8|2|2|2|2,1:0|3:2|3:2|3:2|3:2,0:0:0:0:
151,63,33090,2,0,L|201:49,3,51.5625,2|2|2|2,3:2|3:2|3:2|3:2,0:0:0:0:
266,91,33454,5,2,1:2:0:0:
296,99,33545,1,2,3:2:0:0:
336,76,33636,101,2,3:2:0:0:
367,84,33727,1,2,3:2:0:0:
407,61,33818,6,0,B|368:94|368:94|384:143,1,103.125,2|2,3:2|3:2,0:0:0:0:
461,179,34181,2,0,B|421:168|421:168|352:191|352:191|313:181,1,154.6875,8|0,1:0|0:0,0:0:0:0:
238,163,34545,2,0,L|224:213,1,51.5625,2|0,3:0|0:0,0:0:0:0:
214,227,34727,2,0,L|228:277,1,51.5625,2|0,3:0|0:0,0:0:0:0:
276,377,34909,102,0,B|327:319|327:319|126:265|126:265|142:341,1,360.9375,6|0,1:2|0:0,0:0:0:0:
123,343,35636,2,0,L|117:317,4,25.78125,8|0|0|0|2,1:0|0:0|0:0|0:0|3:2,0:0:0:0:
40,264,36000,2,0,L|54:214,3,51.5625,2|2|2|2,3:2|3:2|3:2|3:2,0:0:0:0:
130,184,36364,5,2,1:2:0:0:
138,154,36455,1,2,3:2:0:0:
115,114,36546,101,2,3:2:0:0:
123,83,36637,1,2,3:2:0:0:
100,43,36728,6,0,B|148:60|148:60|182:21,1,103.125,2|2,3:2|3:2,0:0:0:0:
276,5,37090,2,0,B|325:26|325:26|341:122|341:122|391:145,1,206.25,8|2,3:1|3:2,0:0:0:0:
392,146,37818,102,0,P|379:179|371:213,1,70.1250013375282,6|2,1:2|3:2,0:0:0:0:
463,168,38181,2,0,P|449:201|441:235,1,70.1250013375282,0|2,1:0|3:2,0:0:0:0:
359,291,38545,6,0,B|319:288|298:256|306:251|285:219|246:216,1,140.250002675056,2|2,1:2|1:2,0:0:0:0:
246,216,39272,86,0,P|229:259|218:304,1,93.500001783371,6|2,1:2|3:2,0:0:0:0:
145,284,39636,2,0,P|156:238|172:194,1,93.500001783371,2|2,1:2|3:2,0:0:0:0:
226,136,40000,21,2,1:2:0:0:
177,113,40121,1,2,3:2:0:0:
126,128,40242,1,2,3:2:0:0:
96,172,40363,2,0,P|85:126|69:82,1,93.500001783371,2|2,1:2|3:2,0:0:0:0:
1,116,40727,102,0,P|13:149|22:184,1,70.1250013375282,6|2,1:2|3:2,0:0:0:0:
168,145,41090,2,0,P|159:110|147:77,1,70.1250013375282,2|2,1:2|3:2,0:0:0:0:
256,22,41454,2,0,P|299:24|331:114,1,140.250002675056,2|2,1:2|1:2,0:0:0:0:
342,111,42181,86,0,P|385:94|430:82,1,93.500001783371,6|0,1:2|3:2,0:0:0:0:
430,82,42484,1,2,3:2:0:0:
431,83,42545,2,0,P|480:109|486:162,1,93.500001783371,2|2,1:2|3:2,0:0:0:0:
426,190,42909,1,2,1:2:0:0:
497,315,43151,37,2,3:2:0:0:
497,315,43272,2,0,P|489:336|483:359,2,46.7500008916855,2|2|2,1:2|3:2|3:2,0:0:0:0:
423,276,43636,102,0,P|410:308|402:342,1,70.1250013375282,6|2,1:2|3:2,0:0:0:0:
350,252,44000,2,0,P|337:284|329:318,1,70.1250013375282,2|2,1:2|3:2,0:0:0:0:
224,352,44363,2,0,P|180:292|107:286,1,140.250002675056,2|2,1:2|1:2,0:0:0:0:
118,282,45090,54,0,P|107:307|99:334,1,56.1000010700226,6|2,1:2|1:2,0:0:0:0:
10,315,45381,2,0,P|20:340|28:367,2,56.1000010700226,2|2|2,3:2|3:2|3:2,0:0:0:0:
44,229,45818,70,0,P|61:199|95:185,1,56.1000010700226,2|2,1:2|3:2,0:0:0:0:
126,122,46109,2,0,P|96:105|82:71,2,56.1000010700226,2|2|2,3:2|3:2|3:2,0:0:0:0:
134,22,46545,102,0,P|167:33|199:47,1,70.1250013375282,6|2,1:2|3:2,0:0:0:0:
253,105,46909,2,0,P|285:91|318:79,1,70.1250013375282,2|2,1:2|3:2,0:0:0:0:
384,31,47272,2,0,P|430:31|456:128,1,140.250002675056,2|2,1:2|1:2,0:0:0:0:
464,240,48000,6,0,B|424:243|403:275|411:280|390:312|351:315,1,140.250002675056,0|0,1:1|1:1,0:0:0:0:
161,315,48727,2,0,B|122:312|101:280|109:275|88:243|48:240,1,140.250002675056,0|0,1:1|1:1,0:0:0:0:
77,359,49272,102,0,P|103:280|136:205,1,165,6|2,1:0|3:2,0:0:0:0:
213,177,49818,2,0,P|206:136|180:110,1,70.1250013375282,2|2,1:2|3:2,0:0:0:0:
117,39,50181,2,0,P|53:54|27:126,1,140.250002675056,2|2,1:2|1:2,0:0:0:0:
136,205,50909,70,0,P|143:223|150:242,2,40.0714293357304,2|2|2,1:2|3:2|3:2,0:0:0:0:
215,272,51220,2,0,P|221:253|229:234,2,40.0714293357304,2|2|2,3:2|3:2|3:2,0:0:0:0:
201,165,51532,1,2,3:2:0:0:
201,165,51636,2,0,P|219:157|238:150,2,40.0714293357304,2|2|2,1:2|3:2|3:2,0:0:0:0:
314,160,51948,1,2,3:2:0:0:
314,160,52051,2,0,P|306:178|299:197,2,40.0714293357304,2|2|2,3:2|3:2|3:2,0:0:0:0:
386,109,52363,38,0,P|428:126|444:157,1,70.1250013375282,6|2,1:2|3:2,0:0:0:0:
512,182,52727,2,0,P|518:226|499:256,1,70.1250013375282,2|2,1:2|3:2,0:0:0:0:
454,324,53090,2,0,P|382:292|300:273,1,140.250002675056,2|2,1:2|1:2,0:0:0:0:
212,239,53818,6,0,P|197:270|188:304,1,70.1250013375282,6|2,1:2|3:2,0:0:0:0:
115,334,54181,2,0,P|105:300|91:268,1,70.1250013375282,2|2,1:2|3:2,0:0:0:0:
24,224,54545,2,0,P|42:155|117:150,1,140.250002675056,2|2,1:2|1:2,0:0:0:0:
165,88,55090,6,0,P|240:121|318:146,1,165,6|0,1:0|0:0,0:0:0:0:
450,145,55575,1,2,3:2:0:0:
450,145,55666,2,0,P|411:168|394:221,1,93.500001783371,6|0,1:2|0:0,0:0:0:0:
369,238,56030,2,0,P|409:269|414:292,1,70.1250013375282,2|2,1:2|3:2,0:0:0:0:
363,348,56363,102,0,P|325:331|286:318,1,81.8125015604496,2|2,1:2|3:2,0:0:0:0:
208,269,56727,1,2,1:2:0:0:
208,269,56818,1,2,3:2:0:0:
208,269,56909,2,0,P|153:283|145:297,1,70.1250013375282,2|2,1:2|3:2,0:0:0:0:
65,362,57303,6,0,P|55:334|43:307,1,58.4375011146069,2|2,1:2|3:2,0:0:0:0:
23,286,57575,2,0,P|38:251|50:215,1,70.1250013375282,2|2,1:2|1:2,0:0:0:0:
6,119,58060,1,2,3:2:0:0:
6,119,58181,102,0,P|26:86|94:80,1,105.187502006292,6|2,1:2|3:2,0:0:0:0:
112,65,58545,2,0,P|140:96|196:101,1,93.500001783371,2|2,1:2|1:2,0:0:0:0:
310,76,58909,6,0,P|293:114|279:154,1,81.8125015604496,6|2,1:2|1:2,0:0:0:0:
323,215,59272,1,2,1:2:0:0:
256,192,59363,12,0,60909,3:2:0:0:
240,224,61090,85,2,3:2:0:0:
240,224,61272,1,2,3:0:0:0:
179,156,61454,2,0,B|109:137|109:137|80:154,1,105.187502006292,8|8,3:2|3:0,0:0:0:0:
55,159,61818,6,0,L|75:236,1,70.1250013375282,4|8,3:0|3:2,0:0:0:0:
106,318,62181,2,0,L|96:351,3,35.0625006687641,8|8|8|8,3:2|3:2|3:2|3:2,0:0:0:0:
112,299,62545,102,0,L|189:278,1,70.1250013375282,0|8,1:0|3:2,0:0:0:0:
277,229,62909,2,0,L|282:252,3,23.3750004458427,8|0|0|8,3:2|0:0|0:0|3:2,0:0:0:0:
294,159,63181,1,8,3:2:0:0:
294,159,63272,6,0,B|342:171|342:171|364:280|364:280|412:294,1,210.375004012585,6|0,1:2|0:0,0:0:0:0:
438,217,64000,38,0,P|427:178|422:139,1,79.1999975830079,6|2,1:0|3:2,0:0:0:0:
326,93,64290,1,2,3:2:0:0:
326,93,64363,1,8,1:0:0:0:
326,93,64436,2,0,P|336:131|341:170,1,79.1999975830079,2|2,3:2|3:2,0:0:0:0:
264,241,64727,70,0,P|234:214|195:209,1,79.1999975830079,2|2,1:2|3:2,0:0:0:0:
140,330,65018,1,2,3:2:0:0:
140,330,65090,1,8,1:0:0:0:
140,330,65163,2,0,P|177:318|201:287,1,79.1999975830079,2|2,3:2|3:2,0:0:0:0:
129,163,65454,38,0,P|92:178|58:198,1,79.1999975830079,2|2,1:2|3:2,0:0:0:0:
133,68,65745,1,2,3:2:0:0:
133,68,65818,1,8,1:0:0:0:
133,68,65890,2,0,P|166:88|203:103,1,79.1999975830079,2|2,3:2|3:2,0:0:0:0:
282,36,66181,70,0,P|288:75|298:113,1,79.1999975830079,2|2,1:2|3:2,0:0:0:0:
218,180,66471,1,2,3:2:0:0:
218,180,66544,1,8,1:0:0:0:
218,180,66617,2,0,P|214:140|203:102,1,79.1999975830079,2|2,3:2|3:2,0:0:0:0:
372,31,66909,37,6,1:2:0:0:
437,83,67054,1,2,3:2:0:0:
395,162,67200,1,2,3:2:0:0:
395,162,67272,1,8,1:0:0:0:
395,162,67345,2,0,P|359:200|367:245,1,79.1999975830079,2|2,3:2|3:2,0:0:0:0:
454,320,67636,69,2,1:2:0:0:
454,320,67781,1,2,3:2:0:0:
382,369,67927,1,2,3:2:0:0:
382,369,68000,1,8,1:0:0:0:
382,369,68072,2,0,P|343:358|304:353,1,79.1999975830079,2|2,3:2|3:2,0:0:0:0:
226,300,68363,38,0,P|189:315|155:335,1,79.1999975830079,2|2,1:2|3:2,0:0:0:0:
92,197,68654,1,2,3:2:0:0:
92,197,68727,1,8,1:0:0:0:
92,197,68799,2,0,P|125:217|162:232,1,79.1999975830079,2|2,3:2|3:2,0:0:0:0:
244,147,69090,70,0,P|227:83|196:69,1,79.1999975830079,2|2,1:2|3:2,0:0:0:0:
319,44,69381,1,2,3:2:0:0:
319,44,69454,1,8,1:0:0:0:
319,44,69527,2,0,P|318:82|343:113,1,79.1999975830079,2|2,3:2|3:2,0:0:0:0:
463,97,69818,54,0,P|441:133|425:172,1,84.8571402675084,6|2,1:0|3:2,0:0:0:0:
332,235,70129,2,0,P|325:222|318:210,2,28.2857134225028,8|2|2,1:0|3:2|3:2,0:0:0:0:
358,237,70285,2,0,P|394:256|408:295,1,84.8571402675084,2|2,1:2|3:2,0:0:0:0:
327,360,70545,54,0,P|290:337|251:322,1,84.8571402675084,6|2,1:2|3:2,0:0:0:0:
212,253,70857,2,0,P|200:257|187:267,2,28.2857134225028,8|2|2,1:0|3:2|3:2,0:0:0:0:
176,291,71012,2,0,P|135:283|109:251,1,84.8571402675084,2|2,1:2|3:2,0:0:0:0:
94,165,71272,54,0,P|78:125|56:89,1,84.8571402675084,6|2,1:2|3:2,0:0:0:0:
111,18,71584,2,0,P|118:30|124:43,2,28.2857134225028,8|2|2,1:0|3:2|3:2,0:0:0:0:
144,66,71740,2,0,P|172:31|216:23,1,84.8571402675084,2|8,1:2|3:1,0:0:0:0:
320,72,72000,54,0,P|297:108|282:147,1,84.8571402675084,6|2,1:2|3:2,0:0:0:0:
199,208,72312,2,0,P|186:213|173:221,2,28.2857134225028,2|8|2,3:2|1:0|3:2,0:0:0:0:
221,200,72468,2,0,P|254:225|264:265,1,84.8571402675084,2|2,1:2|3:2,0:0:0:0:
256,361,72727,54,0,P|292:338|331:323,1,84.8571402675084,6|2,1:2|3:2,0:0:0:0:
444,315,73038,2,0,P|451:327|456:340,2,28.2857134225028,8|2|2,1:0|3:2|3:2,0:0:0:0:
420,299,73194,2,0,P|417:257|450:222,1,84.8571402675084,2|2,1:2|3:2,0:0:0:0:
505,167,73454,54,0,P|482:130|467:91,1,84.8571402675084,6|2,1:2|3:2,0:0:0:0:
403,36,73766,2,0,P|396:48|390:61,2,28.2857134225028,8|2|2,1:0|3:2|3:2,0:0:0:0:
370,84,73922,2,0,P|342:49|298:41,1,84.8571402675084,2|2,1:2|3:2,0:0:0:0:
180,48,74181,54,0,P|202:84|218:123,1,84.8571402675084,6|2,1:2|3:2,0:0:0:0:
274,197,74492,2,0,P|281:184|288:172,2,28.2857134225028,2|8|2,3:2|1:0|3:2,0:0:0:0:
248,199,74648,2,0,P|214:227|212:275,1,84.8571402675084,2|8,1:2|3:1,0:0:0:0:
279,314,74909,54,0,P|195:275|35:231,1,254.571420802525,6|6,1:2|1:2,0:0:0:0:
39,231,75636,6,0,P|29:190|15:151,1,82.5,6|2,1:0|3:2,0:0:0:0:
87,83,75939,2,0,P|96:123|110:162,2,82.5,2|2|2,3:2|3:2|1:2,0:0:0:0:
180,25,76363,102,0,P|215:34|239:67,1,65.9999979858399,8|2,1:0|1:2,0:0:0:0:
299,109,76606,2,0,P|321:99|345:93,1,49.4999984893799,2|2,1:2|3:2,0:0:0:0:
376,67,76787,2,0,P|397:66|435:117,1,82.4999974822999,2|2,1:2|1:2,0:0:0:0:
505,151,77090,6,0,P|491:189|481:229,1,82.5,6|2,1:2|3:2,0:0:0:0:
478,313,77393,102,0,P|466:326|447:332,1,32.9999989929199,2|8,3:2|3:2,0:0:0:0:
417,358,77575,2,0,P|394:333|359:322,1,65.9999979858399,2|2,1:2|3:2,0:0:0:0:
273,267,77878,6,0,P|225:279|180:306,1,98.9999969787598,2|2,3:2|1:2,0:0:0:0:
120,350,78181,2,0,P|77:325|29:312,1,98.9999969787598,8|0,3:2|0:0,0:0:0:0:
88,200,78545,102,0,P|95:223|107:245,2,49.4999984893799,6|2|2,1:0|3:2|3:2,0:0:0:0:
27,137,78848,1,2,3:2:0:0:
27,137,78969,2,0,P|37:97|54:59,1,82.4999974822999,2|0,1:2|0:0,0:0:0:0:
122,13,79212,2,0,P|174:27|194:103,1,131.99999597168,2|2,3:2|1:2,0:0:0:0:
266,146,79636,2,0,P|305:125|332:117,2,65.9999979858399,8|2|2,3:2|1:2|3:2,0:0:0:0:
251,162,79939,2,0,P|243:176|238:191,1,32.9999989929199,2|6,3:2|1:2,0:0:0:0:
173,254,80121,5,2,3:2:0:0:
244,312,80242,2,0,P|267:296|296:294,1,49.4999984893799,2|2,3:2|3:2,0:0:0:0:
362,346,80424,1,2,1:2:0:0:
362,346,80484,1,2,1:2:0:0:
362,346,80545,102,0,P|372:306|389:268,1,82.4999974822999,6|0,1:2|0:0,0:0:0:0:
454,182,80909,2,0,P|470:248|499:312,1,131.99999597168,2|2,1:2|3:2,0:0:0:0:
366,179,81454,6,0,P|372:136|407:105,1,82.4999974822999,6|2,1:0|3:2,0:0:0:0:
447,44,81757,2,0,P|476:62|514:74,2,65.9999979858399,2|2|2,3:2|3:2|1:2,0:0:0:0:
351,0,82181,102,0,P|253:24|185:73,1,181.49999446106,8|2,1:0|1:2,0:0:0:0:
120,100,82606,2,0,P|104:89|89:87,3,32.9999989929199,2|2|2|2,1:2|3:2|1:2|3:2,0:0:0:0:
7,55,82909,6,0,P|70:89|78:160,1,148.49999546814,6|2,1:2|3:2,0:0:0:0:
10,248,83363,2,0,P|21:280|28:313,1,65.9999979858399,2|2,1:2|3:2,0:0:0:0:
111,359,83606,2,0,P|116:334|125:311,1,49.4999984893799,2|2,3:2|3:2,0:0:0:0:
163,250,83787,102,0,P|151:237|139:226,4,32.9999989929199,2|2|2|2|2,1:2|1:2|1:2|3:2|1:2,0:0:0:0:
256,330,84212,2,0,P|276:349|301:354,1,49.4999984893799,2|2,3:2|3:2,0:0:0:0:
311,365,84363,6,0,P|361:351|389:316,1,98.9999969787598,6|2,1:0|3:2,0:0:0:0:
493,340,84666,2,0,P|471:304|459:265,1,82.4999974822999,2|2,3:2|1:2,0:0:0:0:
449,242,84939,1,2,3:2:0:0:
393,177,85090,102,0,P|413:162|438:158,2,49.4999984893799,8|2|2,1:0|3:2|3:2,0:0:0:0:
328,215,85393,2,0,P|305:194|260:186,1,65.9999979858399,2|2,1:2|3:2,0:0:0:0:
204,227,85636,1,2,1:2:0:0:
204,227,85818,1,6,1:2:0:0:
256,192,85909,12,8,87030,3:2:0:0:
204,227,87272,70,0,P|150:211|130:178,1,82.5000031471254,6|2,1:2|3:2,0:0:0:0:
123,169,87636,1,8,3:2:0:0:
248,41,88000,38,0,P|212:95|197:159,1,123.750004720688,2|8,1:2|3:2,0:0:0:0:
275,266,88606,2,0,P|340:275|387:231,1,123.750004720688,2|2,1:2|3:2,0:0:0:0:
303,164,89090,70,0,P|313:192|319:221,1,41.2500015735627,8|0,3:2|0:0,0:0:0:0:
398,254,89333,1,2,1:2:0:0:
398,254,89454,2,0,P|415:194|437:136,1,123.750004720688,2|8,1:2|3:2,0:0:0:0:
275,43,90181,38,0,P|221:59|201:92,1,82.5000031471254,2|2,1:2|3:2,0:0:0:0:
203,100,90545,2,0,P|206:113|215:127,4,20.6250007867813,8|2|2|2|2,3:2|3:2|3:2|3:2|1:2,0:0:0:0:
245,193,90909,70,0,P|191:157|127:142,1,123.750004720688,2|8,1:2|3:2,0:0:0:0:
21,258,91515,2,0,P|24:318|70:357,1,123.750004720688,2|2,1:2|3:2,0:0:0:0:
150,344,92000,38,0,P|173:331|202:327,1,41.2500015735627,8|2,3:2|3:2,0:0:0:0:
260,289,92242,1,2,3:2:0:0:
260,289,92363,2,0,P|316:304|345:332,1,82.5000031471254,2|2,1:2|3:2,0:0:0:0:
407,361,92727,2,0,P|440:338|481:331,1,82.5000031471254,8|2,3:2|3:2,0:0:0:0:
512,215,93090,70,0,P|496:161|463:141,1,82.5000031471254,6|2,1:2|3:2,0:0:0:0:
454,134,93454,1,8,3:2:0:0:
373,37,93818,38,0,P|357:96|322:147,1,123.750004720688,2|8,1:2|3:2,0:0:0:0:
204,184,94424,2,0,P|166:136|106:131,1,123.750004720688,2|2,1:2|3:2,0:0:0:0:
59,230,94909,70,0,P|64:245|68:262,2,20.6250007867813,8|2|2,3:2|3:2|3:2,0:0:0:0:
90,326,95151,1,2,1:2:0:0:
90,326,95272,2,0,P|107:266|129:208,1,123.750004720688,2|8,1:2|3:2,0:0:0:0:
127,208,96000,38,0,P|147:213|167:221,1,41.2500015735627,2|2,1:2|3:2,0:0:0:0:
190,149,96242,1,2,3:2:0:0:
190,149,96363,2,0,P|170:141|150:136,2,41.2500015735627,8|2|2,3:2|3:2|3:2,0:0:0:0:
244,228,96727,70,0,P|249:208|256:188,1,41.2500015735627,2|2,1:2|0:0,0:0:0:0:
331,215,96969,1,2,0:0:0:0:
331,215,97090,2,0,P|323:235|318:255,2,41.2500015735627,8|2|2,3:2|0:0|0:0,0:0:0:0:
397,260,97454,37,2,1:2:0:0:
