osu file format v14

[General]
AudioFilename: audio.mp3
AudioLeadIn: 0
PreviewTime: 55958
Countdown: 0
SampleSet: Soft
StackLeniency: 0.7
Mode: 0
LetterboxInBreaks: 0
WidescreenStoryboard: 1

[Editor]
Bookmarks: 2666,13333,22833,23999,29333,34666,45333,50666,55999,77333,87999,109333,113333
DistanceSpacing: 1.1
BeatDivisor: 4
GridSize: 32
TimelineZoom: 2

[Metadata]
Title:Duo Cup
TitleUnicode:Duo Cup
Artist:Down
ArtistUnicode:Down
Creator:Down
Version:Another
Source:東方神霊廟 ~ Ten Desires.
Tags:東方project touhou project th13 shinreibyou old yuanxian 古きユアンシェン stage 4 boss theme seiga kaku 霍青娥 instrumental electronic metal ZUN Team Shanghai Alice Gengakudan 上海アリス幻樂団 DUO CUP: KOREA 2022
BeatmapID:3769336
BeatmapSetID:1765192

[Difficulty]
HPDrainRate:5
CircleSize:4
OverallDifficulty:8.8
ApproachRate:9
SliderMultiplier:1.9
SliderTickRate:1

[Events]
//Background and Video events
0,0,"bg.jpg",0,0
//Break Periods
//Storyboard Layer 0 (Background)
//Storyboard Layer 1 (Fail)
//Storyboard Layer 2 (Pass)
//Storyboard Layer 3 (Foreground)
//Storyboard Layer 4 (Overlay)
//Storyboard Sound Samples

[TimingPoints]
0,333.333333333333,4,2,1,60,1,0
23999,-133.333333333333,4,2,1,60,0,0
29333,-100,4,2,1,60,0,0
55999,-83.3333333333333,4,2,1,70,0,1
77333,-100,4,2,1,60,0,0
87999,-83.3333333333333,4,2,1,85,0,1
95999,-62.5,4,2,1,85,0,1
97333,-83.3333333333333,4,2,1,85,0,1
109333,-100,4,2,1,60,0,0
113333,-100,4,2,1,5,0,0

[Colours]
Combo1 : 255,36,41
Combo2 : 20,254,249
Combo3 : 202,255,216
Combo4 : 242,79,189

[HitObjects]
230,266,1333,5,2,0:2:0:0:
230,265,1666,1,2,0:2:0:0:
377,181,1999,5,0,1:2:0:0:
415,153,2083,1,0,1:2:0:0:
430,120,2166,1,8,0:2:0:0:
429,88,2249,1,8,0:2:0:0:
416,67,2333,1,0,1:2:0:0:
400,59,2416,1,8,0:2:0:0:
387,59,2499,1,0,1:2:0:0:
158,182,2666,38,0,P|91:174|70:82,1,142.5,14|0,0:2|0:2,0:0:0:0:
92,33,2999,1,10,0:2:0:0:
104,23,3083,1,0,0:2:0:0:
121,20,3166,1,0,0:2:0:0:
146,28,3249,1,0,0:2:0:0:
166,64,3333,5,2,1:2:0:0:
175,84,3416,1,0,0:2:0:0:
205,104,3499,1,0,0:2:0:0:
246,106,3583,1,0,0:2:0:0:
286,85,3666,1,2,0:2:0:0:
312,54,3749,1,0,0:2:0:0:
339,45,3833,1,0,0:2:0:0:
362,51,3916,1,0,0:2:0:0:
370,64,3999,38,0,L|390:140,3,47.5,2|0|2|0,0:2|0:2|0:2|0:2,0:0:0:0:
318,156,4333,2,0,L|259:136,3,47.5,10|0|0|0,0:2|0:2|0:2|0:2,0:0:0:0:
292,230,4666,5,2,1:2:0:0:
311,285,4749,1,0,0:2:0:0:
353,307,4833,1,0,0:2:0:0:
392,304,4916,1,0,0:2:0:0:
418,289,4999,1,2,0:2:0:0:
431,267,5083,1,0,0:2:0:0:
431,249,5166,1,0,0:2:0:0:
421,235,5249,1,0,0:2:0:0:
411,232,5333,38,0,P|358:260|282:325,1,142.5,10|0,0:2|0:2,0:0:0:0:
250,373,5666,1,10,0:2:0:0:
228,368,5749,1,0,0:2:0:0:
210,352,5833,1,0,0:2:0:0:
201,321,5916,1,0,0:2:0:0:
214,280,5999,5,2,1:2:0:0:
220,234,6083,1,0,0:2:0:0:
187,197,6166,1,0,0:2:0:0:
146,195,6249,1,0,0:2:0:0:
128,213,6333,1,2,0:2:0:0:
120,233,6416,1,0,0:2:0:0:
99,240,6499,1,0,0:2:0:0:
86,229,6583,1,0,0:2:0:0:
83,217,6666,38,0,P|58:215|15:207,3,47.5,2|0|2|0,0:2|0:2|0:2|0:2,0:0:0:0:
187,142,6999,2,0,B|192:131|192:131|167:83,3,47.5,10|0|0|0,0:2|0:2|0:2|0:2,0:0:0:0:
109,144,7333,5,2,1:2:0:0:
57,130,7416,1,0,0:2:0:0:
30,98,7499,1,8,0:2:0:0:
27,60,7583,1,0,0:2:0:0:
45,27,7666,1,2,0:2:0:0:
74,16,7749,1,0,0:2:0:0:
96,18,7833,1,0,0:2:0:0:
108,27,7916,1,0,0:2:0:0:
109,38,7999,38,0,P|94:90|84:148,1,95,14|0,0:2|0:2,0:0:0:0:
25,179,8249,1,0,0:2:0:0:
19,192,8333,1,10,0:2:0:0:
21,213,8416,1,0,0:2:0:0:
41,232,8499,1,0,0:2:0:0:
81,238,8583,1,0,0:2:0:0:
118,213,8666,6,0,P|166:196|242:174,1,95,2|0,1:2|0:2,0:0:0:0:
267,129,8916,1,0,0:2:0:0:
280,123,9000,1,10,0:2:0:0:
301,125,9083,1,0,0:2:0:0:
320,145,9166,1,0,0:2:0:0:
326,185,9250,1,0,0:2:0:0:
301,222,9333,38,0,P|284:270|262:346,1,95,10|0,0:2|0:2,0:0:0:0:
210,363,9583,1,0,0:2:0:0:
210,363,9666,2,0,B|165:351|165:351|147:283,1,95,10|2,0:2|0:2,0:0:0:0:
378,256,9999,5,2,1:2:0:0:
430,242,10082,1,0,0:2:0:0:
457,210,10165,1,0,0:2:0:0:
460,172,10249,1,0,0:2:0:0:
442,139,10332,1,10,0:2:0:0:
413,128,10415,1,0,0:2:0:0:
391,130,10499,1,0,0:2:0:0:
379,139,10582,1,0,0:2:0:0:
378,150,10665,38,0,P|393:202|403:260,1,95,10|0,0:2|0:2,0:0:0:0:
465,286,10916,1,0,0:2:0:0:
471,299,11000,1,10,0:2:0:0:
469,320,11083,1,0,0:2:0:0:
449,339,11166,1,0,0:2:0:0:
409,345,11250,1,0,0:2:0:0:
372,320,11333,6,0,P|324:303|248:281,1,95,2|0,1:2|0:2,0:0:0:0:
212,324,11583,1,0,0:2:0:0:
199,330,11667,1,10,0:2:0:0:
178,328,11750,1,0,0:2:0:0:
159,308,11833,1,0,0:2:0:0:
153,268,11917,1,0,0:2:0:0:
178,231,12000,38,0,P|195:183|217:107,1,95,10|2,0:2|0:2,0:0:0:0:
200,57,12249,1,0,0:2:0:0:
200,57,12333,2,0,P|148:75|68:91,1,95,10|0,0:2|0:2,0:0:0:0:
327,11,12666,1,2,1:2:0:0:
327,11,12749,1,0,0:2:0:0:
327,11,12833,2,0,B|353:23|353:23|367:60,1,47.5,8|0,0:2|0:2,0:0:0:0:
415,104,12999,1,2,1:2:0:0:
367,122,13083,1,0,1:2:0:0:
346,160,13166,1,8,0:3:0:0:
350,190,13249,1,8,0:3:0:0:
365,202,13333,6,0,P|338:267|313:349,1,142.5,14|0,0:2|0:2,0:0:0:0:
252,378,13666,2,0,B|232:368|232:368|230:310,1,47.5,10|0,0:2|0:2,0:0:0:0:
132,307,13833,2,0,P|141:273|150:235,1,47.5,10|0,0:2|0:2,0:0:0:0:
256,156,13999,38,0,P|227:167|192:179,1,47.5,2|0,1:2|0:2,0:0:0:0:
86,205,14166,2,0,B|71:192|71:192|72:133,1,47.5,10|0,0:2|0:2,0:0:0:0:
57,46,14333,1,2,0:2:0:0:
57,46,14416,1,0,0:2:0:0:
57,46,14499,2,0,P|91:58|122:63,1,47.5,10|0,0:2|0:2,0:0:0:0:
240,0,14666,6,0,P|229:37|211:116,1,95,10|2,0:2|0:2,0:0:0:0:
289,225,14999,1,10,0:2:0:0:
145,130,15166,1,2,0:2:0:0:
304,65,15333,2,0,P|344:58|436:27,1,95,2|0,1:2|0:2,0:0:0:0:
396,43,15583,1,2,0:2:0:0:
396,43,15666,1,8,0:2:0:0:
499,152,15833,1,2,0:2:0:0:
382,244,15999,38,0,B|325:229|325:229|291:129,1,142.5,10|0,0:2|0:2,0:0:0:0:
281,143,16333,2,0,P|289:112|295:78,1,47.5,10|0,0:2|0:2,0:0:0:0:
197,17,16499,2,0,B|186:35|186:35|207:80,1,47.5,10|0,0:2|0:2,0:0:0:0:
241,212,16666,2,0,P|215:208|167:200,1,47.5,2|0,1:2|0:2,0:0:0:0:
73,90,16833,2,0,P|108:81|128:75,1,47.5,10|0,0:2|0:2,0:0:0:0:
117,191,16999,1,2,0:2:0:0:
117,191,17083,1,0,0:2:0:0:
117,191,17166,2,0,P|111:213|99:254,1,47.5,10|0,0:2|0:2,0:0:0:0:
52,334,17333,6,0,P|103:316|155:303,1,95,8|0,0:2|0:0,0:0:0:0:
263,356,17666,1,8,0:2:0:0:
263,356,17833,1,0,0:2:0:0:
333,244,17999,2,0,P|348:192|362:151,1,95,2|8,1:2|0:2,0:0:0:0:
275,77,18333,1,2,1:2:0:0:
184,234,18499,1,0,1:2:0:0:
184,234,18583,1,0,1:2:0:0:
184,234,18666,38,0,P|97:208|73:143,1,142.5,14|0,0:2|0:2,0:0:0:0:
56,172,18999,2,0,L|70:95,1,47.5,10|0,0:2|0:2,0:0:0:0:
0,60,19166,2,0,P|28:53|53:43,1,47.5,10|0,0:2|0:2,0:0:0:0:
145,0,19333,2,0,B|168:8|168:8|184:47,1,47.5,2|0,1:2|0:2,0:0:0:0:
218,165,19499,2,0,P|224:142|233:120,1,47.5,10|0,0:2|0:2,0:0:0:0:
264,29,19666,1,2,0:2:0:0:
264,29,19749,1,0,0:2:0:0:
264,29,19833,2,0,P|293:21|330:11,1,47.5,10|0,0:2|0:2,0:0:0:0:
371,66,19999,6,0,P|422:88|465:101,1,95,10|2,0:2|0:2,0:0:0:0:
368,171,20333,1,10,0:2:0:0:
497,250,20499,1,2,0:2:0:0:
394,329,20666,2,0,P|402:277|422:221,1,95,2|0,1:2|0:2,0:0:0:0:
415,236,20916,1,2,0:2:0:0:
415,236,20999,1,8,0:2:0:0:
287,300,21166,1,2,0:2:0:0:
208,205,21333,38,0,P|192:153|160:51,1,142.5,10|0,0:2|0:2,0:0:0:0:
178,57,21666,2,0,P|202:64|228:75,1,47.5,10|0,0:2|0:2,0:0:0:0:
117,166,21833,2,0,B|94:155|94:155|81:112,1,47.5,10|0,0:2|0:2,0:0:0:0:
267,136,21999,2,0,P|302:121|342:106,1,47.5,2|0,1:2|0:2,0:0:0:0:
208,284,22166,2,0,P|185:279|155:266,1,47.5,10|0,0:2|0:2,0:0:0:0:
325,209,22333,1,2,0:2:0:0:
325,209,22416,1,0,0:2:0:0:
325,209,22499,2,0,B|343:222|343:222|344:264,1,47.5,10|0,0:2|0:2,0:0:0:0:
401,354,22666,6,0,P|412:296|431:228,1,95,8|0,0:2|0:0,0:0:0:0:
505,196,22999,1,8,0:2:0:0:
505,196,23166,1,0,0:2:0:0:
483,90,23333,2,0,P|436:81|349:63,1,95,2|8,1:2|0:2,0:0:0:0:
366,200,23666,1,2,1:2:0:0:
260,162,23833,1,0,1:2:0:0:
260,162,23916,1,0,1:2:0:0:
260,162,23999,37,14,0:2:0:0:
146,19,24166,2,0,P|161:89|177:183,1,142.500005435944,8|0,0:2|0:2,0:0:0:0:
124,298,24666,2,0,B|102:320|102:320|2:292,2,106.875004076958,2|2|2,1:2|0:2|0:2,0:0:0:0:
124,298,25333,5,10,0:2:0:0:
318,304,25499,2,0,P|266:321|182:360,1,142.500005435944,8|0,0:2|0:2,0:0:0:0:
82,231,25999,1,2,1:2:0:0:
147,120,26166,1,2,0:2:0:0:
66,107,26333,1,2,0:2:0:0:
157,200,26499,1,2,0:2:0:0:
207,69,26666,37,10,0:2:0:0:
319,196,26833,2,0,P|384:178|464:157,1,142.500005435944,8|0,0:2|0:2,0:0:0:0:
370,34,27333,2,0,P|325:25|254:11,2,106.875004076958,2|2|2,1:2|0:2|0:2,0:0:0:0:
370,34,27999,5,10,0:2:0:0:
257,141,28166,2,0,P|290:209|312:282,1,142.500005435944,8|0,0:2|0:2,0:0:0:0:
410,335,28666,1,10,0:2:0:0:
424,350,28749,1,8,0:2:0:0:
450,355,28833,1,10,0:2:0:0:
482,342,28916,1,8,0:2:0:0:
502,308,28999,1,2,1:2:0:0:
497,265,29083,1,0,1:2:0:0:
457,234,29166,1,10,0:3:0:0:
400,237,29249,1,8,0:3:0:0:
357,276,29333,38,0,P|307:289|224:313,1,95,14|0,0:2|1:2,0:0:0:0:
150,218,29666,2,0,B|131:194|131:194|156:111,1,95,8|0,0:2|1:2,0:0:0:0:
218,29,29999,2,0,P|274:48|314:64,1,95,10|0,0:2|1:2,0:0:0:0:
307,61,30249,1,2,1:2:0:0:
307,61,30333,1,8,0:2:0:0:
470,19,30499,1,2,1:2:0:0:
371,6,30666,6,0,P|391:46|423:110,1,95,10|0,0:2|1:2,0:0:0:0:
394,265,30999,1,8,0:2:0:0:
477,143,31166,1,0,1:2:0:0:
321,150,31333,37,10,0:2:0:0:
471,240,31499,1,0,1:2:0:0:
325,308,31666,5,8,0:2:0:0:
409,182,31833,1,0,1:2:0:0:
267,213,31999,38,0,P|253:177|222:113,1,95,10|0,0:2|1:2,0:0:0:0:
146,40,32333,1,8,0:2:0:0:
73,163,32499,1,0,1:2:0:0:
21,29,32666,5,10,0:2:0:0:
150,130,32833,1,0,1:2:0:0:
150,130,32916,1,2,1:2:0:0:
150,130,32999,2,0,P|202:105|257:81,1,95,8|2,0:2|1:2,0:0:0:0:
332,5,33333,38,0,P|372:16|411:71,1,95,10|0,0:2|1:2,0:0:0:0:
453,163,33666,2,0,P|412:172|354:191,1,95,8|0,0:2|1:2,0:0:0:0:
229,273,33999,1,10,0:2:0:0:
214,287,34082,1,0,0:2:0:0:
209,313,34166,1,0,1:2:0:0:
222,345,34249,1,0,0:2:0:0:
256,365,34332,1,10,0:2:0:0:
299,360,34416,1,0,0:2:0:0:
330,320,34499,1,0,1:2:0:0:
327,263,34582,1,0,0:2:0:0:
288,220,34666,6,0,P|275:170|251:87,1,95,14|0,0:2|0:2,0:0:0:0:
302,57,34916,1,0,0:2:0:0:
302,57,34999,2,0,P|270:49|230:38,1,47.5,10|0,0:2|0:2,0:0:0:0:
162,16,35166,2,0,P|138:31|127:72,1,47.5,8|0,0:2|0:2,0:0:0:0:
27,138,35333,37,2,1:2:0:0:
13,154,35416,1,0,0:2:0:0:
11,191,35499,1,8,0:2:0:0:
30,227,35583,1,0,0:2:0:0:
68,252,35666,1,2,0:2:0:0:
108,258,35749,1,0,0:2:0:0:
129,278,35833,1,8,0:2:0:0:
136,300,35916,1,0,0:2:0:0:
128,314,35999,6,0,L|108:381,3,47.5,10|0|0|0,0:2|0:2|0:2|0:2,0:0:0:0:
203,338,36333,2,0,P|260:323|329:312,1,95,10|0,0:2|0:2,0:0:0:0:
355,164,36666,2,0,P|302:150|264:103,1,95,2|0,1:2|0:2,0:0:0:0:
274,122,36916,1,0,0:2:0:0:
274,122,36999,1,10,0:2:0:0:
400,233,37166,1,0,0:2:0:0:
442,56,37333,38,0,P|384:70|321:92,1,95,10|0,0:2|0:2,0:0:0:0:
291,31,37583,1,0,0:2:0:0:
291,31,37666,2,0,P|263:23|227:10,1,47.5,10|0,0:2|0:2,0:0:0:0:
133,51,37833,2,0,B|125:69|125:69|139:113,1,47.5,8|0,0:2|0:2,0:0:0:0:
224,198,37999,5,2,1:2:0:0:
210,250,38082,1,0,0:2:0:0:
178,277,38165,1,8,0:2:0:0:
140,280,38249,1,0,0:2:0:0:
107,262,38332,1,2,0:2:0:0:
96,233,38415,1,0,0:2:0:0:
98,211,38499,1,8,0:2:0:0:
107,199,38582,1,0,0:2:0:0:
118,198,38665,38,0,P|170:213|228:223,1,95,10|0,0:2|0:2,0:0:0:0:
277,177,38916,1,0,0:2:0:0:
277,177,38999,2,0,B|294:189|294:189|293:245,3,47.5,10|0|0|0,0:2|0:2|0:2|0:2,0:0:0:0:
203,143,39333,5,2,1:2:0:0:
164,104,39416,1,0,0:2:0:0:
157,63,39499,1,8,0:2:0:0:
173,29,39583,1,0,0:2:0:0:
206,9,39666,1,2,1:2:0:0:
236,14,39749,1,0,0:2:0:0:
254,27,39833,1,0,1:2:0:0:
260,41,39916,1,0,1:2:0:0:
256,51,39999,38,0,P|217:88|179:133,1,95,14|0,0:2|0:2,0:0:0:0:
111,118,40249,1,0,0:2:0:0:
111,118,40333,2,0,B|106:135|106:135|137:186,1,47.5,10|0,0:2|0:2,0:0:0:0:
107,286,40499,2,0,P|136:280|173:273,1,47.5,8|0,0:2|0:2,0:0:0:0:
274,352,40666,5,2,1:2:0:0:
289,365,40749,1,0,0:2:0:0:
326,367,40832,1,8,0:2:0:0:
362,347,40916,1,0,0:2:0:0:
388,310,40999,1,2,0:2:0:0:
394,270,41082,1,0,0:2:0:0:
414,249,41166,1,8,0:2:0:0:
435,242,41249,1,0,0:2:0:0:
449,250,41332,38,0,L|516:270,3,47.5,10|0|0|0,0:2|0:2|0:2|0:2,0:0:0:0:
396,190,41666,2,0,P|381:146|360:73,1,95,10|0,0:2|0:2,0:0:0:0:
249,159,41999,2,0,P|201:147|180:90,1,95,2|0,1:2|0:2,0:0:0:0:
179,109,42249,1,0,0:2:0:0:
179,109,42333,1,10,0:2:0:0:
241,19,42499,1,0,0:2:0:0:
114,9,42666,6,0,P|77:20|15:42,1,95,10|0,0:2|0:2,0:0:0:0:
0,116,42916,1,0,0:2:0:0:
0,116,42999,2,0,P|3:139|40:169,1,47.5,10|0,0:2|0:2,0:0:0:0:
34,263,43166,2,0,P|66:241|99:228,1,47.5,8|0,0:2|0:2,0:0:0:0:
218,189,43333,37,2,1:2:0:0:
270,202,43416,1,0,0:2:0:0:
296,234,43499,1,8,0:2:0:0:
300,272,43583,1,0,0:2:0:0:
281,305,43666,1,2,0:2:0:0:
252,316,43749,1,0,0:2:0:0:
231,314,43833,1,8,0:2:0:0:
219,305,43916,1,0,0:2:0:0:
218,294,43999,6,0,P|233:242|243:184,1,95,10|0,0:2|0:2,0:0:0:0:
210,130,44249,1,0,0:2:0:0:
210,130,44333,2,0,P|249:119|274:112,3,47.5,10|0|0|0,0:2|0:2|0:2|0:2,0:0:0:0:
164,192,44666,38,0,B|140:182|140:182|114:100,1,95,2|8,1:2|0:2,0:0:0:0:
217,23,44999,1,2,1:2:0:0:
335,157,45166,1,8,0:3:0:0:
335,157,45249,1,8,0:3:0:0:
335,157,45333,6,0,P|346:107|365:40,1,95,14|0,0:2|1:2,0:0:0:0:
472,126,45666,2,0,B|502:148|502:148|493:222,1,95,8|0,0:2|1:2,0:0:0:0:
436,315,45999,2,0,P|394:327|320:350,1,95,10|0,0:2|1:2,0:0:0:0:
344,341,46249,1,2,1:2:0:0:
344,341,46333,1,8,0:2:0:0:
230,281,46499,1,2,1:2:0:0:
285,166,46666,38,0,P|341:176|386:183,1,95,10|0,0:2|1:2,0:0:0:0:
417,70,46999,1,8,0:2:0:0:
293,0,47166,1,0,1:2:0:0:
343,97,47333,5,10,0:2:0:0:
215,199,47499,1,2,1:2:0:0:
215,199,47583,1,0,1:2:0:0:
215,199,47666,2,0,B|187:180|187:180|165:109,1,95,10|2,0:2|1:2,0:0:0:0:
212,0,47999,38,0,P|168:22|109:42,1,95,14|0,0:2|1:2,0:0:0:0:
7,36,48333,2,0,P|-7:72|19:129,1,95,8|0,0:2|1:2,0:0:0:0:
109,199,48666,2,0,P|64:218|6:259,1,95,10|0,0:2|1:2,0:0:0:0:
25,242,48916,1,2,1:2:0:0:
25,242,48999,1,8,0:2:0:0:
95,108,49166,1,2,1:2:0:0:
188,223,49333,6,0,P|174:273|162:328,1,95,10|0,0:2|1:2,0:0:0:0:
299,361,49666,1,8,0:2:0:0:
355,241,49833,1,0,1:2:0:0:
251,299,49999,37,10,0:2:0:0:
388,363,50166,1,2,1:2:0:0:
388,363,50249,1,0,1:2:0:0:
388,363,50333,2,0,P|437:344|490:328,1,95,10|2,0:2|1:2,0:0:0:0:
512,210,50666,6,0,P|424:191|395:96,1,190,14|8,0:2|0:2,0:0:0:0:
448,48,51166,1,0,0:2:0:0:
309,7,51333,1,2,1:2:0:0:
267,148,51499,2,0,P|220:135|159:120,2,95,8|0|10,0:2|0:2|0:2,0:0:0:0:
393,104,51999,37,10,0:2:0:0:
472,229,52166,2,0,B|486:197|486:197|459:120,1,95,0|8,1:2|0:2,0:0:0:0:
443,42,52499,1,0,0:2:0:0:
400,197,52666,2,0,P|299:226|177:259,1,190,2|8,1:2|0:2,0:0:0:0:
83,205,53166,1,0,1:2:0:0:
83,205,53249,1,0,1:2:0:0:
83,205,53333,6,0,B|66:200|66:200|38:160,1,47.5,14|0,0:2|0:2,0:0:0:0:
12,42,53499,2,0,P|48:50|71:55,1,47.5,8|0,0:2|0:2,0:0:0:0:
125,138,53666,2,0,P|190:114|302:80,1,142.5,0|8,1:2|0:2,0:0:0:0:
288,20,53999,38,0,P|306:29|333:55,1,47.5,10|0,0:2|0:2,0:0:0:0:
454,29,54166,2,0,P|439:53|425:83,1,47.5,8|2,0:2|0:2,0:0:0:0:
259,91,54333,2,0,P|293:158|316:232,1,142.5,0|0,1:2|0:2,0:0:0:0:
375,269,54666,6,0,B|392:249|392:249|393:210,1,47.5,10|0,0:2|0:2,0:0:0:0:
365,114,54833,1,0,1:2:0:0:
313,221,54999,37,8,0:2:0:0:
465,188,55166,1,0,1:2:0:0:
481,176,55249,1,0,1:2:0:0:
483,154,55333,5,10,0:2:0:0:
467,134,55416,1,8,0:2:0:0:
436,125,55499,1,8,0:2:0:0:
403,137,55583,1,8,0:2:0:0:
380,172,55666,1,2,1:2:0:0:
344,200,55749,1,0,1:2:0:0:
296,194,55833,1,8,0:3:0:0:
262,154,55916,1,8,0:3:0:0:
277,98,55999,6,0,P|194:83|99:65,1,170.999994781494,6|0,0:1|0:2,0:0:0:0:
38,39,56333,2,0,B|26:54|26:54|44:117,1,56.9999982604981,2|0,1:1|0:2,0:0:0:0:
0,195,56499,2,0,P|40:184|68:178,1,56.9999982604981,2|8,0:2|0:2,0:0:0:0:
198,162,56666,6,0,P|178:212|165:288,1,113.999996520996,10|8,0:1|0:2,0:0:0:0:
105,326,56916,1,0,0:2:0:0:
105,326,56999,2,0,P|130:340|160:363,1,56.9999982604981,2|0,1:1|0:2,0:0:0:0:
305,368,57166,2,0,B|324:350|324:350|319:304,1,56.9999982604981,2|0,0:2|0:2,0:0:0:0:
279,137,57333,37,10,0:1:0:0:
431,230,57499,1,8,0:2:0:0:
309,208,57666,5,2,1:1:0:0:
464,129,57833,1,0,0:2:0:0:
464,129,57916,1,0,0:2:0:0:
464,129,57999,2,0,P|444:66|433:13,1,113.999996520996,10|8,0:1|0:2,0:0:0:0:
302,42,58333,1,2,1:1:0:0:
273,23,58416,2,0,P|220:46|200:102,1,113.999996520996,0|0,0:2|0:2,0:0:0:0:
265,144,58666,38,0,P|159:114|83:101,1,170.999994781494,10|0,0:1|0:2,0:0:0:0:
36,149,58999,2,0,B|20:167|20:167|43:225,1,56.9999982604981,0|0,1:2|0:2,0:0:0:0:
59,307,59166,1,0,0:2:0:0:
59,307,59249,1,8,0:2:0:0:
59,307,59333,2,0,P|123:293|188:282,1,113.999996520996,8|8,0:2|0:2,0:0:0:0:
306,350,59666,1,0,1:2:0:0:
229,230,59833,1,2,0:2:0:0:
424,268,59999,6,0,P|433:210|447:143,1,113.999996520996,10|10,0:2|0:2,0:0:0:0:
512,66,60333,1,2,1:2:0:0:
366,157,60499,1,2,0:2:0:0:
348,172,60583,1,8,0:2:0:0:
314,172,60666,1,10,0:2:0:0:
274,154,60749,1,0,1:2:0:0:
259,102,60833,1,8,0:2:0:0:
329,0,60999,2,0,P|384:13|455:28,1,113.999996520996,0|10,1:2|0:2,0:0:0:0:
512,66,61249,1,8,0:2:0:0:
512,66,61333,38,0,P|478:137|444:252,1,170.999994781494,14|0,0:1|0:2,0:0:0:0:
504,283,61666,2,0,P|481:293|435:311,1,56.9999982604981,2|0,1:1|0:2,0:0:0:0:
331,268,61833,2,0,B|313:260|313:260|298:203,1,56.9999982604981,2|8,0:2|0:2,0:0:0:0:
356,122,61999,6,0,P|296:106|240:88,1,113.999996520996,10|8,0:1|0:2,0:0:0:0:
203,26,62249,1,0,0:2:0:0:
203,26,62333,2,0,P|186:34|143:56,1,56.9999982604981,2|0,1:1|0:2,0:0:0:0:
74,116,62499,2,0,B|61:134|61:134|75:181,1,56.9999982604981,2|0,0:2|0:2,0:0:0:0:
209,263,62666,37,10,0:1:0:0:
148,146,62833,1,8,0:2:0:0:
267,201,62999,5,2,1:1:0:0:
125,279,63166,1,0,0:2:0:0:
125,279,63249,1,8,0:2:0:0:
125,279,63333,2,0,P|147:304|200:399,1,113.999996520996,10|8,0:1|0:2,0:0:0:0:
313,329,63666,1,2,1:1:0:0:
342,348,63749,2,0,P|395:325|415:269,1,113.999996520996,8|0,0:2|0:2,0:0:0:0:
495,260,63999,38,0,P|410:223|394:112,1,170.999994781494,10|0,0:1|0:2,0:0:0:0:
425,89,64333,2,0,P|464:77|505:66,1,56.9999982604981,0|0,1:2|0:2,0:0:0:0:
282,11,64499,1,0,0:2:0:0:
282,11,64583,1,8,0:2:0:0:
282,11,64666,2,0,B|243:38|243:38|260:108,1,113.999996520996,8|8,0:2|0:2,0:0:0:0:
324,236,64999,2,0,P|262:221|182:200,1,113.999996520996,0|0,1:2|0:2,0:0:0:0:
46,121,65333,5,10,0:2:0:0:
151,14,65499,1,8,0:2:0:0:
10,23,65666,37,2,1:2:0:0:
128,142,65833,1,0,0:2:0:0:
0,222,65999,5,10,0:2:0:0:
0,222,66083,1,0,1:2:0:0:
0,222,66166,2,0,P|34:235|61:244,1,56.9999982604981,10|0,0:2|0:2,0:0:0:0:
134,336,66333,1,2,1:2:0:0:
152,351,66417,1,0,0:2:0:0:
186,351,66500,1,10,0:2:0:0:
226,333,66583,1,8,0:2:0:0:
241,281,66666,38,0,P|225:193|207:89,1,170.999994781494,14|0,0:1|0:2,0:0:0:0:
150,64,66999,2,0,B|165:47|165:47|204:34,1,56.9999982604981,2|0,1:1|0:2,0:0:0:0:
310,3,67166,2,0,P|343:19|379:30,1,56.9999982604981,2|8,0:2|0:2,0:0:0:0:
457,83,67333,6,0,P|412:94|317:115,1,113.999996520996,10|8,0:1|0:2,0:0:0:0:
310,180,67583,1,0,0:2:0:0:
310,180,67666,2,0,P|316:208|327:261,1,56.9999982604981,2|0,1:1|0:2,0:0:0:0:
427,320,67833,2,0,B|449:309|449:309|461:249,1,56.9999982604981,2|0,0:2|0:2,0:0:0:0:
512,138,67999,37,10,0:1:0:0:
404,16,68166,1,8,0:2:0:0:
512,0,68333,5,2,1:1:0:0:
435,116,68499,1,0,0:2:0:0:
435,116,68583,1,8,0:2:0:0:
435,116,68666,2,0,P|383:128|312:158,1,113.999996520996,10|8,0:1|0:2,0:0:0:0:
286,281,68999,1,2,1:1:0:0:
257,300,69082,2,0,P|204:277|184:221,1,113.999996520996,8|0,0:2|0:2,0:0:0:0:
259,195,69333,38,0,P|176:177|72:122,1,170.999994781494,10|0,0:1|0:2,0:0:0:0:
27,177,69666,2,0,P|16:146|-1:103,1,56.9999982604981,0|0,1:2|0:2,0:0:0:0:
120,7,69833,1,0,0:2:0:0:
120,7,69916,1,8,0:2:0:0:
120,7,69999,2,0,P|175:19|205:78,1,113.999996520996,8|8,0:2|0:2,0:0:0:0:
310,139,70333,1,0,1:2:0:0:
200,218,70499,1,2,0:2:0:0:
258,337,70666,6,0,P|314:316|387:295,1,113.999996520996,10|10,0:2|0:2,0:0:0:0:
421,211,70999,1,2,1:2:0:0:
310,139,71166,1,2,0:2:0:0:
292,124,71250,1,8,0:2:0:0:
258,124,71333,1,10,0:2:0:0:
221,145,71416,1,0,1:2:0:0:
203,194,71500,1,8,0:2:0:0:
75,131,71666,2,0,P|85:72|95:-1,1,113.999996520996,0|10,1:2|0:2,0:0:0:0:
6,49,71916,1,8,0:2:0:0:
6,49,71999,38,0,P|125:83|184:103,1,170.999994781494,14|0,0:1|0:2,0:0:0:0:
235,56,72333,2,0,P|265:48|302:36,1,56.9999982604981,2|0,1:1|0:2,0:0:0:0:
375,102,72499,2,0,B|395:119|395:119|402:173,1,56.9999982604981,2|8,0:2|0:2,0:0:0:0:
350,259,72666,2,0,P|291:246|233:235,1,113.999996520996,10|8,0:1|0:2,0:0:0:0:
182,294,72916,1,0,0:2:0:0:
182,294,72999,2,0,B|164:287|164:287|154:234,1,56.9999982604981,2|0,1:1|0:2,0:0:0:0:
56,179,73166,2,0,P|95:167|138:153,1,56.9999982604981,2|0,0:2|0:2,0:0:0:0:
243,115,73333,5,10,0:1:0:0:
95,51,73499,1,8,0:2:0:0:
190,172,73666,37,2,1:1:0:0:
168,7,73833,1,0,0:2:0:0:
168,7,73916,1,8,0:2:0:0:
168,7,73999,2,0,P|223:20|294:34,1,113.999996520996,10|8,0:1|0:2,0:0:0:0:
351,156,74333,1,2,1:1:0:0:
380,175,74416,2,0,P|433:152|453:96,1,113.999996520996,8|0,0:2|0:2,0:0:0:0:
474,24,74666,6,0,P|488:95|516:227,1,170.999994781494,10|0,0:1|0:2,0:0:0:0:
490,266,74999,2,0,P|461:253|423:234,1,56.9999982604981,0|0,1:2|0:2,0:0:0:0:
351,156,75166,1,0,0:2:0:0:
351,156,75249,1,8,0:2:0:0:
351,156,75333,2,0,P|302:174|212:202,1,113.999996520996,8|8,0:2|0:2,0:0:0:0:
167,289,75666,2,0,P|107:273|90:211,1,113.999996520996,0|0,1:2|0:2,0:0:0:0:
67,39,75999,37,10,0:2:0:0:
179,143,76166,1,10,0:2:0:0:
37,114,76333,5,2,1:2:0:0:
186,13,76499,2,0,P|197:52|207:83,1,56.9999982604981,10|8,0:2|0:2,0:0:0:0:
252,176,76666,37,10,0:2:0:0:
296,206,76749,1,2,1:2:0:0:
338,206,76832,1,10,0:3:0:0:
369,184,76916,1,10,0:3:0:0:
382,149,76999,1,10,0:2:0:0:
372,120,77082,1,10,0:2:0:0:
356,104,77166,1,2,1:2:0:0:
342,101,77249,1,10,0:3:0:0:
333,107,77333,22,0,P|279:127|193:196,1,142.5,14|0,0:2|0:2,0:0:0:0:
157,230,77666,1,10,0:2:0:0:
112,225,77749,1,0,0:2:0:0:
92,199,77833,1,0,0:2:0:0:
95,173,77916,1,0,0:2:0:0:
110,165,77999,5,10,0:2:0:0:
122,151,78083,1,0,0:2:0:0:
123,125,78166,1,0,0:2:0:0:
103,103,78249,1,0,0:2:0:0:
70,85,78333,1,10,0:2:0:0:
54,48,78416,1,0,0:2:0:0:
83,8,78499,1,0,0:2:0:0:
141,5,78583,1,0,0:2:0:0:
182,46,78666,38,0,P|191:78|199:106,3,47.5,10|0|0|0,0:2|0:2|0:2|0:2,0:0:0:0:
240,152,78999,2,0,P|231:184|223:212,3,47.5,10|0|0|0,0:2|0:2|0:2|0:2,0:0:0:0:
317,158,79333,5,10,0:2:0:0:
369,144,79416,1,0,0:2:0:0:
396,112,79499,1,0,0:2:0:0:
399,74,79583,1,0,0:2:0:0:
381,41,79666,1,10,0:2:0:0:
352,30,79749,1,0,0:2:0:0:
330,32,79833,1,0,0:2:0:0:
318,41,79916,1,0,0:2:0:0:
317,52,79999,38,0,P|343:107|378:205,1,142.5,10|0,0:2|0:2,0:0:0:0:
439,226,80333,1,10,0:2:0:0:
434,271,80416,1,0,0:2:0:0:
408,291,80500,1,0,0:2:0:0:
382,288,80583,1,0,0:2:0:0:
374,273,80666,5,10,0:2:0:0:
360,261,80750,1,0,0:2:0:0:
334,260,80833,1,0,0:2:0:0:
312,280,80916,1,0,0:2:0:0:
294,313,81000,1,10,0:2:0:0:
257,329,81083,1,0,0:2:0:0:
217,300,81166,1,0,0:2:0:0:
214,242,81250,1,0,0:2:0:0:
255,201,81333,38,0,P|287:192|315:184,3,47.5,10|0|0|0,0:2|0:2|0:2|0:2,0:0:0:0:
188,157,81666,2,0,B|168:151|168:151|152:116,3,47.5,10|0|0|0,0:2|0:2|0:2|0:2,0:0:0:0:
227,91,81999,6,0,P|263:83|293:74,1,47.5,10|0,0:2|0:2,0:0:0:0:
361,10,82166,2,0,P|383:20|437:45,1,47.5,8|0,0:2|0:2,0:0:0:0:
463,119,82333,1,2,1:2:0:0:
415,137,82417,1,0,1:2:0:0:
394,175,82500,1,0,1:2:0:0:
398,205,82583,1,0,1:2:0:0:
413,217,82667,38,0,P|391:284|371:338,1,95,14|0,0:2|0:2,0:0:0:0:
312,348,82916,1,0,0:2:0:0:
305,360,83000,1,10,0:2:0:0:
288,372,83083,1,0,0:2:0:0:
260,369,83166,1,0,0:2:0:0:
230,342,83250,1,0,0:2:0:0:
225,298,83333,6,0,P|179:289|114:277,1,95,2|0,1:2|0:2,0:0:0:0:
86,217,83583,1,0,0:2:0:0:
77,205,83667,1,10,0:2:0:0:
76,184,83750,1,0,0:2:0:0:
91,162,83833,1,8,0:2:0:0:
130,149,83917,1,0,0:2:0:0:
171,167,84000,38,0,P|189:117|208:73,1,95,10|0,0:2|1:2,0:0:0:0:
167,12,84249,1,0,0:2:0:0:
167,12,84333,2,0,P|133:22|56:42,1,95,2|8,0:2|0:2,0:0:0:0:
60,201,84666,5,2,1:2:0:0:
74,253,84749,1,0,0:0:0:0:
106,280,84832,1,0,0:2:0:0:
144,283,84916,1,0,0:2:0:0:
177,265,84999,1,10,0:2:0:0:
188,236,85082,1,0,0:2:0:0:
186,214,85166,1,8,0:2:0:0:
177,201,85249,1,8,0:2:0:0:
166,201,85332,38,0,P|114:216|62:240,1,95,10|10,0:2|0:2,0:0:0:0:
14,279,85583,1,0,0:2:0:0:
14,279,85666,2,0,P|33:297|65:314,1,47.5,2|0,1:2|0:2,0:0:0:0:
166,378,85833,2,0,P|169:357|183:294,1,47.5,8|0,0:2|0:2,0:0:0:0:
258,218,85999,6,0,P|234:163|212:98,1,95,10|10,0:2|0:2,0:0:0:0:
218,49,86249,1,0,0:2:0:0:
218,49,86333,2,0,P|249:58|287:68,1,47.5,2|0,1:2|0:2,0:0:0:0:
328,175,86499,2,0,B|345:163|345:163|354:129,1,47.5,8|8,0:2|0:2,0:0:0:0:
334,27,86666,38,0,P|385:15|465:-4,1,95,10|10,0:2|0:2,0:0:0:0:
512,104,86999,2,0,P|491:146|469:213,1,95,2|8,1:2|0:2,0:0:0:0:
421,260,87249,1,8,0:2:0:0:
435,258,87333,5,2,1:2:0:0:
444,278,87416,1,0,1:2:0:0:
430,301,87499,1,8,0:2:0:0:
402,315,87583,1,8,0:2:0:0:
365,314,87666,1,2,1:2:0:0:
330,285,87749,1,0,1:2:0:0:
318,237,87833,1,8,0:3:0:0:
346,188,87916,1,8,0:3:0:0:
404,160,87999,6,0,P|316:142|256:128,1,113.999996520996,14|0,0:1|1:2,0:0:0:0:
359,33,88333,1,10,0:1:0:0:
359,33,88416,1,8,0:2:0:0:
359,33,88499,1,2,1:2:0:0:
209,165,88666,5,10,0:1:0:0:
199,187,88749,1,8,0:2:0:0:
168,200,88833,1,0,1:2:0:0:
126,196,88916,1,0,1:2:0:0:
97,160,88999,1,10,0:1:0:0:
104,110,89083,1,8,0:2:0:0:
154,78,89166,1,2,1:2:0:0:
265,239,89333,38,0,P|275:271|288:309,2,56.9999982604981,10|8|0,0:1|0:2|1:2,0:0:0:0:
186,355,89666,1,10,0:1:0:0:
186,355,89749,1,8,0:2:0:0:
186,355,89833,1,0,1:2:0:0:
353,240,89999,5,10,0:1:0:0:
363,218,90082,1,8,0:2:0:0:
394,205,90166,1,0,1:2:0:0:
436,209,90249,1,0,1:2:0:0:
465,245,90332,1,10,0:1:0:0:
458,295,90416,1,8,0:2:0:0:
408,327,90499,1,0,1:2:0:0:
265,239,90666,38,0,P|251:183|226:127,1,113.999996520996,14|0,0:1|1:2,0:0:0:0:
328,4,90999,2,0,L|395:20,2,56.9999982604981,8|8|0,0:2|0:2|1:2,0:0:0:0:
190,63,91333,5,8,0:2:0:0:
169,52,91416,1,8,0:2:0:0:
138,56,91499,1,0,1:2:0:0:
115,83,91583,1,0,1:2:0:0:
105,117,91666,1,8,0:2:0:0:
66,137,91749,1,8,0:2:0:0:
13,118,91833,1,2,1:2:0:0:
36,301,91999,37,10,0:2:0:0:
163,174,92166,1,2,1:2:0:0:
2,230,92333,5,10,0:2:0:0:
145,308,92499,1,2,1:2:0:0:
48,116,92666,37,10,0:2:0:0:
69,127,92749,1,8,0:2:0:0:
100,123,92832,1,0,1:2:0:0:
123,96,92916,1,0,1:2:0:0:
133,62,92999,1,8,0:2:0:0:
172,42,93082,1,8,0:2:0:0:
225,61,93166,1,2,1:2:0:0:
308,187,93333,6,0,P|292:241|281:310,1,113.999996520996,14|0,0:1|1:2,0:0:0:0:
393,362,93666,1,10,0:1:0:0:
393,362,93749,1,8,0:2:0:0:
393,362,93833,1,2,1:2:0:0:
212,213,93999,37,10,0:1:0:0:
202,191,94082,1,8,0:2:0:0:
171,178,94166,1,0,1:2:0:0:
129,182,94249,1,0,1:2:0:0:
100,218,94332,1,10,0:1:0:0:
107,268,94416,1,8,0:2:0:0:
157,300,94499,1,2,1:2:0:0:
308,187,94666,6,0,P|349:177|389:169,1,56.9999982604981,10|8,0:1|0:2,0:0:0:0:
494,110,94833,2,0,P|463:103|402:88,1,56.9999982604981,2|0,1:2|0:2,0:0:0:0:
435,231,94999,1,10,0:1:0:0:
435,231,95083,1,8,0:2:0:0:
435,231,95166,1,2,1:2:0:0:
311,331,95333,37,10,0:1:0:0:
301,353,95416,1,8,0:2:0:0:
270,366,95500,1,2,1:2:0:0:
228,362,95583,1,0,1:2:0:0:
199,326,95666,1,10,0:1:0:0:
206,276,95750,1,8,0:2:0:0:
256,244,95833,1,2,1:2:0:0:
68,238,95999,6,0,B|40:221|40:221|84:86,1,152,6|8,1:1|0:2,0:0:0:0:
0,83,96249,2,0,P|74:74|190:54,1,152,2|8,1:1|0:2,0:0:0:0:
218,27,96499,2,0,B|253:10|253:10|210:43,1,76,2|0,1:1|0:2,0:0:0:0:
195,183,96666,37,6,1:1:0:0:
195,183,96749,2,0,P|209:146|216:91,1,76,0|8,1:2|0:2,0:0:0:0:
323,47,96916,2,0,B|397:74|397:74|419:115|377:154,1,152,2|8,1:1|0:2,0:0:0:0:
417,214,97166,2,0,P|380:223|316:244,1,76,2|0,1:1|0:2,0:0:0:0:
295,327,97333,5,14,0:1:0:0:
277,348,97416,1,0,0:0:0:0:
249,351,97499,1,0,1:2:0:0:
224,330,97583,1,0,0:2:0:0:
212,298,97666,1,8,0:2:0:0:
180,268,97749,1,8,0:2:0:0:
134,275,97833,1,0,1:2:0:0:
110,313,97916,1,0,0:2:0:0:
122,361,97999,38,0,L|55:376,3,56.9999982604981,8|8|2|0,0:2|0:2|1:2|1:2,0:0:0:0:
202,371,98333,1,10,0:2:0:0:
238,332,98416,1,8,0:2:0:0:
244,286,98499,1,10,0:3:0:0:
223,258,98583,1,8,0:3:0:0:
198,251,98666,6,0,P|185:199|157:107,1,113.999996520996,14|0,0:1|1:2,0:0:0:0:
298,23,98999,1,10,0:1:0:0:
298,23,99083,1,8,0:2:0:0:
298,23,99166,1,2,1:2:0:0:
267,190,99333,37,10,0:1:0:0:
277,212,99416,1,8,0:2:0:0:
308,225,99500,1,0,1:2:0:0:
350,221,99583,1,0,1:2:0:0:
379,185,99666,1,10,0:1:0:0:
372,135,99750,1,8,0:2:0:0:
322,103,99833,1,2,1:2:0:0:
438,9,99999,6,0,P|490:25|529:30,2,56.9999982604981,10|8|0,0:1|0:2|1:2,0:0:0:0:
512,141,100333,1,10,0:1:0:0:
512,141,100416,1,8,0:2:0:0:
512,141,100499,1,2,1:2:0:0:
361,48,100666,37,10,0:1:0:0:
351,26,100749,1,8,0:2:0:0:
320,13,100833,1,0,1:2:0:0:
278,17,100916,1,0,1:2:0:0:
249,53,100999,1,10,0:1:0:0:
256,103,101083,1,8,0:2:0:0:
306,135,101166,1,2,1:2:0:0:
214,233,101333,6,0,P|162:220|75:199,1,113.999996520996,14|2,0:2|1:2,0:0:0:0:
370,302,101666,2,0,L|433:292,2,56.9999982604981,10|8|2,0:2|0:2|1:2,0:0:0:0:
233,377,101999,37,10,0:2:0:0:
222,356,102082,1,8,0:2:0:0:
226,325,102165,1,2,1:2:0:0:
253,301,102249,1,0,1:2:0:0:
287,292,102332,1,10,0:2:0:0:
307,253,102415,1,8,0:2:0:0:
288,200,102499,1,2,1:2:0:0:
359,59,102666,6,0,P|329:64|216:98,1,113.999996520996,10|0,0:2|1:2,0:0:0:0:
190,141,102916,1,2,0:2:0:0:
190,141,102999,2,0,B|162:132|162:132|175:33,1,113.999996520996,8|2,0:2|1:2,0:0:0:0:
12,37,103333,37,10,0:2:0:0:
1,58,103416,1,8,0:2:0:0:
5,89,103499,1,0,1:2:0:0:
32,113,103583,1,0,1:2:0:0:
66,122,103666,1,8,0:2:0:0:
86,161,103749,1,8,0:2:0:0:
67,214,103833,1,2,1:2:0:0:
0,360,103999,6,0,P|55:340|123:326,1,113.999996520996,14|8,0:1|0:2,0:0:0:0:
155,265,104249,1,0,0:2:0:0:
155,265,104333,2,0,P|191:274|240:292,1,56.9999982604981,2|0,1:1|0:2,0:0:0:0:
288,381,104499,2,0,B|306:370|306:370|328:321,1,56.9999982604981,0|8,0:2|0:2,0:0:0:0:
441,297,104666,38,0,P|417:236|398:167,1,113.999996520996,10|10,0:1|0:2,0:0:0:0:
441,33,104999,1,2,1:1:0:0:
412,14,105082,2,0,P|359:37|339:93,1,113.999996520996,8|0,0:2|0:2,0:0:0:0:
330,163,105333,6,0,P|271:142|180:119,1,113.999996520996,10|10,0:1|0:2,0:0:0:0:
164,183,105583,1,0,0:2:0:0:
164,183,105666,2,0,B|141:164|141:164|142:99,1,56.9999982604981,2|8,1:1|0:2,0:0:0:0:
215,14,105833,2,0,P|176:28|135:46,1,56.9999982604981,2|0,0:2|0:2,0:0:0:0:
10,12,105999,1,10,0:1:0:0:
10,12,106083,1,0,1:2:0:0:
10,12,106166,2,0,P|45:61|57:92,1,56.9999982604981,10|0,0:2|0:2,0:0:0:0:
39,190,106333,1,2,1:1:0:0:
68,209,106416,2,0,P|121:186|141:130,1,113.999996520996,8|0,0:2|0:2,0:0:0:0:
210,97,106666,38,0,P|273:112|354:126,1,113.999996520996,12|8,0:2|0:2,0:0:0:0:
446,243,106999,2,0,P|397:277|377:362,1,113.999996520996,0|0,1:2|0:2,0:0:0:0:
304,366,107249,1,8,0:2:0:0:
304,366,107333,2,0,P|295:328|281:272,1,56.9999982604981,8|0,0:2|0:2,0:0:0:0:
205,202,107499,2,0,P|240:194|291:182,1,56.9999982604981,8|0,0:2|0:2,0:0:0:0:
396,93,107666,5,0,1:2:0:0:
325,238,107833,1,8,0:2:0:0:
288,19,107999,37,0,1:2:0:0:
233,6,108083,1,0,1:2:0:0:
202,38,108166,1,0,1:2:0:0:
203,67,108249,1,0,1:2:0:0:
215,86,108333,5,8,0:2:0:0:
230,87,108416,1,8,0:2:0:0:
245,97,108499,1,8,0:2:0:0:
258,115,108583,1,8,0:2:0:0:
263,150,108666,37,0,1:2:0:0:
292,126,108749,1,0,1:2:0:0:
333,115,108833,1,8,0:3:0:0:
383,114,108916,1,8,0:3:0:0:
436,137,108999,5,10,0:2:0:0:
314,224,109166,1,10,0:2:0:0:
490,310,109333,6,0,P|408:327|273:366,2,190,14|10|2,0:2|0:2|1:2,0:0:0:0:
490,310,110499,1,2,0:2:0:0:
417,157,110666,6,0,B|382:194|402:246|402:246|379:191|310:182,2,190,14|10|2,0:2|0:2|1:2,0:0:0:0:
417,157,111833,1,2,0:2:0:0:
319,271,111999,37,14,0:2:0:0:
256,192,112083,12,0,113333,0:2:0:0:
