osu file format v14

[General]
AudioFilename: audio.mp3
AudioLeadIn: 0
PreviewTime: 53162
Countdown: 0
SampleSet: Soft
StackLeniency: 0.7
Mode: 0
LetterboxInBreaks: 0
WidescreenStoryboard: 1

[Editor]
DistanceSpacing: 2.3
BeatDivisor: 4
GridSize: 32
TimelineZoom: 1.4

[Metadata]
Title:LazyBaby
TitleUnicode:LazyBaby
Artist:Dove Cameron
ArtistUnicode:Dove Cameron
Creator:Asphyxia
Version:Insane
Source:
Tags:disco pop english
BeatmapID:3098962
BeatmapSetID:1503309

[Difficulty]
HPDrainRate:4.5
CircleSize:3.8
OverallDifficulty:7.5
ApproachRate:8.7
SliderMultiplier:1.7
SliderTickRate:1

[Events]
//Background and Video events
0,0,"90616094_p0.jpg",0,0
//Break Periods
//Storyboard Layer 0 (Background)
//Storyboard Layer 1 (Fail)
//Storyboard Layer 2 (Pass)
//Storyboard Layer 3 (Foreground)
//Storyboard Layer 4 (Overlay)
//Storyboard Sound Samples

[TimingPoints]
198,530.973451327434,4,2,0,80,1,0
198,-100,4,2,0,80,0,0
1790,-100,4,2,0,80,0,0
2321,-71.4285714285714,4,2,0,80,0,0
3649,-100,4,2,0,80,0,0
4445,-100,4,2,0,80,0,0
4976,-100,4,2,0,80,0,0
5507,-125,4,2,0,80,0,0
8959,-100,4,2,0,80,0,0
10817,-125,4,2,0,80,0,0
11348,-100,4,2,0,80,0,0
12144,-100,4,2,0,80,0,0
12941,-100,4,2,0,80,0,0
14534,-71.4285714285714,4,2,0,80,0,0
15065,-100,4,2,0,80,0,0
18782,-62.5,4,2,0,80,0,0
19313,-100,4,2,0,80,0,0
19844,-100,4,2,0,80,0,0
30463,-71.4285714285714,4,2,0,80,0,0
31525,-100,4,2,0,80,0,0
32454,-100,4,2,0,80,0,0
32852,-100,4,2,0,80,0,0
33251,-100,4,2,0,80,0,0
33649,-125,4,2,0,80,0,0
34047,-142.857142857143,4,2,0,80,0,0
34445,-166.666666666667,4,2,0,80,0,0
34844,-200,4,2,0,80,0,0
35242,-250,4,2,0,80,0,0
36304,-100,4,2,0,80,0,0
38428,-83.3333333333333,4,2,0,80,0,0
39490,-100,4,2,0,80,0,0
40551,-71.4285714285714,4,2,0,80,0,0
40817,-100,4,2,0,80,0,0
43206,-71.4285714285714,4,2,0,80,0,0
44799,-100,4,2,0,80,0,0
45463,-125,4,2,0,80,0,0
47454,-71.4285714285714,4,2,0,80,0,0
47985,-100,4,2,0,80,0,0
49047,-100,4,2,0,80,0,0
49445,-100,4,2,0,80,0,0
49844,-100,4,2,0,80,0,0
50242,-100,4,2,0,80,0,0
50640,-125,4,2,0,80,0,0
51038,-142.857142857143,4,2,0,80,0,0
51436,-166.666666666667,4,2,0,80,0,0
51835,-200,4,2,0,80,0,0
53295,-71.4285714285714,4,2,0,80,0,1
54357,-71.4285714285714,4,2,0,80,0,1
56746,-100,4,2,0,80,0,1
58605,-71.4285714285714,4,2,0,80,0,1
61259,-71.4285714285714,4,2,0,80,0,1
61790,-100,4,2,0,80,0,1
62852,-71.4285714285714,4,2,0,80,0,1
65507,-71.4285714285714,4,2,0,80,0,1
67366,-71.4285714285714,4,2,0,80,0,1
70286,-100,4,2,0,80,0,1
70817,-71.4285714285714,4,2,0,80,0,1
78782,-100,4,2,0,80,0,0
80905,-100,4,2,0,80,0,0
91525,-100,4,2,0,80,0,0
95773,-100,4,2,0,80,0,0
101613,-125,4,2,0,80,0,0
102144,-100,4,2,0,80,0,0
103737,-71.4285714285714,4,2,0,80,0,0
105330,-100,4,2,0,80,0,0
107985,-100,4,2,0,80,0,0
108516,-100,4,2,0,80,0,0
112764,-71.4285714285714,4,2,0,80,0,1
115950,-71.4285714285714,4,2,0,80,0,1
116481,-100,4,2,0,80,0,1
117012,-62.5,4,2,0,80,0,1
118074,-71.4285714285714,4,2,0,80,0,1
122852,-71.4285714285714,4,2,0,80,0,1
123383,-100,4,2,0,80,0,1
123914,-100,4,2,0,80,0,1
124976,-100,4,2,0,80,0,1
125507,-62.5,4,2,0,80,0,1
126038,-71.4285714285714,4,2,0,80,0,1
127100,-71.4285714285714,4,2,0,80,0,1
128428,-71.4285714285714,4,2,0,80,0,1
128693,-71.4285714285714,4,2,0,80,0,1
129357,-71.4285714285714,4,2,0,80,0,1
129755,-100,4,2,0,80,0,1
130551,-71.4285714285714,4,2,0,80,0,1
134003,-55.5555555555556,4,2,0,80,0,1
134534,-71.4285714285714,4,2,0,80,0,1
137189,-71.4285714285714,4,2,0,80,0,1
138251,-100,4,2,0,80,0,0
140374,-100,4,2,0,80,0,0
141967,-71.4285714285714,4,2,0,80,0,0
143560,-100,4,2,0,80,0,0
153118,-71.4285714285714,4,2,0,80,0,0

[Colours]
Combo1 : 0,128,128
Combo2 : 128,128,192
Combo3 : 0,113,251
Combo4 : 255,255,128
Combo5 : 255,128,64
Combo6 : 255,117,117

[HitObjects]
47,352,198,5,0,3:0:0:0:
66,348,330,1,0,0:0:0:0:
50,335,463,1,0,0:0:0:0:
206,326,728,5,0,3:0:0:0:
259,311,861,1,0,0:0:0:0:
218,274,994,1,0,0:0:0:0:
416,302,1259,5,0,3:0:0:0:
508,269,1392,1,0,0:0:0:0:
433,205,1525,1,0,0:0:0:0:
248,63,1790,6,0,P|308:92|390:83,1,127.5,0|0,3:0|0:0,0:0:0:0:
405,26,2321,6,0,P|339:20|294:76,2,118.999996368408,6|0|8,3:2|0:0|0:0,0:0:0:0:
447,98,2985,1,0,0:0:0:0:
498,32,3118,1,2,0:0:0:0:
500,270,3383,2,0,P|506:323|515:366,1,59.4999981842042,2|0,3:2|0:0,0:0:0:0:
434,355,3649,6,0,P|383:350|323:338,1,85,0|8,0:0|0:0,0:0:0:0:
349,344,4313,1,0,0:0:0:0:
349,344,4445,6,0,P|344:314|341:284,1,42.5,0|0,3:0|0:0,0:0:0:0:
277,260,4711,1,0,0:0:0:0:
138,339,4976,2,0,P|142:309|145:279,1,42.5,10|0,0:0|0:0,0:0:0:0:
66,244,5242,2,0,P|70:214|73:184,1,42.5,2|0,0:0|0:0,0:0:0:0:
138,147,5507,6,0,P|71:166|-14:159,2,136,2|10|0,3:2|0:0|3:0,0:0:0:0:
231,54,6835,1,0,0:0:0:0:
222,38,6967,1,0,0:0:0:0:
272,17,7100,1,8,0:0:0:0:
394,120,7366,1,2,0:0:0:0:
410,121,7498,1,2,0:0:0:0:
392,98,7631,1,0,3:0:0:0:
321,148,7764,6,0,P|323:189|339:235,1,68,0|2,0:0|0:0,0:0:0:0:
366,293,8162,1,10,0:0:0:0:
237,353,8428,1,0,0:0:0:0:
215,345,8560,1,0,0:0:0:0:
179,384,8693,5,0,3:0:0:0:
0,235,8959,2,0,P|21:237|42:240,1,42.5,2|0,0:0|0:0,0:0:0:0:
113,275,9224,2,0,P|134:272|155:269,1,42.5,8|0,0:0|0:0,0:0:0:0:
223,215,9490,2,0,P|244:217|265:220,1,42.5,2|0,0:0|0:0,0:0:0:0:
209,128,9755,2,0,P|187:130|166:133,1,42.5,2|0,3:2|0:0,0:0:0:0:
229,41,10021,2,0,P|250:43|271:46,1,42.5,2|0,0:0|0:0,0:0:0:0:
345,95,10286,2,0,P|347:73|350:52,1,42.5,10|0,0:0|0:0,0:0:0:0:
371,215,10551,2,0,P|373:193|376:172,1,42.5,2|0,0:0|0:0,0:0:0:0:
460,201,10817,6,0,P|451:254|442:325,1,102,0|0,3:0|0:0,0:0:0:0:
370,325,11348,6,0,P|375:359|381:406,1,42.5,8|2,0:0|0:0,0:0:0:0:
510,361,11613,1,2,0:0:0:0:
252,342,11879,2,0,P|255:321|258:300,1,42.5,0|0,3:0|0:0,0:0:0:0:
231,214,12144,1,0,0:0:0:0:
231,214,12410,2,0,P|218:130|203:47,1,127.5,8|0,0:0|0:0,0:0:0:0:
134,22,12941,6,0,P|131:43|127:63,1,42.5,0|0,3:0|0:0,0:0:0:0:
51,15,13206,2,0,P|48:36|44:56,1,42.5,2|0,0:0|0:0,0:0:0:0:
140,163,13472,2,0,P|142:184|146:204,1,42.5,8|0,0:0|0:0,0:0:0:0:
57,170,13737,2,0,P|59:191|63:211,1,42.5
56,308,14003,2,0,P|109:312|195:334,1,127.5,0|0,3:0|0:0,0:0:0:0:
126,341,14534,6,0,P|184:367|230:274,1,178.499994552612,10|0,0:0|0:0,0:0:0:0:
199,206,15065,5,0,3:0:0:0:
306,122,15330,1,0,0:0:0:0:
316,130,15463,1,0,0:0:0:0:
305,138,15596,1,8,0:0:0:0:
450,102,15861,1,2,0:0:0:0:
440,114,15994,1,2,0:0:0:0:
465,132,16127,1,2,3:2:0:0:
436,167,16259,6,0,P|446:213|453:279,1,85,0|2,0:0|0:0,0:0:0:0:
428,325,16658,1,10,0:0:0:0:
325,271,16923,1,0,0:0:0:0:
325,271,17056,1,0,0:0:0:0:
325,271,17189,2,0,P|323:292|319:312,1,42.5,2|0,3:2|0:0,0:0:0:0:
256,365,17454,1,0,0:0:0:0:
114,238,17720,2,0,P|109:258|107:279,1,42.5,8|0,0:0|0:0,0:0:0:0:
96,361,17985,2,0,P|100:340|102:319,1,42.5,2|0,0:0|0:0,0:0:0:0:
188,267,18251,2,0,P|192:246|194:225,1,42.5,2|0,3:2|0:0,0:0:0:0:
52,166,18516,2,0,P|56:145|58:124,1,42.5,2|0,0:0|0:0,0:0:0:0:
39,35,18782,6,0,P|100:27|148:21,1,68,10|0,0:0|0:0,0:0:0:0:
261,94,19047,2,0,P|294:98|328:102,1,68
415,125,19313,5,0,3:0:0:0:
492,81,19445,1,0,0:0:0:0:
414,37,19578,1,0,0:0:0:0:
414,37,19844,2,0,P|422:126|426:225,2,170,8|0|8,0:0|3:0|0:0,0:0:0:0:
414,37,21436,5,0,3:0:0:0:
336,73,21702,1,0,0:0:0:0:
278,10,21967,1,8,0:0:0:0:
208,59,22233,1,0,0:0:0:0:
127,32,22498,2,0,P|76:25|35:14,1,85,0|0,3:0|0:0,0:0:0:0:
2,138,23029,2,0,P|53:131|94:120,1,85,8|0,0:0|0:0,0:0:0:0:
85,122,23560,5,0,3:0:0:0:
248,180,23826,1,0,0:0:0:0:
306,106,23959,1,0,0:0:0:0:
348,188,24091,1,8,0:0:0:0:
444,290,24357,1,0,0:0:0:0:
500,259,24490,1,0,0:0:0:0:
441,233,24622,2,0,P|444:187|458:59,1,170,0|8,3:0|0:0,0:0:0:0:
457,63,25419,1,0,0:0:0:0:
306,106,25684,6,0,P|285:110|264:112,1,42.5,0|0,3:0|0:0,0:0:0:0:
189,92,25950,1,0,0:0:0:0:
185,261,26215,1,8,0:0:0:0:
227,283,26348,1,0,0:0:0:0:
266,246,26481,1,0,0:0:0:0:
385,307,26746,2,0,P|382:328|378:349,1,42.5,0|0,3:0|0:0,0:0:0:0:
480,354,27012,2,0,P|476:333|473:311,1,42.5
359,278,27277,2,0,P|355:257|352:236,1,42.5,8|0,0:0|0:0,0:0:0:0:
487,281,27543,2,0,P|490:260|493:239,1,42.5
457,159,27808,6,0,P|449:108|449:50,1,85,0|0,3:0|0:0,0:0:0:0:
241,39,28339,1,8,0:0:0:0:
318,71,28472,1,0,0:0:0:0:
253,123,28605,1,0,0:0:0:0:
253,123,28870,2,0,P|246:188|233:319,1,170,0|8,3:0|0:0,0:0:0:0:
235,292,29667,1,0,0:0:0:0:
341,348,29932,5,0,3:0:0:0:
255,312,30065,1,0,0:0:0:0:
188,375,30198,1,0,0:0:0:0:
26,278,30463,6,0,P|29:250|33:199,1,59.4999981842042,8|0,0:0|0:0,3:0:0:0:
98,144,30728,2,0,P|95:116|91:65,1,59.4999981842042,0|0,0:0|0:0,3:0:0:0:
172,34,30994,2,0,B|272:26|245:83|356:63,1,178.499994552612,0|0,3:0|0:0,0:0:0:0:
406,123,31525,6,0,P|456:91|396:52,1,127.5,8|0,0:0|0:0,0:0:0:0:
343,64,32056,6,0,P|335:117|327:161,1,85,0|0,3:0|0:0,0:0:0:0:
387,211,32454,2,0,P|395:264|403:308,1,85
315,301,32852,6,0,P|307:354|299:398,1,85,0|0,0:0|3:0,0:0:0:0:
135,370,33251,2,0,P|188:362|232:354,1,85
189,276,33649,6,0,P|136:268|92:260,1,68,8|0,0:0|0:0,0:0:0:0:
170,180,34047,2,0,P|201:175|227:170,1,59.4999981842042
190,92,34445,6,0,P|158:87|132:82,1,50.9999984436036,0|8,0:0|0:0,0:0:0:0:
169,8,34844,2,0,P|200:3|226:-1,1,42.5
296,29,35242,6,0,P|301:62|306:96,1,68,0|8,3:0|0:0,0:0:0:0:
306,96,36038,1,0,0:0:0:0:
281,227,36304,5,0,3:0:0:0:
388,206,36436,1,0,0:0:0:0:
346,286,36569,1,0,0:0:0:0:
346,286,36835,2,0,P|349:201|357:116,2,170,8|0|8,0:0|3:0|0:0,0:0:0:0:
346,286,38428,6,0,P|352:333|352:363,1,50.9999984436036,0|0,3:0|0:0,0:0:0:0:
278,348,38693,2,0,P|272:301|272:271,1,50.9999984436036
417,214,38959,2,0,P|423:261|423:291,1,50.9999984436036,8|0,0:0|0:0,0:0:0:0:
194,284,39224,2,0,P|188:237|188:207,1,50.9999984436036
254,170,39490,6,0,P|263:123|275:31,1,127.5,0|0,3:0|0:0,0:0:0:0:
187,59,40021,2,0,P|140:68|48:80,1,127.5,8|0,0:0|0:0,0:0:0:0:
61,78,40551,6,0,P|63:113|69:148,1,59.4999981842042,0|0,3:0|0:0,0:0:0:0:
128,204,40817,6,0,P|121:255|111:307,1,85,0|8,0:0|0:0,0:0:0:0:
115,288,41613,1,0,3:0:0:0:
115,288,42144,1,8,0:0:0:0:
262,264,42410,1,0,0:0:0:0:
288,283,42543,1,0,0:0:0:0:
304,251,42675,1,0,3:0:0:0:
374,222,42808,1,0,0:0:0:0:
449,284,42941,1,0,0:0:0:0:
449,284,43206,6,0,P|453:235|454:193,1,59.4999981842042,8|0,0:0|0:0,0:0:0:0:
492,139,43472,2,0,P|496:90|497:48,1,59.4999981842042
411,0,43737,2,0,P|409:29|406:59,1,59.4999981842042,0|0,3:0|0:0,0:0:0:0:
378,162,44003,2,0,P|376:191|373:221,1,59.4999981842042
273,334,44268,2,0,P|275:304|277:274,1,59.4999981842042,8|0,0:0|0:0,0:0:0:0:
255,118,44534,2,0,P|256:147|259:177,1,59.4999981842042
186,233,44799,6,0,P|137:226|70:212,1,85,0|0,3:0|0:0,0:0:0:0:
66,359,45330,1,8,0:0:0:0:
66,359,45463,2,0,P|119:369|181:376,1,102
166,374,46392,1,8,0:0:0:0:
261,360,46658,1,0,0:0:0:0:
475,384,46923,5,0,3:0:0:0:
410,317,47056,1,0,0:0:0:0:
472,249,47189,1,0,0:0:0:0:
472,249,47454,2,0,P|480:191|482:167,1,59.4999981842042,8|0,0:0|0:0,0:0:0:0:
371,228,47720,2,0,P|379:170|381:146,1,59.4999981842042
256,312,47985,6,0,P|268:215|271:174,1,127.5,0|0,3:0|0:0,0:0:0:0:
270,185,48516,2,0,P|275:121|284:58,1,127.5,8|0,0:0|0:0,0:0:0:0:
283,58,49047,6,0,P|241:65|199:71,1,85,0|0,3:0|0:0,0:0:0:0:
121,87,49445,2,0,P|79:94|37:100,1,85
99,180,49844,6,0,P|140:187|182:193,1,85,0|0,0:0|3:0,0:0:0:0:
264,213,50242,2,0,P|305:220|347:226,1,85
244,291,50640,6,0,P|202:298|160:304,1,68,8|0,0:0|0:0,0:0:0:0:
98,319,51038,2,0,P|56:326|14:332,1,59.4999981842042
224,376,51436,6,0,P|252:380|280:385,1,50.9999984436036,0|8,0:0|0:0,0:0:0:0:
370,384,51835,2,0,P|363:345|357:305,1,63.75
462,217,53295,6,0,P|471:168|473:139,1,59.4999981842042,6|0,3:2|0:0,0:0:0:0:
390,108,53560,2,0,P|381:157|379:186,1,59.4999981842042
379,249,53826,1,8,0:0:0:0:
303,283,53959,1,0,0:0:0:0:
250,218,54091,1,2,0:0:0:0:
250,218,54357,6,0,P|257:277|256:366,1,118.999996368408,2|0,3:2|0:0,0:0:0:0:
173,364,54755,1,0,0:0:0:0:
173,364,54888,2,0,P|113:363|54:356,1,118.999996368408,10|0,0:0|0:0,0:0:0:0:
86,279,55286,1,0,0:0:0:0:
9,245,55419,6,0,P|0:196|-2:167,1,59.4999981842042,2|0,3:2|0:0,0:0:0:0:
72,107,55684,2,0,P|81:156|83:185,1,59.4999981842042
230,237,55950,2,0,P|239:188|241:159,1,59.4999981842042,10|0,0:0|0:0,0:0:0:0:
182,31,56215,2,0,P|173:80|171:109,1,59.4999981842042,2|0,0:0|0:0,0:0:0:0:
328,175,56481,2,0,P|324:145|318:116,1,59.4999981842042,2|0,3:2|0:0,0:0:0:0:
312,259,56746,6,0,P|372:268|418:272,2,85,0|8|0,0:0|0:0|0:0,0:0:0:0:
257,334,57410,1,0,0:0:0:0:
195,219,57543,1,6,3:2:0:0:
45,366,57808,2,0,P|23:368|2:371,1,42.5
68,347,58074,1,10,0:0:0:0:
150,371,58206,1,2,0:0:0:0:
184,287,58339,2,0,P|179:247|176:216,1,42.5
81,222,58605,6,0,P|86:182|89:151,1,59.4999981842042,2|0,3:2|0:0,0:0:0:0:
224,254,58870,2,0,P|229:214|232:183,1,59.4999981842042,2|0,0:0|0:0,0:0:0:0:
353,218,59136,2,0,P|363:127|370:58,1,118.999996368408,10|2,0:0|0:0,0:0:0:0:
375,22,59534,1,0,0:0:0:0:
452,156,59667,6,0,P|455:126|458:96,1,59.4999981842042,2|0,3:2|0:0,0:0:0:0:
331,172,59932,2,0,P|334:142|337:112,1,59.4999981842042,2|0,0:0|0:0,0:0:0:0:
245,89,60198,2,0,P|248:59|251:29,1,59.4999981842042,10|0,0:0|0:0,0:0:0:0:
141,118,60463,2,0,P|144:88|147:58,1,59.4999981842042,2|0,0:0|0:0,0:0:0:0:
41,60,60728,2,0,P|44:30|47:0,1,59.4999981842042,2|0,3:2|0:0,0:0:0:0:
152,29,60994,1,2,0:0:0:0:
152,29,61127,1,0,0:0:0:0:
229,98,61259,6,0,P|297:109|420:119,1,178.499994552612,10|0,0:0|0:0,0:0:0:0:
474,79,61790,6,0,P|529:128|455:165,1,170,6|8,3:2|0:0,0:0:0:0:
390,204,62454,1,0,0:0:0:0:
383,119,62587,1,2,0:0:0:0:
130,257,62852,6,0,P|135:300|139:353,1,59.4999981842042,2|0,3:2|0:0,0:0:0:0:
231,282,63118,2,0,P|236:325|240:378,1,59.4999981842042
320,343,63383,1,10,0:0:0:0:
344,328,63516,1,0,0:0:0:0:
388,348,63649,1,0,0:0:0:0:
455,335,63782,1,0,0:0:0:0:
501,366,63914,6,0,P|506:309|514:242,1,118.999996368408,2|0,3:2|0:0,0:0:0:0:
450,192,64313,1,0,0:0:0:0:
512,129,64445,2,0,P|507:72|499:5,1,118.999996368408,8|2,0:0|0:0,0:0:0:0:
422,37,64844,1,0,0:0:0:0:
422,37,64976,2,0,P|350:34|225:19,1,178.499994552612,2|0,3:2|0:0,0:0:0:0:
235,110,65507,2,0,P|146:120|57:124,1,178.499994552612,10|0,0:0|0:0,0:0:0:0:
12,62,66038,5,6,3:2:0:0:
12,62,66436,1,2,0:0:0:0:
85,102,66569,1,10,0:0:0:0:
15,154,66702,1,2,0:0:0:0:
1,170,66835,1,2,0:0:0:0:
31,191,66967,1,2,0:0:0:0:
2,261,67100,5,2,3:2:0:0:
196,291,67366,2,0,P|187:242|185:213,1,59.4999981842042,2|0,0:0|0:0,0:0:0:0:
248,360,67631,2,0,P|309:369|345:251,1,178.499994552612,10|2,0:0|0:0,0:0:0:0:
312,216,68162,5,2,3:2:0:0:
356,152,68295,1,2,0:0:0:0:
432,175,68428,1,2,0:0:0:0:
431,253,68560,1,2,0:0:0:0:
359,278,68693,2,0,P|329:274|300:268,1,59.4999981842042,10|0,0:0|0:0,0:0:0:0:
380,376,68959,2,0,P|350:372|321:366,1,59.4999981842042,2|0,0:0|0:0,0:0:0:0:
234,217,69224,2,0,P|217:190|204:164,1,59.4999981842042,0|0,3:0|0:0,0:0:0:0:
209,344,69490,2,0,P|187:321|169:298,1,59.4999981842042,2|0,0:0|0:0,0:0:0:0:
127,117,69755,2,0,P|122:146|116:175,2,59.4999981842042,10|0|0,0:0|0:0|0:0,0:0:0:0:
75,55,70153,1,0,0:0:0:0:
75,55,70286,6,0,P|146:38|200:80,1,127.5,6|0,3:2|0:0,0:0:0:0:
273,91,70817,6,0,P|302:87|331:81,1,59.4999981842042,10|2,0:0|0:0,0:0:0:0:
425,92,71082,1,2,0:0:0:0:
425,92,71215,1,2,0:0:0:0:
381,194,71348,2,0,P|368:258|358:361,1,118.999996368408,2|2,3:2|0:0,0:0:0:0:
431,360,71746,1,2,0:0:0:0:
352,325,71879,1,10,0:0:0:0:
281,380,72012,1,2,0:0:0:0:
209,328,72144,2,0,P|215:298|219:269,1,59.4999981842042,2|2,0:0|0:0,0:0:0:0:
305,173,72410,6,0,P|299:203|295:232,1,59.4999981842042,6|2,3:2|0:0,0:0:0:0:
136,153,72675,2,0,P|142:123|146:94,1,59.4999981842042,2|2,0:0|0:0,0:0:0:0:
54,83,72941,2,0,P|49:112|44:141,1,59.4999981842042,10|0,0:0|0:0,0:0:0:0:
54,232,73206,1,2,0:0:0:0:
98,257,73339,1,2,0:0:0:0:
164,222,73472,1,2,3:2:0:0:
250,275,73605,1,0,0:0:0:0:
327,228,73737,2,0,P|321:198|317:169,1,59.4999981842042,2|0,0:0|0:0,0:0:0:0:
425,98,74003,1,10,3:2:0:0:
425,98,74136,1,2,0:0:0:0:
456,131,74268,1,2,0:0:0:0:
434,165,74401,1,2,0:0:0:0:
451,183,74534,6,0,P|480:188|509:192,1,59.4999981842042,6|0,3:2|0:0,0:0:0:0:
502,281,74799,1,2,0:0:0:0:
502,281,74932,1,2,0:0:0:0:
430,335,75065,1,10,0:0:0:0:
350,293,75198,1,0,0:0:0:0:
277,344,75330,2,0,P|272:314|267:285,1,59.4999981842042,2|0,0:0|0:0,0:0:0:0:
221,134,75596,2,0,P|215:163|211:192,1,59.4999981842042,2|0,3:2|0:0,0:0:0:0:
140,51,75861,2,0,P|134:80|130:109,1,59.4999981842042,2|0,0:0|0:0,0:0:0:0:
41,106,76127,2,0,P|35:135|31:164,1,59.4999981842042,10|0,0:0|0:0,0:0:0:0:
41,258,76392,1,2,0:0:0:0:
61,246,76525,1,2,0:0:0:0:
142,250,76658,6,0,P|148:279|152:308,1,59.4999981842042,6|0,3:2|0:0,0:0:0:0:
236,361,76923,2,0,P|240:332|247:303,1,59.4999981842042,2|0,0:0|0:0,0:0:0:0:
329,338,77189,5,10,0:0:0:0:
409,361,77321,1,2,0:0:0:0:
446,280,77454,1,2,0:0:0:0:
317,348,77720,5,2,3:2:0:0:
274,360,77852,1,2,0:0:0:0:
255,317,77985,1,2,0:0:0:0:
7,384,78251,6,0,P|16:335|18:306,1,59.4999981842042,10|0,0:0|0:0,0:0:0:0:
116,255,78516,2,0,P|125:206|127:177,1,59.4999981842042,6|0,0:0|0:0,0:0:0:0:
61,135,78782,6,0,P|59:113|56:92,1,42.5,4|0,3:2|0:0,0:0:0:0:
181,76,79180,1,0,0:0:0:0:
181,76,79313,2,0,P|183:97|185:118,1,42.5,8|0,0:0|0:0,0:0:0:0:
279,99,79578,2,0,P|277:77|274:56,1,42.5
377,85,79844,2,0,P|375:64|373:43,1,42.5,0|0,3:0|0:0,0:0:0:0:
56,92,80374,2,0,P|58:113|60:134,3,42.5,8|0|0|0,0:0|0:0|0:0|0:0,0:0:0:0:
143,182,80905,6,0,P|141:203|139:224,1,42.5,0|0,3:0|0:0,0:0:0:0:
16,239,81171,2,0,P|14:260|12:281,1,42.5
133,316,81436,2,0,P|131:337|129:358,1,42.5,8|0,0:0|0:0,0:0:0:0:
243,280,81702,2,0,P|241:301|239:322,1,42.5
314,363,81967,1,0,3:0:0:0:
314,363,82498,2,0,P|335:361|356:359,3,42.5,8|0|0|0,0:0|0:0|0:0|0:0,0:0:0:0:
332,272,83029,6,0,P|353:270|374:268,1,42.5,0|0,3:0|0:0,0:0:0:0:
496,268,83295,1,0,0:0:0:0:
496,268,83428,1,0,0:0:0:0:
496,268,83560,2,0,P|475:270|454:272,1,42.5,8|0,0:0|0:0,0:0:0:0:
377,191,83826,2,0,P|398:189|419:187,1,42.5
379,102,84091,2,0,P|358:104|337:106,1,42.5,0|0,3:0|0:0,0:0:0:0:
495,5,84622,2,0,P|474:7|453:9,3,42.5,8|0|0|0,0:0|0:0|0:0|0:0,0:0:0:0:
375,28,85153,5,0,3:0:0:0:
375,28,85286,1,0,0:0:0:0:
336,106,85419,2,0,P|315:104|294:102,1,42.5
274,18,85684,2,0,P|253:16|232:14,1,42.5,8|0,0:0|0:0,0:0:0:0:
200,151,85950,2,0,P|179:149|158:147,1,42.5
104,204,86215,2,0,P|83:202|62:200,1,42.5,0|0,3:0|0:0,0:0:0:0:
65,101,86481,2,0,P|44:99|23:97,1,42.5
50,187,86746,1,8,0:0:0:0:
50,187,86879,1,0,0:0:0:0:
3,253,87012,1,4,0:0:0:0:
3,253,87145,1,0,0:0:0:0:
51,317,87277,6,0,P|92:320|140:325,1,85,0|0,3:0|0:0,0:0:0:0:
212,366,87675,1,0,0:0:0:0:
212,366,87808,2,0,P|237:367|262:370,1,42.5,8|0,0:0|0:0,0:0:0:0:
311,300,88074,1,0,0:0:0:0:
366,369,88206,2,0,P|391:370|416:373,1,42.5,0|0,0:0|3:0,0:0:0:0:
483,324,88472,1,0,0:0:0:0:
433,253,88605,2,0,P|411:251|390:249,1,42.5
426,168,88870,1,8,0:0:0:0:
426,168,89268,1,0,0:0:0:0:
426,168,89401,6,0,P|421:125|418:83,1,85,0|0,3:0|0:0,0:0:0:0:
332,86,89799,1,0,0:0:0:0:
332,86,89932,2,0,P|310:84|289:82,1,42.5,8|0,0:0|0:0,0:0:0:0:
262,180,90198,2,0,P|284:178|305:176,1,42.5
426,168,90463,1,0,3:0:0:0:
89,197,90994,1,8,0:0:0:0:
263,263,91259,1,0,0:0:0:0:
203,313,91392,1,0,0:0:0:0:
188,236,91525,6,0,P|190:214|192:193,1,42.5,0|0,3:0|0:0,0:0:0:0:
272,154,91790,1,0,0:0:0:0:
272,154,91923,1,0,0:0:0:0:
140,122,92056,2,0,P|138:100|136:79,1,42.5,8|0,0:0|0:0,0:0:0:0:
226,16,92321,1,0,0:0:0:0:
226,16,92454,2,0,P|223:37|222:58,1,42.5,0|0,0:0|3:0,0:0:0:0:
307,37,92720,1,0,0:0:0:0:
387,29,92852,1,0,0:0:0:0:
392,33,93118,2,0,P|442:56|395:128,1,127.5,8|0,0:0|0:0,0:0:0:0:
361,163,93649,6,0,P|362:184|364:205,1,42.5,0|0,3:0|0:0,0:0:0:0:
438,243,93914,1,0,0:0:0:0:
313,279,94047,2,0,P|314:300|316:321,1,42.5,0|8,0:0|0:0,0:0:0:0:
398,359,94313,1,0,0:0:0:0:
282,355,94445,2,0,P|279:333|278:312,1,42.5
24,349,95773,6,0,P|34:293|42:189,1,127.5,4|0,3:2|0:0,0:0:0:0:
24,194,96304,1,8,0:0:0:0:
80,222,96436,1,0,0:0:0:0:
141,169,96569,1,0,0:0:0:0:
110,95,96702,1,0,0:0:0:0:
88,84,96835,2,0,P|83:40|76:-3,1,85,0|0,3:0|0:0,0:0:0:0:
215,157,97366,2,0,P|222:220|232:282,1,127.5,8|0,0:0|0:0,0:0:0:0:
238,371,97897,6,0,P|301:363|290:289,1,127.5,0|0,3:0|0:0,0:0:0:0:
232,285,98428,1,8,0:0:0:0:
254,203,98560,1,0,0:0:0:0:
209,128,98693,1,0,0:0:0:0:
187,104,98826,1,0,0:0:0:0:
260,52,98959,2,0,P|263:17|269:-16,1,42.5,0|0,3:0|0:0,0:0:0:0:
329,190,99224,2,0,P|332:155|338:121,1,42.5
512,2,99490,2,0,P|501:64|494:128,1,127.5,8|0,0:0|0:0,0:0:0:0:
503,260,100021,5,0,3:0:0:0:
503,260,100286,2,0,P|510:222|513:207,1,42.5
482,275,100551,1,8,0:0:0:0:
424,296,100684,1,0,0:0:0:0:
359,269,100817,1,0,0:0:0:0:
337,194,100950,1,0,0:0:0:0:
355,164,101082,2,0,P|352:129|346:95,1,42.5,0|0,3:0|0:0,0:0:0:0:
247,223,101348,2,0,P|244:188|238:154,1,42.5
156,169,101613,6,0,P|151:115|142:64,1,102,8|0,0:0|0:0,0:0:0:0:
66,35,102144,6,0,P|63:56|61:77,1,42.5,0|0,3:0|0:0,0:0:0:0:
181,81,102410,2,0,P|183:102|185:123,1,42.5
62,172,102675,2,0,P|59:193|57:214,1,42.5,8|0,0:0|0:0,0:0:0:0:
156,252,102941,2,0,P|158:273|160:294,1,42.5
71,316,103206,2,0,P|68:337|66:358,1,42.5,0|0,3:0|0:0,0:0:0:0:
158,334,103472,2,0,P|160:355|162:376,1,42.5
265,335,103737,6,0,P|260:266|251:197,2,118.999996368408,8|0|0,0:0|0:0|3:0,0:0:0:0:
264,332,104667,5,0,0:0:0:0:
264,332,104799,1,8,0:0:0:0:
299,341,104932,1,0,0:0:0:0:
339,277,105065,1,0,0:0:0:0:
360,192,105198,1,0,0:0:0:0:
425,250,105330,2,0,P|458:246|523:243,1,85,0|0,3:0|0:0,0:0:0:0:
512,52,105861,2,0,P|465:57|373:61,1,127.5,8|0,0:0|0:0,0:0:0:0:
312,39,106392,5,0,3:0:0:0:
186,72,106658,2,0,L|172:123,1,42.5
195,128,106923,1,8,0:0:0:0:
205,173,107056,1,0,0:0:0:0:
168,222,107189,1,0,0:0:0:0:
220,272,107321,1,0,0:0:0:0:
152,332,107454,2,0,P|131:329|110:327,1,42.5,0|0,3:0|0:0,0:0:0:0:
30,328,107720,1,0,0:0:0:0:
308,347,107985,2,0,P|329:344|350:341,1,42.5,8|0,0:0|0:0,0:0:0:0:
433,337,108251,1,0,0:0:0:0:
433,337,108383,1,0,0:0:0:0:
387,226,108516,6,0,P|384:247|381:268,2,42.5,0|0|0,3:0|0:0|0:0,0:0:0:0:
469,98,109047,2,0,P|466:77|463:56,2,42.5,8|0|0,0:0|0:0|0:0,0:0:0:0:
284,137,109578,1,0,3:0:0:0:
257,118,109711,1,0,0:0:0:0:
231,152,109844,1,0,0:0:0:0:
94,227,110109,5,8,0:0:0:0:
70,216,110242,1,0,0:0:0:0:
88,198,110374,1,0,0:0:0:0:
234,256,110640,1,0,3:0:0:0:
228,271,110773,5,0,0:0:0:0:
221,288,110905,1,0,0:0:0:0:
329,314,111171,1,8,0:0:0:0:
329,314,111304,5,0,0:0:0:0:
329,314,111436,1,0,0:0:0:0:
419,274,111702,5,2,0:0:0:0:
432,279,111835,5,2,0:0:0:0:
343,207,112233,1,2,0:0:0:0:
343,207,112764,6,0,P|348:167|355:131,1,59.4999981842042,6|0,3:2|0:0,0:0:0:0:
260,234,113029,2,0,P|255:194|248:158,1,59.4999981842042
202,88,113295,1,8,0:0:0:0:
168,190,113428,1,0,0:0:0:0:
92,120,113560,1,2,0:0:0:0:
92,120,113826,2,0,P|86:150|83:178,1,59.4999981842042,2|0,3:2|0:0,0:0:0:0:
0,196,114091,1,0,0:0:0:0:
0,196,114224,1,0,0:0:0:0:
110,259,114357,2,0,P|120:316|128:391,1,118.999996368408,10|0,0:0|0:0,0:0:0:0:
127,376,114755,1,0,0:0:0:0:
235,343,114888,6,0,P|265:349|293:352,1,59.4999981842042,2|0,3:2|0:0,0:0:0:0:
437,376,115153,2,0,P|407:381|378:385,1,59.4999981842042
326,230,115419,2,0,P|356:236|384:239,1,59.4999981842042,8|0,0:0|0:0,0:0:0:0:
472,115,115684,2,0,P|442:120|413:124,1,59.4999981842042,2|0,0:0|0:0,0:0:0:0:
291,8,115950,6,0,B|396:-7|359:55|476:34,1,178.499994552612,2|0,3:2|0:0,0:0:0:0:
472,115,116481,6,0,P|462:165|450:258,1,127.5,10|0,0:0|0:0,0:0:0:0:
500,309,117012,6,0,P|464:323|423:319,2,68,6|0|0,3:2|0:0|0:0,0:0:0:0:
472,115,117543,1,10,0:0:0:0:
512,207,117675,1,2,0:0:0:0:
450,151,117808,1,2,0:0:0:0:
502,89,117941,1,0,0:0:0:0:
465,10,118074,2,0,P|435:16|407:19,1,59.4999981842042,2|0,3:2|0:0,0:0:0:0:
323,79,118339,2,0,P|293:85|265:88,1,59.4999981842042,2|0,0:0|0:0,0:0:0:0:
169,40,118605,2,0,P|139:46|111:49,1,59.4999981842042,10|0,0:0|0:0,0:0:0:0:
23,111,118870,1,2,0:0:0:0:
23,111,119003,1,0,0:0:0:0:
57,218,119136,6,0,P|87:224|115:227,1,59.4999981842042,2|2,3:2|0:0,0:0:0:0:
140,326,119401,2,0,P|170:332|198:335,1,59.4999981842042,2|0,0:0|0:0,0:0:0:0:
325,384,119667,2,0,P|328:354|334:325,1,59.4999981842042,10|0,0:0|0:0,0:0:0:0:
261,263,119932,2,0,P|257:233|251:204,1,59.4999981842042,2|0,0:0|0:0,0:0:0:0:
152,99,120198,2,0,P|225:114|297:119,1,118.999996368408,2|2,3:2|0:0,0:0:0:0:
368,140,120596,1,2,0:0:0:0:
368,140,120728,2,0,P|422:101|388:59,1,118.999996368408,10|4,0:0|0:0,0:0:0:0:
269,118,121259,6,0,P|274:147|277:176,1,59.4999981842042,6|0,3:2|0:0,0:0:0:0:
362,210,121525,2,0,P|356:239|353:268,1,59.4999981842042
417,341,121790,1,8,0:0:0:0:
334,371,121923,1,0,0:0:0:0:
267,300,122056,1,2,0:0:0:0:
201,351,122189,1,0,0:0:0:0:
158,326,122321,2,0,P|154:296|148:267,1,59.4999981842042,2|0,3:2|0:0,0:0:0:0:
52,352,122587,2,0,P|55:322|61:293,1,59.4999981842042
0,238,122852,6,0,P|25:170|126:178,1,178.499994552612,10|0,0:0|0:0,0:0:0:0:
148,267,123383,6,0,P|142:217|136:110,1,127.5,2|0,3:2|0:0,0:0:0:0:
147,54,123914,1,8,0:0:0:0:
240,124,124180,1,2,0:0:0:0:
342,149,124445,6,0,P|344:98|357:-7,1,127.5,2|0,3:2|0:0,0:0:0:0:
426,107,124976,2,0,P|423:157|410:263,1,127.5,10|0,0:0|0:0,0:0:0:0:
412,313,125507,6,0,P|459:303|484:276,2,68,6|0|0,3:2|0:0|0:0,0:0:0:0:
340,272,125905,1,2,0:0:0:0:
340,272,126038,1,10,0:0:0:0:
312,299,126171,1,2,0:0:0:0:
234,268,126304,1,2,0:0:0:0:
173,347,126436,1,2,0:0:0:0:
101,260,126569,2,0,P|98:230|92:201,1,59.4999981842042,2|0,3:2|0:0,0:0:0:0:
37,93,126835,2,0,P|64:105|92:114,1,59.4999981842042,2|0,0:0|0:0,0:0:0:0:
260,84,127100,2,0,P|206:122|158:166,1,118.999996368408,10|0,0:2|0:0,0:0:0:0:
167,158,127498,1,2,0:0:0:0:
167,158,127631,5,2,3:2:0:0:
220,229,127764,1,2,0:0:0:0:
308,241,127897,1,2,0:0:0:0:
384,195,128029,1,2,0:0:0:0:
384,105,128162,2,0,P|381:75|375:46,1,59.4999981842042,10|0,0:0|0:0,0:0:0:0:
467,65,128428,2,0,P|464:35|458:6,1,59.4999981842042,2|0,0:0|0:0,0:0:0:0:
489,93,128693,2,0,P|475:162|468:242,1,118.999996368408,2|2,3:2|0:0,0:0:0:0:
511,290,129091,1,0,0:0:0:0:
511,290,129224,1,10,0:0:0:0:
462,368,129357,6,0,P|380:369|360:306,1,118.999996368408,2|0,0:0|0:0,0:0:0:0:
284,380,129755,6,0,P|276:316|264:217,1,127.5,6|0,3:2|0:0,0:0:0:0:
251,175,130286,5,10,0:0:0:0:
251,175,130419,1,2,0:0:0:0:
332,199,130551,1,2,0:0:0:0:
383,120,130684,1,2,0:0:0:0:
455,171,130817,2,0,P|452:200|446:229,1,59.4999981842042,2|0,3:2|0:0,0:0:0:0:
313,296,131082,2,0,P|318:266|321:237,1,59.4999981842042,2|2,0:0|0:0,0:0:0:0:
216,264,131348,1,10,0:0:0:0:
139,338,131481,1,0,0:0:0:0:
137,231,131613,1,2,0:0:0:0:
162,290,131746,1,0,0:0:0:0:
162,290,131879,6,0,P|132:295|103:298,1,59.4999981842042,6|2,3:2|0:0,0:0:0:0:
16,183,132144,2,0,P|46:178|75:175,1,59.4999981842042,2|0,0:0|0:0,0:0:0:0:
271,69,132410,2,0,P|241:74|212:77,1,59.4999981842042,10|0,0:0|0:0,0:0:0:0:
130,57,132675,1,2,0:0:0:0:
200,22,132808,1,2,0:0:0:0:
272,66,132941,1,2,3:2:0:0:
290,148,133074,1,2,0:0:0:0:
219,199,133206,2,0,P|189:195|160:191,1,59.4999981842042,2|0,0:0|0:0,0:0:0:0:
89,229,133472,1,10,0:0:0:0:
99,253,133605,1,2,0:0:0:0:
178,297,133737,1,2,0:0:0:0:
124,358,133870,1,2,0:0:0:0:
211,323,134003,6,0,B|337:306|296:385|437:354,1,229.499992996216,6|2,3:2|0:0,0:0:0:0:
508,319,134534,1,10,0:0:0:0:
440,268,134667,1,2,0:0:0:0:
488,197,134799,1,2,0:0:0:0:
421,28,135065,2,0,P|417:57|413:86,1,59.4999981842042,2|2,3:2|0:0,0:0:0:0:
322,100,135330,1,2,0:0:0:0:
322,100,135463,1,2,0:0:0:0:
256,169,135596,1,10,0:0:0:0:
218,81,135728,1,0,0:0:0:0:
172,190,135861,2,0,P|143:194|114:198,1,59.4999981842042,2|2,0:0|0:0,0:0:0:0:
23,216,136127,5,2,3:2:0:0:
112,235,136259,1,0,0:0:0:0:
16,258,136392,1,2,0:0:0:0:
223,307,136658,5,10,0:0:0:0:
329,281,136790,1,2,0:0:0:0:
435,255,136923,1,2,0:0:0:0:
435,255,137189,6,0,P|439:188|450:41,1,178.499994552612,2|0,3:2|0:0,0:0:0:0:
360,110,137720,6,0,P|316:123|292:125,1,59.4999981842042,10|0,0:0|0:0,0:0:0:0:
379,31,137985,2,0,P|408:35|436:45,1,59.4999981842042,6|0,0:0|0:0,0:0:0:0:
386,144,138251,6,0,P|319:132|211:102,1,170,4|8,3:2|0:0,0:0:0:0:
157,55,138914,1,0,0:0:0:0:
157,55,139047,1,0,0:0:0:0:
270,207,139313,2,0,P|246:288|231:372,1,170,0|10,3:0|0:0,0:0:0:0:
231,372,140242,1,0,0:0:0:0:
231,372,140374,6,0,P|223:319|218:291,1,42.5,0|0,3:0|0:0,0:0:0:0:
152,375,140640,2,0,P|144:322|139:294,1,42.5,2|0,0:0|0:0,0:0:0:0:
235,311,140905,2,0,P|227:258|222:230,1,42.5,8|0,0:0|0:0,0:0:0:0:
151,310,141171,2,0,P|143:257|138:229,1,42.5,2|0,0:0|0:0,0:0:0:0:
63,306,141436,2,0,P|56:247|45:147,1,127.5,2|2,3:2|0:0,0:0:0:0:
26,85,141967,6,0,B|128:77|90:128|199:122,1,178.499994552612,10|0,0:0|0:0,0:0:0:0:
275,97,142498,5,2,3:2:0:0:
287,192,142764,1,0,0:0:0:0:
275,97,143029,1,8,0:0:0:0:
287,192,143295,1,0,0:0:0:0:
363,139,143560,2,0,P|411:148|495:159,1,127.5,2|0,3:2|0:0,0:0:0:0:
488,158,144091,1,10,0:0:0:0:
375,243,144357,1,2,0:0:0:0:
375,243,144490,1,0,0:0:0:0:
454,273,144622,6,0,P|447:321|439:369,1,85,2|0,3:2|0:0,0:0:0:0:
276,247,145153,2,0,P|269:295|261:343,1,85,8|0,0:0|0:0,0:0:0:0:
263,331,145684,2,0,P|214:324|166:316,1,85,0|2,3:0|0:0,0:0:0:0:
239,150,146215,1,10,0:0:0:0:
239,150,146348,2,0,P|197:157|154:162,1,85,2|0,0:0|0:0,0:0:0:0:
81,202,146746,5,0,3:0:0:0:
81,202,147012,2,0,P|74:160|69:117,1,85,0|8,0:0|0:0,0:0:0:0:
26,43,147410,2,0,P|68:36|111:31,1,85
180,67,147808,2,0,P|222:60|265:55,1,85,0|0,3:0|0:0,0:0:0:0:
336,107,148206,1,0,0:0:0:0:
349,82,148339,1,8,0:0:0:0:
360,56,148472,1,0,0:0:0:0:
423,87,148605,1,0,0:0:0:0:
481,110,148737,1,0,0:0:0:0:
414,124,148870,6,0,P|407:171|404:213,1,85,0|0,3:0|0:0,0:0:0:0:
476,316,149401,2,0,P|479:273|485:231,1,85,8|0,0:0|0:0,0:0:0:0:
348,346,149932,2,0,P|272:341|164:321,2,170,0|10|0,3:0|0:0|3:0,0:0:0:0:
269,240,151259,5,2,0:0:0:0:
394,182,151525,1,8,0:0:0:0:
394,182,151658,1,0,0:0:0:0:
394,182,152056,2,0,P|402:119|412:52,1,127.5,0|0,3:0|0:0,0:0:0:0:
476,19,152587,1,8,0:0:0:0:
442,63,152720,1,0,0:0:0:0:
399,29,152852,1,0,0:0:0:0:
382,14,152985,1,0,0:0:0:0:
333,81,153118,6,0,P|272:88|208:98,1,118.999996368408,0|0,3:0|0:0,0:0:0:0:
155,179,153649,2,0,P|94:171|30:161,1,118.999996368408,8|0,0:0|0:0,0:0:0:0:
209,271,154180,2,0,P|249:330|374:297,1,178.499994552612,0|0,3:0|0:0,0:0:0:0:
423,353,154711,6,0,P|428:288|437:193,1,118.999996368408,8|0,0:0|0:0,0:0:0:0:
505,200,155109,2,0,P|498:157|493:115,1,59.4999981842042
