osu file format v14

[General]
AudioFilename: audio.mp3
AudioLeadIn: 0
PreviewTime: 51472
Countdown: 0
SampleSet: Soft
StackLeniency: 0.7
Mode: 2
LetterboxInBreaks: 0
WidescreenStoryboard: 1

[Editor]
Bookmarks: 320,6955,15803,24651,33499,42347,52163,83269,87693,89905
DistanceSpacing: 1.3
BeatDivisor: 8
GridSize: 4
TimelineZoom: 3.399999

[Metadata]
Title:Fist Bump
TitleUnicode:Fist Bump
Artist:Douglas Robb (Hoobastank)
ArtistUnicode:Douglas Robb (Hoobastank)
Creator:rew0825
Version:Salad
Source:ソニックフォース
Tags:Sonic Forces Vocal Traxx On The Edge A Hero Will Rise Original Soundtrack Main Theme Hedgehog Wave Master Entertainment 大谷 智哉 Tomoya Ohtani 江口 貴勅 Takahito Eguchi SEGA Microsoft Sony Nintendo Xbox One XONE Playstation 4 PS4 Nintendo Switch NS PC Join Resistance 25th Anniversary maimai Ascendance
BeatmapID:1637781
BeatmapSetID:779577

[Difficulty]
HPDrainRate:4
CircleSize:3
OverallDifficulty:7
ApproachRate:7
SliderMultiplier:1.2
SliderTickRate:1

[Events]
//Background and Video events
0,0,"BG.jpg",0,0
//Break Periods
//Storyboard Layer 0 (Background)
//Storyboard Layer 1 (Fail)
//Storyboard Layer 2 (Pass)
//Storyboard Layer 3 (Foreground)
//Storyboard Sound Samples

[TimingPoints]
320,276.497695852535,4,2,0,30,1,0
4743,-100,4,2,0,40,0,0
6955,-100,4,2,1,80,0,0
15803,-100,4,2,1,60,0,0
21748,-100,4,2,0,60,0,0
21886,-100,4,2,1,60,0,0
22025,-100,4,2,0,60,0,0
22163,-100,4,2,1,60,0,0
31287,-100,4,2,1,40,0,0
31564,-100,4,2,1,60,0,0
52163,-100,4,2,1,80,0,1
68891,-100,4,2,1,60,0,0
69997,-100,4,2,1,90,0,1
83269,-100,4,2,1,70,0,0
87693,-100,4,2,1,40,0,0
89905,-100,4,2,1,60,0,0

[Colours]
Combo1 : 255,4,4
Combo2 : 4,4,255

[HitObjects]
96,296,320,6,0,P|64:236|88:196,1,120,2|2,0:0|0:0,0:0:0:0:
147,196,734,2,0,L|271:196,1,120,2|2,0:0|0:0,0:0:0:0:
328,196,1149,1,2,0:0:0:0:
267,196,1287,6,0,L|147:196,1,120,2|2,0:0|0:0,0:0:0:0:
284,196,1840,1,2,0:0:0:0:
332,172,1978,1,2,0:0:0:0:
332,116,2117,1,0,0:0:0:0:
284,92,2255,1,2,0:0:0:0:
148,92,2531,6,0,P|116:152|140:192,1,120,2|2,0:0|0:0,0:0:0:0:
199,192,2946,2,0,L|324:192,1,120,2|2,0:0|0:0,0:0:0:0:
380,192,3360,1,2,0:0:0:0:
319,192,3499,6,0,L|200:192,1,120,2|2,0:0|0:0,0:0:0:0:
336,192,4051,1,2,0:0:0:0:
384,216,4189,1,2,0:0:0:0:
384,272,4328,1,2,0:0:0:0:
336,296,4466,1,2,0:0:0:0:
96,304,4743,1,0,1:0:0:0:
256,192,5020,12,0,6679,0:0:0:0:
312,308,6955,6,0,L|372:308,2,60,6|2|8,0:0|0:0|0:0,0:0:0:0:
236,308,7370,2,0,L|116:308,1,120,2|2,0:0|0:0,0:0:0:0:
176,308,7785,1,8,0:0:0:0:
252,308,7923,6,0,L|372:308,1,120,2|2,0:0|0:0,0:0:0:0:
312,308,8338,1,8,0:0:0:0:
176,308,8614,2,0,L|116:308,2,60,2|2|8,0:0|0:0|0:0,0:0:0:0:
312,308,9167,5,2,0:0:0:0:
263,272,9306,1,2,0:0:0:0:
282,215,9444,1,8,0:0:0:0:
342,215,9582,2,0,L|464:216,1,120,2|2,0:0|0:0,0:0:0:0:
404,216,9997,1,8,0:0:0:0:
328,216,10135,6,0,L|208:216,1,120,2|2,0:0|0:0,0:0:0:0:
268,216,10550,1,8,0:0:0:0:
404,216,10826,2,0,L|468:216,2,60,2|2|8,0:0|0:0|0:0,0:0:0:0:
268,216,11379,6,0,L|208:216,2,60,2|2|8,0:0|0:0|0:0,0:0:0:0:
344,216,11794,2,0,P|380:168|344:136,1,120,2|2,0:0|0:0,0:0:0:0:
284,136,12209,1,8,0:0:0:0:
208,136,12347,6,0,P|172:88|208:56,1,120,2|2,0:0|0:0,0:0:0:0:
268,56,12762,1,8,0:0:0:0:
344,56,12900,1,2,0:0:0:0:
204,116,13315,1,8,0:0:0:0:
340,116,13591,6,0,L|400:116,2,60,8|0|8,0:0|0:0|0:0,0:0:0:0:
204,116,14144,2,0,L|136:116,2,60,8|0|8,0:0|0:0|0:0,0:0:0:0:
340,116,14697,5,2,0:0:0:0:
416,116,14836,2,0,L|424:176,1,60,8|8,0:0|0:0,0:0:0:0:
348,176,15112,2,0,L|340:116,1,60,2|8,0:0|0:0,0:0:0:0:
416,116,15389,2,0,L|424:176,1,60,2|8,0:0|0:0,0:0:0:0:
184,116,15803,5,4,0:0:0:0:
324,116,16080,2,0,P|348:164|308:208,1,120,2|2,0:0|0:0,0:0:0:0:
248,208,16495,1,0,0:0:0:0:
176,208,16633,1,2,0:0:0:0:
296,292,16909,6,0,P|308:240|256:212,1,120,2|2,0:0|0:0,0:0:0:0:
180,212,17324,2,0,P|132:128|280:64,1,300,0|2,0:0|0:0,0:0:0:0:
144,64,18292,6,0,P|120:112|160:156,1,120,2|2,0:0|0:0,0:0:0:0:
220,156,18707,1,0,0:0:0:0:
292,156,18845,1,2,0:0:0:0:
172,240,19121,6,0,P|188:192|248:168,1,120,2|2,0:0|0:0,0:0:0:0:
320,177,19536,2,0,P|396:137|284:33,1,300,0|2,0:0|0:0,0:0:0:0:
416,32,20504,6,0,P|440:80|400:124,1,120,2|2,0:0|0:0,0:0:0:0:
340,124,20919,1,0,0:0:0:0:
268,124,21057,1,2,0:0:0:0:
388,208,21333,6,0,P|408:164|364:116,1,120,2|2,0:0|0:0,0:0:0:0:
304,116,21748,1,2,0:0:0:0:
228,116,21886,1,2,0:0:0:0:
176,128,22025,1,2,0:0:0:0:
152,180,22163,1,2,0:0:0:0:
164,236,22301,1,0,0:0:0:0:
212,256,22439,5,2,0:0:0:0:
452,108,22716,2,0,L|328:108,2,120,4|4|4,0:0|0:0|0:0,0:0:0:0:
316,108,23545,5,2,0:0:0:0:
180,108,23822,1,8,0:0:0:0:
128,116,23960,1,2,0:0:0:0:
96,156,24098,1,8,0:0:0:0:
104,204,24237,1,2,0:0:0:0:
148,228,24375,1,8,0:0:0:0:
388,228,24651,5,4,0:0:0:0:
252,228,24928,2,0,L|192:228,2,60,8|2|2,0:0|0:0|0:0,0:0:0:0:
388,228,25481,1,8,0:0:0:0:
252,228,25757,6,2,P|214:184|250:148,1,120,2|8,0:0|0:0,0:0:0:0:
326,148,26172,2,0,P|376:112|308:48,1,180,2|8,0:0|0:0,0:0:0:0:
172,48,26863,5,2,0:0:0:0:
308,48,27140,2,0,L|380:48,2,60,8|2|2,0:0|0:0|0:0,0:0:0:0:
172,48,27693,1,8,0:0:0:0:
308,48,27969,6,0,P|324:100|276:132,1,120,2|8,0:0|0:0,0:0:0:0:
200,132,28384,2,0,P|152:204|212:256,1,180,2|8,0:0|0:0,0:0:0:0:
452,256,29075,5,4,0:0:0:0:
316,256,29352,1,8,0:0:0:0:
260,256,29490,1,2,0:0:0:0:
204,256,29628,1,2,0:0:0:0:
340,256,29905,1,8,0:0:0:0:
204,256,30181,6,0,P|156:208|168:164,1,120,2|8,0:0|0:0,0:0:0:0:
244,191,30596,2,0,P|272:111|204:63,1,180,2|8,0:0|0:0,0:0:0:0:
70,64,31287,5,2,0:0:0:0:
310,64,31564,2,0,L|192:80,2,120,4|4|4,0:0|0:0|0:0,0:0:0:0:
176,64,32393,6,0,L|304:64,1,120,2|8,0:0|0:0,0:0:0:0:
432,64,32946,2,0,L|312:64,1,120,8|8,0:0|0:0,0:0:0:0:
72,64,33499,6,0,P|44:120|72:164,1,120,4|8,0:0|0:0,0:0:0:0:
148,164,33914,1,4,0:0:0:0:
284,164,34190,1,2,0:0:0:0:
148,164,34467,6,0,L|328:164,1,180,4|8,0:0|0:0,0:0:0:0:
192,164,35158,2,0,L|132:164,2,60,2|2|8,0:0|0:0|0:0,0:0:0:0:
432,164,35711,6,0,P|460:220|432:264,1,120,4|8,0:0|0:0,0:0:0:0:
356,264,36126,1,4,0:0:0:0:
220,264,36402,1,2,0:0:0:0:
356,264,36679,6,0,L|176:264,1,180,4|8,0:0|0:0,0:0:0:0:
312,264,37370,2,0,L|380:264,2,60,2|2|8,0:0|0:0|0:0,0:0:0:0:
72,264,37923,6,0,P|44:208|72:164,1,120,4|8,0:0|0:0,0:0:0:0:
148,164,38338,1,4,0:0:0:0:
284,164,38614,1,2,0:0:0:0:
148,164,38891,6,0,P|88:216|148:268,1,180,4|8,0:0|0:0,0:0:0:0:
284,268,39582,2,0,L|344:268,2,60,2|2|8,0:0|0:0|0:0,0:0:0:0:
148,267,40135,6,0,P|104:220|88:168,1,120,8|8,0:0|0:0,0:0:0:0:
225,167,40688,2,0,L|329:107,1,120,8|8,0:0|0:0,0:0:0:0:
464,108,41241,6,0,L|360:168,1,120,8|8,0:0|0:0,0:0:0:0:
224,208,41794,2,0,P|196:156|224:108,1,120,8|8,0:0|0:0,0:0:0:0:
464,108,42347,6,0,L|340:108,1,120,4|2,0:0|0:0,0:0:0:0:
208,108,42900,1,8,0:0:0:0:
344,108,43177,6,0,L|348:172,1,60,2|2,0:0|0:0,0:0:0:0:
212,168,43591,2,0,L|208:104,1,60,2|2,0:0|0:0,0:0:0:0:
344,108,44006,2,0,P|376:128|344:188,1,120,8|2,0:0|0:0,0:0:0:0:
208,188,44559,6,0,L|328:188,1,120,2|2,0:0|0:0,0:0:0:0:
464,188,45112,1,8,0:0:0:0:
328,188,45389,6,0,L|324:128,1,60,2|2,0:0|0:0,0:0:0:0:
460,128,45803,2,0,L|463:187,1,60,2|2,0:0|0:0,0:0:0:0:
327,188,46218,2,0,P|264:176|224:140,1,120,8|2,0:0|0:0,0:0:0:0:
464,108,46771,5,4,0:0:0:0:
344,108,47048,1,8,0:0:0:0:
472,108,47324,1,8,0:0:0:0:
336,108,47601,1,8,0:0:0:0:
184,108,47877,5,8,0:0:0:0:
320,108,48154,1,8,0:0:0:0:
440,108,48430,1,8,0:0:0:0:
320,108,48707,1,8,0:0:0:0:
172,108,49121,6,0,L|168:168,1,60,8|8,0:0|0:0,0:0:0:0:
304,168,49536,2,0,L|308:228,1,60,8|8,0:0|0:0,0:0:0:0:
68,228,49951,2,0,P|36:172|68:136,1,120,4|0,0:0|0:0,0:0:0:0:
144,136,50366,2,0,L|200:116,1,60,8|2,0:0|0:0,0:0:0:0:
124,136,50642,2,0,L|68:116,2,60,8|2|8,0:0|0:0|0:0,0:0:0:0:
368,136,51195,1,4,0:0:0:0:
360,228,52163,6,4,P|396:176|360:152,1,120,4|0,0:0|0:0,0:0:0:0:
288,152,52578,1,8,0:0:0:0:
152,152,52854,2,0,L|92:152,2,60,2|2|8,0:0|0:0|0:0,0:0:0:0:
288,152,53407,5,2,0:0:0:0:
228,152,53545,1,2,0:0:0:0:
168,152,53684,1,8,0:0:0:0:
304,152,53960,2,0,L|368:152,2,60,2|2|8,0:0|0:0|0:0,0:0:0:0:
156,152,54375,6,4,P|120:204|156:228,1,120,4|0,0:0|0:0,0:0:0:0:
228,228,54790,1,8,0:0:0:0:
364,228,55066,2,0,L|424:228,2,60,2|2|8,0:0|0:0|0:0,0:0:0:0:
228,228,55619,5,2,0:0:0:0:
288,228,55757,1,2,0:0:0:0:
348,228,55896,1,8,0:0:0:0:
212,228,56172,2,0,L|148:228,2,60,2|2|8,0:0|0:0|0:0,0:0:0:0:
360,288,56587,6,0,P|424:264|464:228,1,120,4|0,0:0|0:0,0:0:0:0:
404,228,57002,1,8,0:0:0:0:
268,228,57278,1,2,0:0:0:0:
216,228,57416,1,2,0:0:0:0:
160,228,57555,1,8,0:0:0:0:
296,228,57831,5,2,0:0:0:0:
348,228,57969,1,2,0:0:0:0:
400,228,58108,1,8,0:0:0:0:
264,228,58384,2,0,L|204:228,2,60,2|2|8,0:0|0:0|0:0,0:0:0:0:
416,228,58799,6,4,P|452:176|416:152,1,120,4|0,0:0|0:0,0:0:0:0:
344,152,59214,1,8,0:0:0:0:
208,152,59490,1,2,0:0:0:0:
260,152,59628,1,2,0:0:0:0:
316,152,59767,1,8,0:0:0:0:
76,152,60043,6,0,L|72:212,1,60,4|0,0:0|0:0,0:0:0:0:
148,212,60320,2,0,L|152:272,1,60,8|0,0:0|0:0,0:0:0:0:
79,211,60596,2,0,L|75:271,1,60,2|2,0:0|0:0,0:0:0:0:
332,272,61011,6,0,L|452:272,1,120,4|0,0:0|0:0,0:0:0:0:
392,272,61425,1,8,0:0:0:0:
256,272,61702,2,0,L|196:272,2,60,2|2|8,0:0|0:0|0:0,0:0:0:0:
392,272,62255,5,2,0:0:0:0:
340,272,62393,1,2,0:0:0:0:
288,272,62531,1,8,0:0:0:0:
424,272,62808,2,0,L|484:272,2,60,2|2|8,0:0|0:0|0:0,0:0:0:0:
272,272,63223,6,4,P|228:248|256:196,1,120,4|0,0:0|0:0,0:0:0:0:
316,196,63638,1,8,0:0:0:0:
452,196,63914,1,2,0:0:0:0:
392,196,64052,1,2,0:0:0:0:
332,196,64190,1,8,0:0:0:0:
196,196,64467,6,0,L|136:196,2,60,2|2|8,0:0|0:0|0:0,0:0:0:0:
272,196,64882,2,4,P|308:144|272:120,1,120,2|2,0:0|0:0,0:0:0:0:
197,120,65296,1,8,0:0:0:0:
440,120,65573,6,0,L|272:196,2,180,4|4|8,0:0|0:0|0:0,0:0:0:0:
200,120,66679,6,0,L|32:196,2,180,4|4|8,0:0|0:0|0:0,0:0:0:0:
336,120,67785,6,0,L|212:120,1,120,2|8,0:0|0:0,0:0:0:0:
76,120,68338,2,0,L|196:120,1,120,8|8,0:0|0:0,0:0:0:0:
436,120,68891,5,4,0:0:0:0:
300,120,69167,1,8,0:0:0:0:
226,121,69306,1,2,0:0:0:0:
204,72,69444,1,8,0:0:0:0:
260,68,69582,1,2,0:0:0:0:
332,68,69720,1,8,0:0:0:0:
92,120,69997,6,0,P|88:176|136:208,1,120,4|8,0:0|0:0,0:0:0:0:
270,208,70550,1,0,0:0:0:0:
212,208,70688,1,2,0:0:0:0:
156,208,70826,1,8,0:0:0:0:
288,208,71103,6,0,P|320:180|288:120,1,120,2|8,0:0|0:0,0:0:0:0:
228,120,71518,1,2,0:0:0:0:
96,120,71794,1,2,0:0:0:0:
156,120,71932,1,8,0:0:0:0:
289,120,72209,6,0,P|332:160|308:208,1,120,2|8,0:0|0:0,0:0:0:0:
172,208,72762,2,0,L|112:208,2,60,0|2|8,0:0|0:0|0:0,0:0:0:0:
308,207,73315,6,0,P|340:179|308:119,1,120,2|8,0:0|0:0,0:0:0:0:
248,119,73730,1,2,0:0:0:0:
112,120,74006,1,2,0:0:0:0:
172,120,74144,1,8,0:0:0:0:
412,104,74421,6,0,P|452:144|452:204,1,120,4|8,0:0|0:0,0:0:0:0:
316,204,74974,1,0,0:0:0:0:
256,204,75112,1,2,0:0:0:0:
196,204,75250,1,8,0:0:0:0:
60,200,75527,6,0,P|72:260|124:276,1,120,2|8,0:0|0:0,0:0:0:0:
183,276,75942,1,2,0:0:0:0:
316,276,76218,1,2,0:0:0:0:
256,276,76356,1,8,0:0:0:0:
122,276,76633,6,0,P|88:240|88:172,1,120,2|8,0:0|0:0,0:0:0:0:
224,172,77186,1,0,0:0:0:0:
284,172,77324,1,2,0:0:0:0:
344,172,77462,1,8,0:0:0:0:
480,172,77739,6,0,P|444:220|388:232,1,120,2|8,0:0|0:0,0:0:0:0:
327,231,78154,1,2,0:0:0:0:
191,231,78430,1,2,0:0:0:0:
251,231,78568,1,8,0:0:0:0:
492,244,78845,6,0,P|460:188|412:164,1,120,4|8,0:0|0:0,0:0:0:0:
276,160,79398,1,0,0:0:0:0:
336,160,79536,1,2,0:0:0:0:
396,160,79674,1,8,0:0:0:0:
260,160,79951,6,0,L|136:160,1,120,2|8,0:0|0:0,0:0:0:0:
200,160,80366,1,2,0:0:0:0:
332,160,80642,1,2,0:0:0:0:
272,160,80780,1,8,0:0:0:0:
140,160,81057,6,0,P|88:192|108:236,1,120,2|8,0:0|0:0,0:0:0:0:
244,236,81610,1,0,0:0:0:0:
192,236,81748,1,2,0:0:0:0:
140,236,81886,1,8,0:0:0:0:
276,236,82163,6,0,P|312:192|276:152,1,120,2|8,0:0|0:0,0:0:0:0:
216,152,82578,1,2,0:0:0:0:
352,152,82854,1,2,0:0:0:0:
292,152,82992,1,8,0:0:0:0:
52,152,83269,6,0,P|40:252|156:284,1,240,4|8,0:0|0:0,0:0:0:0:
352,288,84237,5,2,0:0:0:0:
216,288,84513,2,0,L|212:228,1,60,2|2,0:0|0:0,0:0:0:0:
347,228,84928,1,8,0:0:0:0:
136,228,85481,5,8,0:0:0:0:
256,228,85757,1,2,0:0:0:0:
120,228,86034,1,8,0:0:0:0:
272,228,86310,1,2,0:0:0:0:
136,228,86587,6,0,P|104:176|140:144,1,120,8|2,0:0|0:0,0:0:0:0:
212,144,87002,1,0,0:0:0:0:
364,145,87140,2,0,L|368:208,1,60,8|8,0:0|0:0,0:0:0:0:
308,204,87416,1,0,0:0:0:0:
256,192,87693,12,4,89905,0:0:0:0:
