osu file format v14

[General]
AudioFilename: audio.mp3
AudioLeadIn: 0
PreviewTime: 51472
Countdown: 0
SampleSet: Soft
StackLeniency: 0.7
Mode: 2
LetterboxInBreaks: 0
WidescreenStoryboard: 1

[Editor]
Bookmarks: 320,6955,15803,24651,33499,42347,52163,83269,87693,89905
DistanceSpacing: 2.9
BeatDivisor: 8
GridSize: 4
TimelineZoom: 3.399999

[Metadata]
Title:Fist Bump
TitleUnicode:Fist Bump
Artist:Douglas Robb (Hoobastank)
ArtistUnicode:Douglas Robb (Hoobastank)
Creator:rew0825
Version:Rain
Source:ソニックフォース
Tags:Sonic Forces Vocal Traxx On The Edge A Hero Will Rise Original Soundtrack Main Theme Hedgehog Wave Master Entertainment 大谷 智哉 Tomoya Ohtani 江口 貴勅 Takahito Eguchi SEGA Microsoft Sony Nintendo Xbox One XONE Playstation 4 PS4 Nintendo Switch NS PC Join Resistance 25th Anniversary maimai Ascendance
BeatmapID:1642593
BeatmapSetID:779577

[Difficulty]
HPDrainRate:6
CircleSize:4
OverallDifficulty:9
ApproachRate:9
SliderMultiplier:1.6
SliderTickRate:1

[Events]
//Background and Video events
0,0,"BG.jpg",0,0
//Break Periods
//Storyboard Layer 0 (Background)
//Storyboard Layer 1 (Fail)
//Storyboard Layer 2 (Pass)
//Storyboard Layer 3 (Foreground)
//Storyboard Sound Samples

[TimingPoints]
320,276.497695852535,4,2,0,30,1,0
4743,-100,4,2,0,40,0,0
6955,-100,4,2,1,80,0,0
15803,-100,4,2,1,60,0,0
21748,-100,4,2,0,60,0,0
21886,-100,4,2,1,60,0,0
22025,-100,4,2,0,60,0,0
22163,-100,4,2,1,60,0,0
31287,-100,4,2,1,40,0,0
31564,-100,4,2,1,60,0,0
52163,-100,4,2,1,80,0,1
68891,-100,4,2,1,60,0,0
69997,-100,4,2,1,90,0,1
83269,-100,4,2,1,70,0,0
87693,-100,4,2,1,40,0,0
89905,-100,4,2,1,60,0,0

[Colours]
Combo1 : 255,4,4
Combo2 : 4,4,255

[HitObjects]
288,192,320,5,2,0:0:0:0:
188,192,458,1,0,0:0:0:0:
180,144,527,1,0,0:0:0:0:
172,96,596,1,2,0:0:0:0:
312,96,734,2,0,P|376:136|352:204,1,160,2|2,0:0|0:0,0:0:0:0:
272,208,1149,1,2,0:0:0:0:
132,208,1287,6,0,P|104:144|168:100,1,160,2|2,0:0|0:0,0:0:0:0:
408,100,1840,1,2,0:0:0:0:
268,100,1978,2,0,L|260:180,1,80,2|0,0:0|0:0,0:0:0:0:
400,180,2255,2,0,L|408:100,1,80,2|0,0:0|0:0,0:0:0:0:
188,100,2531,5,2,0:0:0:0:
88,100,2669,1,0,0:0:0:0:
80,148,2738,1,0,0:0:0:0:
72,196,2807,1,2,0:0:0:0:
212,196,2946,2,0,L|372:196,1,160,2|2,0:0|0:0,0:0:0:0:
292,196,3361,1,2,0:0:0:0:
152,196,3499,6,0,P|104:140|152:84,1,160,2|2,0:0|0:0,0:0:0:0:
392,84,4052,1,2,0:0:0:0:
252,84,4190,1,2,0:0:0:0:
212,92,4259,1,0,0:0:0:0:
180,112,4328,1,2,0:0:0:0:
160,152,4397,1,0,0:0:0:0:
160,192,4466,1,2,0:0:0:0:
180,232,4535,1,0,0:0:0:0:
212,256,4604,1,2,0:0:0:0:
252,264,4674,1,0,0:0:0:0:
412,264,4743,6,0,L|493:264,2,80,0|2|2,1:0|0:0|0:0,0:0:0:0:
272,264,5158,2,0,L|112:264,1,160,2|2,0:0|0:0,0:0:0:0:
192,264,5573,1,2,0:0:0:0:
332,264,5711,6,0,L|412:264,1,80,2|0,0:0|0:0,0:0:0:0:
272,264,5988,2,0,L|192:264,1,80,2|0,0:0|0:0,0:0:0:0:
412,264,6264,2,0,P|496:164|376:64,1,320,2|0,0:0|0:0,0:0:0:0:
155,64,6955,6,0,L|76:64,2,80,6|2|8,0:0|0:0|0:0,0:0:0:0:
376,64,7370,2,0,P|424:128|376:172,1,160,2|2,0:0|0:0,0:0:0:0:
296,172,7785,1,8,0:0:0:0:
75,171,7923,6,0,P|48:232|116:272,1,160,2|2,0:0|0:0,0:0:0:0:
256,272,8338,2,0,L|276:192,1,80,8|0,0:0|0:0,0:0:0:0:
136,192,8614,2,0,L|52:192,2,80,2|2|8,0:0|0:0|0:0,0:0:0:0:
476,192,9167,6,0,L|396:192,2,80,2|2|8,0:0|0:0|0:0,0:0:0:0:
256,192,9582,2,0,L|96:192,1,160,2|2,0:0|0:0,0:0:0:0:
176,192,9997,1,8,0:0:0:0:
396,192,10135,6,0,P|468:204|476:280,1,160,2|2,0:0|0:0,0:0:0:0:
336,280,10550,2,0,L|316:200,1,80,8|0,0:0|0:0,0:0:0:0:
456,204,10826,2,0,L|376:204,2,80,2|2|8,0:0|0:0|0:0,0:0:0:0:
116,204,11379,6,0,L|36:204,2,80,2|2|8,0:0|0:0|0:0,0:0:0:0:
336,204,11794,2,0,B|416:204|416:204|332:204,1,160,2|2,0:0|0:0,0:0:0:0:
256,204,12209,1,8,0:0:0:0:
36,204,12347,6,0,P|32:144|116:116,1,160,2|2,0:0|0:0,0:0:0:0:
196,116,12762,1,8,0:0:0:0:
416,116,12900,2,0,P|444:164|376:224,1,160,2|2,0:0|0:0,0:0:0:0:
236,224,13315,2,0,L|152:224,1,80,8|0,0:0|0:0,0:0:0:0:
376,224,13591,5,8,0:0:0:0:
440,176,13729,1,0,0:0:0:0:
416,100,13867,1,8,0:0:0:0:
336,100,14006,1,0,0:0:0:0:
116,100,14144,1,8,0:0:0:0:
52,148,14282,1,0,0:0:0:0:
76,224,14420,1,8,0:0:0:0:
156,224,14559,1,0,0:0:0:0:
296,224,14697,1,2,0:0:0:0:
76,224,14836,6,0,L|68:144,1,80,8|8,0:0|0:0,0:0:0:0:
208,144,15112,1,2,0:0:0:0:
243,161,15181,1,2,0:0:0:0:
252,200,15250,1,8,0:0:0:0:
227,231,15319,1,8,0:0:0:0:
187,231,15388,1,2,0:0:0:0:
48,232,15527,2,0,L|128:232,1,80,8|8,0:0|0:0,0:0:0:0:
348,232,15803,5,4,0:0:0:0:
368,268,16080,2,0,L|376:188,1,80,2|0,0:0|0:0,0:0:0:0:
276,188,16356,2,0,L|284:108,1,80,2|0,0:0|0:0,0:0:0:0:
184,108,16633,2,0,L|192:28,1,80,2|0,0:0|0:0,0:0:0:0:
412,28,16909,6,0,P|473:84|449:148,1,160,2|2,0:0|0:0,0:0:0:0:
368,148,17324,1,0,0:0:0:0:
228,148,17462,2,0,P|167:204|191:268,1,160,2|2,0:0|0:0,0:0:0:0:
272,268,17877,1,0,0:0:0:0:
412,268,18015,6,0,L|332:268,1,80,2|0,0:0|0:0,0:0:0:0:
192,268,18292,2,0,L|184:188,1,80,2|0,0:0|0:0,0:0:0:0:
284,188,18568,2,0,L|276:108,1,80,2|0,0:0|0:0,0:0:0:0:
376,108,18845,2,0,L|368:28,1,80,2|0,0:0|0:0,0:0:0:0:
148,28,19121,6,0,P|96:92|132:148,1,160,2|2,0:0|0:0,0:0:0:0:
212,148,19536,1,0,0:0:0:0:
352,148,19674,1,2,0:0:0:0:
212,148,19813,2,0,P|160:204|212:240,1,160,2|2,0:3|0:3,0:0:0:0:
352,240,20227,6,0,L|412:188,1,80,2|0,0:0|0:0,0:0:0:0:
272,240,20504,2,0,L|264:160,1,80,2|0,0:0|0:0,0:0:0:0:
364,160,20780,2,0,L|356:80,1,80,2|0,0:0|0:0,0:0:0:0:
456,80,21057,2,0,L|448:0,1,80,2|0,0:0|0:0,0:0:0:0:
308,0,21333,6,0,P|284:68|348:112,1,160,2|2,0:0|0:0,0:0:0:0:
428,112,21748,1,2,0:0:0:0:
208,112,21886,1,2,0:0:0:0:
149,172,22025,1,2,0:0:0:0:
209,236,22163,1,2,0:0:0:0:
289,236,22301,1,0,0:0:0:0:
428,236,22439,6,0,L|368:184,1,80,2|0,0:0|0:0,0:0:0:0:
148,184,22716,1,4,0:0:0:0:
368,184,22992,1,4,0:0:0:0:
148,184,23269,1,4,0:0:0:0:
488,184,23545,5,2,0:0:0:0:
388,200,23684,2,0,L|340:264,1,80,8|8,0:0|0:0,0:0:0:0:
440,264,23960,1,2,0:0:0:0:
436,228,24029,1,2,0:0:0:0:
416,200,24098,1,8,0:0:0:0:
384,184,24167,1,8,0:0:0:0:
348,184,24237,1,2,0:0:0:0:
208,184,24375,2,0,L|148:132,1,80,8|8,0:0|0:0,0:0:0:0:
368,132,24651,5,4,0:0:0:0:
388,164,24928,1,8,0:0:0:0:
248,164,25066,2,0,L|240:244,1,80,2|2,0:0|0:0,0:0:0:0:
320,244,25343,1,2,0:0:0:0:
460,244,25481,2,0,L|452:164,1,80,8|0,0:0|0:0,0:0:0:0:
232,164,25757,6,0,P|172:205|212:265,1,160,2|8,0:0|0:0,0:0:0:0:
292,264,26172,1,2,0:0:0:0:
432,264,26310,2,0,P|484:228|432:172,1,160,2|8,0:0|0:0,0:0:0:0:
352,172,26725,1,2,0:0:0:0:
133,172,26863,5,2,0:0:0:0:
112,136,27140,1,8,0:0:0:0:
252,136,27278,2,0,L|308:80,1,80,2|2,0:0|0:0,0:0:0:0:
228,76,27555,1,2,0:0:0:0:
88,76,27693,2,0,L|144:132,1,80,8|0,0:0|0:0,0:0:0:0:
364,132,27969,6,0,P|412:176|364:240,1,160,2|8,0:0|0:0,0:0:0:0:
284,240,28384,1,2,0:0:0:0:
144,240,28522,2,0,P|176:184|264:168,1,160,2|8,0:0|0:0,0:0:0:0:
344,168,28937,1,2,0:0:0:0:
124,167,29075,5,4,0:0:0:0:
104,132,29352,1,8,0:0:0:0:
244,132,29490,2,0,L|252:212,1,80,2|2,0:0|0:0,0:0:0:0:
172,212,29767,1,2,0:0:0:0:
32,212,29905,2,0,L|40:132,1,80,8|0,0:0|0:0,0:0:0:0:
259,132,30181,6,0,P|304:184|252:244,1,160,2|8,0:0|0:0,0:0:0:0:
172,243,30596,1,2,0:0:0:0:
32,244,30734,2,0,L|112:244,1,80,2|2,0:0|0:0,0:0:0:0:
252,244,31011,2,0,P|332:224|372:160,1,160,8|2,0:0|0:0,0:0:0:0:
31,161,31564,5,4,0:0:0:0:
232,160,31840,1,4,0:0:0:0:
31,161,32117,1,4,0:0:0:0:
372,160,32393,5,2,0:0:0:0:
452,160,32531,2,0,L|460:240,1,80,8|8,0:0|0:0,0:0:0:0:
320,240,32808,2,0,L|312:160,1,80,2|8,0:0|0:0,0:0:0:0:
452,159,33084,1,2,0:0:0:0:
312,160,33223,1,8,0:0:0:0:
272,188,33292,1,2,0:0:0:0:
272,236,33361,1,8,0:0:0:0:
312,260,33430,1,0,0:0:0:0:
472,160,33499,6,0,P|500:220|432:264,1,160,4|8,0:0|0:0,0:0:0:0:
213,264,33914,2,0,P|185:204|253:160,1,160,4|2,0:0|0:0,0:0:0:0:
332,160,34329,1,8,0:0:0:0:
112,160,34467,6,0,B|-48:156|116:160,1,160,4|0,0:0|0:0,0:0:0:0:
252,160,34882,2,0,L|260:244,1,80,8|0,0:0|0:0,0:0:0:0:
168,240,35158,1,2,0:0:0:0:
260,240,35296,1,2,0:0:0:0:
400,240,35435,2,0,L|320:240,1,80,8|0,0:0|0:0,0:0:0:0:
89,166,35711,6,0,P|37:218|89:266,1,160,4|8,0:0|0:0,0:0:0:0:
308,168,36126,2,0,P|360:220|308:268,1,160,4|2,0:0|0:0,0:0:0:0:
228,268,36541,1,8,0:0:0:0:
448,268,36679,6,0,B|560:156|448:272,1,160,4|0,0:0|0:0,0:0:0:0:
308,268,37094,2,0,L|300:184,1,80,8|0,0:0|0:0,0:0:0:0:
392,188,37370,1,2,0:0:0:0:
300,188,37508,1,2,0:0:0:0:
160,188,37647,2,0,L|152:268,1,80,8|0,0:0|0:0,0:0:0:0:
372,168,37923,6,0,P|424:220|372:268,1,160,4|8,0:0|0:0,0:0:0:0:
153,170,38338,2,0,P|101:222|153:270,1,160,4|2,0:0|0:0,0:0:0:0:
233,270,38753,1,8,0:0:0:0:
12,272,38891,2,4,P|56:212|136:188,1,160,4|0,0:0|0:0,0:0:0:0:
276,188,39306,2,0,L|284:92,1,80,8|0,0:0|0:0,0:0:0:0:
192,108,39582,1,2,0:0:0:0:
284,108,39720,1,2,0:0:0:0:
424,108,39859,2,0,L|344:108,1,80,8|0,0:0|0:0,0:0:0:0:
124,108,40135,5,8,0:0:0:0:
59,155,40274,1,0,0:0:0:0:
84,231,40412,1,8,0:0:0:0:
164,231,40550,1,0,0:0:0:0:
384,232,40688,1,8,0:0:0:0:
449,185,40827,1,0,0:0:0:0:
424,109,40965,1,8,0:0:0:0:
344,109,41103,1,2,0:0:0:0:
104,108,41241,5,8,0:0:0:0:
32,140,41379,1,0,0:0:0:0:
44,216,41517,1,8,0:0:0:0:
124,232,41656,1,2,0:0:0:0:
324,232,41794,1,8,0:0:0:0:
404,232,41932,1,8,0:0:0:0:
316,108,42070,1,8,0:0:0:0:
400,108,42209,1,8,0:0:0:0:
144,108,42347,6,0,P|96:172|144:216,1,160,4|2,0:0|0:0,0:0:0:0:
224,216,42762,1,0,0:0:0:0:
364,216,42900,2,0,L|224:292,1,160,8|2,0:0|0:0,0:0:0:0:
84,216,43315,6,0,L|224:292,1,160,2|2,0:0|0:0,0:0:0:0:
364,292,43730,2,0,L|372:212,1,80,2|0,0:0|0:0,0:0:0:0:
152,212,44006,2,0,P|112:156|172:108,1,160,8|2,0:0|0:0,0:0:0:0:
392,212,44559,6,0,P|432:156|372:108,1,160,2|2,0:0|0:0,0:0:0:0:
292,108,44974,1,2,0:0:0:0:
152,108,45112,2,0,L|292:184,1,160,8|2,0:0|0:0,0:0:0:0:
432,108,45527,6,0,L|292:184,1,160,2|2,0:0|0:0,0:0:0:0:
152,184,45942,2,0,L|160:264,1,80,2|0,0:0|0:0,0:0:0:0:
380,264,46218,2,0,P|464:244|500:184,1,160,8|2,0:0|0:0,0:0:0:0:
160,184,46771,5,4,0:0:0:0:
95,231,46910,1,0,0:0:0:0:
120,307,47048,1,8,0:0:0:0:
200,307,47186,1,0,0:0:0:0:
400,308,47324,1,8,0:0:0:0:
465,261,47463,1,0,0:0:0:0:
440,185,47601,1,8,0:0:0:0:
360,185,47739,1,0,0:0:0:0:
160,184,47877,5,8,0:0:0:0:
80,184,48015,1,0,0:0:0:0:
220,112,48153,1,8,0:0:0:0:
300,112,48292,1,0,0:0:0:0:
100,112,48430,1,8,0:0:0:0:
92,188,48568,1,0,0:0:0:0:
292,188,48707,1,8,0:0:0:0:
300,264,48845,1,0,0:0:0:0:
180,264,48983,5,2,0:0:0:0:
420,184,49121,2,0,L|428:264,1,80,8|8,0:0|0:0,0:0:0:0:
308,264,49398,1,2,0:0:0:0:
108,264,49536,2,0,L|100:184,1,80,8|8,0:0|0:0,0:0:0:0:
220,184,49813,1,2,0:0:0:0:
440,184,49951,6,0,P|428:228|328:264,1,160,4|0,0:0|0:0,0:0:0:0:
128,264,50366,1,8,0:0:0:0:
95,240,50435,1,2,0:0:0:0:
108,202,50504,1,2,0:0:0:0:
148,202,50573,1,2,0:0:0:0:
248,204,50642,5,8,0:0:0:0:
281,180,50711,1,2,0:0:0:0:
268,142,50780,1,2,0:0:0:0:
228,142,50849,1,2,0:0:0:0:
68,264,50919,1,8,0:0:0:0:
35,240,50988,1,0,0:0:0:0:
48,202,51057,1,2,0:0:0:0:
88,202,51126,1,0,0:0:0:0:
248,204,51195,1,4,0:0:0:0:
448,208,52163,6,0,P|484:156|428:92,1,160,4|0,0:0|0:0,0:0:0:0:
208,92,52578,2,0,L|132:116,1,80,8|0,0:0|0:0,0:0:0:0:
272,116,52854,2,0,L|348:140,1,80,2|2,0:0|0:0,0:0:0:0:
128,140,53131,6,0,P|88:192|148:244,1,160,8|2,0:0|0:0,0:0:0:0:
228,244,53545,1,2,0:0:0:0:
448,244,53684,2,0,L|456:164,1,80,8|0,0:0|0:0,0:0:0:0:
316,164,53960,2,0,L|308:84,1,80,2|2,0:0|0:0,0:0:0:0:
448,84,54237,1,8,0:0:0:0:
168,160,54375,6,0,P|100:200|116:268,1,160,4|0,0:0|0:0,0:0:0:0:
336,268,54790,2,0,L|344:188,1,80,8|0,0:0|0:0,0:0:0:0:
203,188,55066,2,0,L|196:108,1,80,2|2,0:0|0:0,0:0:0:0:
416,107,55343,6,0,P|456:159|396:211,1,160,8|2,0:0|0:0,0:0:0:0:
316,211,55757,1,2,0:0:0:0:
96,211,55896,2,0,L|104:292,1,80,8|0,0:0|0:0,0:0:0:0:
243,291,56172,2,0,L|236:212,1,80,2|2,0:0|0:0,0:0:0:0:
96,211,56449,1,8,0:0:0:0:
356,212,56587,6,0,P|440:200|476:140,1,160,4|0,0:0|0:0,0:0:0:0:
256,140,57002,2,0,L|248:220,1,80,8|0,0:0|0:0,0:0:0:0:
388,220,57278,2,0,L|308:220,1,80,2|2,0:0|0:0,0:0:0:0:
88,220,57555,6,0,P|92:152|168:116,1,160,8|2,0:0|0:0,0:0:0:0:
248,116,57969,1,2,0:0:0:0:
468,116,58108,2,0,L|476:196,1,80,8|0,0:0|0:0,0:0:0:0:
336,196,58384,2,0,L|328:276,1,80,2|2,0:0|0:0,0:0:0:0:
467,272,58661,1,8,0:0:0:0:
208,272,58799,6,0,P|124:260|88:200,1,160,4|0,0:0|0:0,0:0:0:0:
308,200,59214,2,0,L|388:200,1,80,8|0,0:0|0:0,0:0:0:0:
248,200,59490,2,0,L|240:120,1,80,2|2,0:0|0:0,0:0:0:0:
460,120,59767,2,0,L|468:200,1,80,8|0,0:0|0:0,0:0:0:0:
208,200,60043,6,0,L|128:200,1,80,4|0,0:0|0:0,0:0:0:0:
268,200,60320,2,0,L|360:200,1,80,8|0,0:0|0:0,0:0:0:0:
128,200,60596,2,0,L|88:200,1,40,2|2,0:0|0:0,0:0:0:0:
68,200,60734,1,2,0:0:0:0:
188,200,60872,1,8,0:0:0:0:
408,200,61011,6,0,P|488:164|488:100,1,160,4|0,0:0|0:0,0:0:0:0:
268,100,61425,2,0,L|188:100,1,80,8|0,0:0|0:0,0:0:0:0:
328,100,61702,2,0,L|408:100,1,80,2|2,0:0|0:0,0:0:0:0:
188,100,61978,6,0,P|108:136|108:200,1,160,8|2,0:0|0:0,0:0:0:0:
208,200,62393,1,2,0:0:0:0:
428,200,62531,2,0,L|348:200,1,80,8|0,0:0|0:0,0:0:0:0:
208,200,62808,2,0,L|292:200,1,80,2|2,0:0|0:0,0:0:0:0:
428,200,63084,1,8,0:0:0:0:
168,200,63223,6,0,P|92:184|68:112,1,160,4|0,0:0|0:0,0:0:0:0:
288,112,63637,2,0,L|228:164,1,80,8|0,0:0|0:0,0:0:0:0:
88,164,63914,2,0,L|148:216,1,80,2|2,0:0|0:0,0:0:0:0:
368,216,64190,6,0,P|444:232|468:304,1,160,8|2,0:0|0:0,0:0:0:0:
328,303,64605,2,0,L|404:280,1,80,2|8,0:0|0:0,0:0:0:0:
184,280,64882,2,0,P|132:224|184:184,1,160,2|2,0:0|0:0,0:0:0:0:
404,184,65296,2,0,L|424:104,1,80,8|0,0:0|0:0,0:0:0:0:
204,108,65573,6,0,L|64:184,1,160,4|8,0:0|0:0,0:0:0:0:
284,184,65988,2,0,P|336:236|284:280,1,160,4|2,0:0|0:0,0:0:0:0:
144,280,66402,2,0,L|68:256,1,80,8|0,0:0|0:0,0:0:0:0:
288,256,66679,6,0,L|428:180,1,160,4|8,0:0|0:0,0:0:0:0:
208,180,67094,2,0,P|156:128|208:84,1,160,4|2,0:0|0:0,0:0:0:0:
348,84,67508,2,0,L|424:108,1,80,8|0,0:0|0:0,0:0:0:0:
164,108,67785,5,2,0:0:0:0:
96,156,67924,1,0,0:0:0:0:
124,231,68062,1,8,0:0:0:0:
204,231,68200,1,0,0:0:0:0:
424,232,68338,1,8,0:0:0:0:
492,184,68477,1,0,0:0:0:0:
464,109,68615,1,8,0:0:0:0:
384,109,68753,1,0,0:0:0:0:
184,108,68891,5,4,0:0:0:0:
64,108,69029,2,0,L|72:188,1,80,8|8,0:0|0:0,0:0:0:0:
212,188,69306,1,2,0:0:0:0:
252,212,69375,1,2,0:0:0:0:
252,256,69444,1,8,0:0:0:0:
212,276,69513,1,8,0:0:0:0:
52,276,69582,2,0,L|44:196,1,80,2|8,0:0|0:0,0:0:0:0:
144,196,69859,1,8,0:0:0:0:
344,276,69997,6,0,P|368:232|296:172,1,160,4|8,0:0|0:0,0:0:0:0:
56,244,70550,2,0,L|12:176,1,80,0|2,0:0|0:0,0:0:0:0:
132,176,70826,1,8,0:0:0:0:
472,176,71103,6,0,L|392:176,2,80,2|0|8,0:0|0:0|0:0,0:0:0:0:
332,176,71518,2,0,P|296:208|360:268,1,160,2|2,0:0|0:0,0:0:0:0:
492,268,71932,1,8,0:0:0:0:
156,268,72209,6,0,P|128:208|196:168,1,160,2|8,0:0|0:0,0:0:0:0:
444,240,72762,2,0,L|484:168,1,80,0|2,0:0|0:0,0:0:0:0:
368,168,73038,1,8,0:0:0:0:
32,168,73315,6,0,L|120:168,2,80,2|0|8,0:0|0:0|0:0,0:0:0:0:
172,168,73730,2,0,P|208:212|144:268,1,160,2|2,0:0|0:0,0:0:0:0:
12,268,74144,1,8,0:0:0:0:
348,268,74421,6,0,L|504:236,1,160,4|8,0:0|0:0,0:0:0:0:
264,235,74974,2,0,L|256:155,1,80,0|2,0:0|0:0,0:0:0:0:
376,156,75250,1,8,0:0:0:0:
36,156,75527,6,0,L|120:156,2,80,2|0|8,0:0|0:0|0:0,0:0:0:0:
176,156,75942,2,0,P|224:200|168:252,1,160,2|2,0:0|0:0,0:0:0:0:
36,252,76356,1,8,0:0:0:0:
396,252,76633,6,0,L|240:220,1,160,2|8,0:0|0:0,0:0:0:0:
480,219,77186,2,0,L|488:139,1,80,0|2,0:0|0:0,0:0:0:0:
368,140,77462,1,8,0:0:0:0:
28,141,77739,6,0,L|108:141,2,80,2|0|8,0:0|0:0|0:0,0:0:0:0:
168,140,78154,2,0,P|216:192|160:240,1,160,2|2,0:0|0:0,0:0:0:0:
28,240,78568,1,8,0:0:0:0:
368,240,78845,6,0,P|408:176|348:144,1,160,4|8,0:0|0:0,0:0:0:0:
112,144,79398,2,0,L|32:144,1,80,0|2,0:0|0:0,0:0:0:0:
152,144,79674,1,8,0:0:0:0:
492,144,79951,6,0,L|408:144,2,80,2|0|8,0:0|0:0|0:0,0:0:0:0:
352,144,80366,2,0,P|304:192|360:244,1,160,2|2,0:0|0:0,0:0:0:0:
492,244,80780,1,8,0:0:0:0:
152,244,81057,6,0,P|112:180|172:148,1,160,2|8,0:0|0:0,0:0:0:0:
408,148,81610,2,0,L|488:148,1,80,0|2,0:0|0:0,0:0:0:0:
368,148,81886,1,8,0:0:0:0:
28,148,82163,6,0,L|116:148,2,80,2|0|8,0:0|0:0|0:0,0:0:0:0:
168,148,82578,2,0,L|28:224,1,160,2|2,0:0|0:0,0:0:0:0:
148,224,82992,1,8,0:0:0:0:
488,256,83269,6,0,P|448:192|368:180,1,160,4|2,0:0|0:0,0:0:0:0:
128,180,83822,1,8,0:0:0:0:
292,180,84098,2,0,L|384:180,2,80,0|2|0,0:0|0:0|0:0,0:0:0:0:
152,180,84513,6,0,L|144:100,1,80,2|2,0:0|0:0,0:0:0:0:
484,100,84928,2,0,P|444:164|364:176,1,160,8|0,0:0|0:0,0:0:0:0:
124,176,85481,5,8,0:0:0:0:
72,224,85619,1,0,0:0:0:0:
122,275,85757,1,2,0:0:0:0:
202,275,85896,1,0,0:0:0:0:
400,276,86034,1,8,0:0:0:0:
452,228,86172,1,0,0:0:0:0:
401,176,86310,1,2,0:0:0:0:
320,176,86449,1,0,0:0:0:0:
124,176,86587,5,8,0:0:0:0:
168,112,86725,1,0,0:0:0:0:
242,99,86863,1,2,0:0:0:0:
381,99,87002,1,0,0:0:0:0:
159,100,87140,2,0,L|152:181,1,80,8|8,0:0|0:0,0:0:0:0:
292,180,87416,1,0,0:0:0:0:
256,192,87693,12,4,89905,0:0:0:0:
