osu file format v14

[General]
AudioFilename: audio.mp3
AudioLeadIn: 0
PreviewTime: 51472
Countdown: 0
SampleSet: Soft
StackLeniency: 0.7
Mode: 2
LetterboxInBreaks: 0
WidescreenStoryboard: 1

[Editor]
Bookmarks: 320,6955,15803,24651,33499,42347,52163,83269,87693,89905
DistanceSpacing: 1.3
BeatDivisor: 8
GridSize: 4
TimelineZoom: 3.399999

[Metadata]
Title:Fist Bump
TitleUnicode:Fist Bump
Artist:Douglas Robb (Hoobastank)
ArtistUnicode:Douglas Robb (Hoobastank)
Creator:rew0825
Version:Platter
Source:ソニックフォース
Tags:Sonic Forces Vocal Traxx On The Edge A Hero Will Rise Original Soundtrack Main Theme Hedgehog Wave Master Entertainment 大谷 智哉 Tomoya Ohtani 江口 貴勅 Takahito Eguchi SEGA Microsoft Sony Nintendo Xbox One XONE Playstation 4 PS4 Nintendo Switch NS PC Join Resistance 25th Anniversary maimai Ascendance
BeatmapID:1642592
BeatmapSetID:779577

[Difficulty]
HPDrainRate:5
CircleSize:3.5
OverallDifficulty:8
ApproachRate:8
SliderMultiplier:1.4
SliderTickRate:1

[Events]
//Background and Video events
0,0,"BG.jpg",0,0
//Break Periods
//Storyboard Layer 0 (Background)
//Storyboard Layer 1 (Fail)
//Storyboard Layer 2 (Pass)
//Storyboard Layer 3 (Foreground)
//Storyboard Sound Samples

[TimingPoints]
320,276.497695852535,4,2,0,30,1,0
4743,-100,4,2,0,40,0,0
6955,-100,4,2,1,80,0,0
15803,-100,4,2,1,60,0,0
21748,-100,4,2,0,60,0,0
21886,-100,4,2,1,60,0,0
22025,-100,4,2,0,60,0,0
22163,-100,4,2,1,60,0,0
31287,-100,4,2,1,40,0,0
31564,-100,4,2,1,60,0,0
52163,-100,4,2,1,80,0,1
68891,-100,4,2,1,60,0,0
69997,-100,4,2,1,90,0,1
83269,-100,4,2,1,70,0,0
87693,-100,4,2,1,40,0,0
89905,-100,4,2,1,60,0,0

[Colours]
Combo1 : 255,4,4
Combo2 : 4,4,255

[HitObjects]
236,191,320,6,0,L|164:191,2,70,2|0|2,0:0|0:0|0:0,0:0:0:0:
324,191,734,2,0,P|364:231|324:291,1,140,2|2,0:0|0:0,0:0:0:0:
252,291,1149,1,2,0:0:0:0:
164,291,1287,6,0,P|124:251|164:191,1,140,2|2,0:0|0:0,0:0:0:0:
408,191,1840,1,2,0:0:0:0:
471,220,1978,1,2,0:0:0:0:
487,288,2117,1,0,0:0:0:0:
444,343,2255,1,2,0:0:0:0:
374,344,2393,1,0,0:0:0:0:
216,343,2532,6,0,L|144:343,2,70,2|0|2,0:0|0:0|0:0,0:0:0:0:
304,343,2946,2,0,P|344:303|304:243,1,140,2|2,0:0|0:0,0:0:0:0:
232,243,3361,1,2,0:0:0:0:
144,243,3499,6,0,P|104:283|144:343,1,140,2|2,0:0|0:0,0:0:0:0:
388,343,4052,1,2,0:0:0:0:
451,314,4190,1,2,0:0:0:0:
464,287,4260,1,0,0:0:0:0:
467,246,4329,1,2,0:0:0:0:
424,191,4467,1,2,0:0:0:0:
354,190,4605,1,2,0:0:0:0:
144,191,4743,6,0,P|104:231|144:291,1,140,0|2,1:0|0:0,0:0:0:0:
232,291,5158,2,0,L|372:291,1,140,2|2,0:0|0:0,0:0:0:0:
304,291,5573,1,2,0:0:0:0:
216,291,5711,2,0,L|76:291,1,140,2|2,0:0|0:0,0:0:0:0:
324,292,6264,2,0,P|416:272|448:168,1,210,2|0,0:0|0:0,0:0:0:0:
204,216,6955,6,0,L|136:200,2,70,6|2|8,0:0|0:0|0:0,0:0:0:0:
364,216,7370,2,0,P|404:176|364:116,1,140,2|2,0:0|0:0,0:0:0:0:
292,116,7785,1,8,0:0:0:0:
134,116,7923,6,0,P|94:156|134:216,1,140,2|2,0:0|0:0,0:0:0:0:
206,216,8338,1,8,0:0:0:0:
364,216,8614,2,0,L|292:216,2,70,2|2|8,0:0|0:0|0:0,0:0:0:0:
136,216,9167,6,0,L|136:144,1,70,2|2,0:0|0:0,0:0:0:0:
208,148,9444,1,8,0:0:0:0:
364,148,9582,2,0,P|404:188|364:248,1,140,2|2,0:0|0:0,0:0:0:0:
296,248,9997,1,8,0:0:0:0:
148,248,10135,6,0,P|108:208|148:148,1,140,2|2,0:0|0:0,0:0:0:0:
228,148,10550,1,8,0:0:0:0:
388,148,10826,2,0,L|456:160,1,70,2|2,0:0|0:0,0:0:0:0:
456,200,11103,1,8,0:0:0:0:
212,200,11379,6,0,L|144:188,1,70,2|2,0:0|0:0,0:0:0:0:
144,148,11656,1,8,0:0:0:0:
300,148,11794,2,0,L|440:148,1,140,2|2,0:0|0:0,0:0:0:0:
372,148,12209,1,8,0:0:0:0:
216,148,12347,6,0,P|160:188|176:248,1,140,2|2,0:0|0:0,0:0:0:0:
248,248,12762,1,8,0:0:0:0:
404,248,12900,1,2,0:0:0:0:
248,248,13177,2,0,L|172:248,1,70,2|8,0:0|0:0,0:0:0:0:
192,248,13453,1,0,0:0:0:0:
404,248,13592,5,8,0:0:0:0:
460,208,13730,1,0,0:0:0:0:
436,140,13868,1,8,0:0:0:0:
368,132,14006,1,0,0:0:0:0:
212,132,14144,1,8,0:0:0:0:
156,92,14282,1,0,0:0:0:0:
180,24,14420,1,8,0:0:0:0:
248,16,14558,1,0,0:0:0:0:
408,16,14697,5,2,0:0:0:0:
488,16,14836,2,0,L|484:88,1,70,8|8,0:0|0:0,0:0:0:0:
396,88,15112,1,2,0:0:0:0:
360,96,15181,1,2,0:0:0:0:
344,124,15251,1,8,0:0:0:0:
356,156,15320,1,8,0:0:0:0:
388,164,15389,1,2,0:0:0:0:
468,164,15527,1,8,0:0:0:0:
387,164,15665,1,8,0:0:0:0:
176,164,15803,5,4,0:0:0:0:
72,132,16080,2,0,P|76:180|152:216,1,140,2|2,0:0|0:0,0:0:0:0:
228,216,16495,1,0,0:0:0:0:
316,276,16632,2,0,L|320:348,1,70,2|0,0:0|0:0,0:0:0:0:
164,344,16909,6,0,P|120:296|160:240,1,140,2|2,0:0|0:0,0:0:0:0:
232,240,17324,1,0,0:0:0:0:
320,240,17462,2,0,P|364:192|324:136,1,140,2|2,0:0|0:0,0:0:0:0:
252,136,17877,1,0,0:0:0:0:
164,136,18015,1,2,0:0:0:0:
268,48,18292,6,0,P|312:96|272:144,1,140,2|2,0:0|0:0,0:0:0:0:
196,144,18707,1,0,0:0:0:0:
112,192,18844,2,0,L|104:264,1,70,2|0,0:0|0:0,0:0:0:0:
260,260,19121,6,0,P|300:212|260:156,1,140,2|2,0:0|0:0,0:0:0:0:
192,156,19536,1,0,0:0:0:0:
104,156,19674,1,2,0:0:0:0:
192,156,19813,2,0,B|248:200|248:200|192:240,1,140,2|2,0:3|0:3,0:0:0:0:
104,240,20227,1,2,0:0:0:0:
208,300,20504,6,0,P|148:284|152:216,1,140,2|2,0:0|0:0,0:0:0:0:
224,216,20919,1,0,0:0:0:0:
312,144,21056,2,0,L|316:72,1,70,2|0,0:0|0:0,0:0:0:0:
164,72,21333,6,0,P|124:120|164:176,1,140,2|2,0:0|0:0,0:0:0:0:
232,176,21748,1,2,0:0:0:0:
388,176,21886,1,2,0:0:0:0:
456,248,22025,1,2,0:0:0:0:
388,316,22163,1,2,0:0:0:0:
316,316,22301,1,0,0:0:0:0:
404,316,22439,5,2,0:0:0:0:
388,248,22578,1,0,0:0:0:0:
176,316,22716,2,0,L|24:316,2,140,4|4|4,0:0|0:0|0:0,0:0:0:0:
420,316,23545,5,2,0:0:0:0:
332,316,23684,2,0,L|404:316,1,70,8|8,0:0|0:0,0:0:0:0:
316,316,23960,1,2,0:0:0:0:
285,301,24029,1,2,0:0:0:0:
278,267,24099,1,8,0:0:0:0:
300,240,24168,1,8,0:0:0:0:
335,240,24237,1,2,0:0:0:0:
420,240,24375,1,8,0:0:0:0:
335,240,24513,1,8,0:0:0:0:
124,240,24651,5,4,0:0:0:0:
104,212,24928,1,8,0:0:0:0:
192,212,25066,2,0,L|196:136,1,70,2|2,0:0|0:0,0:0:0:0:
108,144,25343,2,0,L|104:216,1,70,2|8,0:0|0:0,0:0:0:0:
352,212,25757,6,0,P|380:280|336:316,1,140,2|8,0:0|0:0,0:0:0:0:
268,316,26172,1,2,0:0:0:0:
180,316,26310,2,0,L|320:316,1,140,2|8,0:0|0:0,0:0:0:0:
76,316,26863,5,2,0:0:0:0:
60,284,27140,1,8,0:0:0:0:
148,284,27278,2,0,L|144:212,1,70,2|2,0:0|0:0,0:0:0:0:
56,216,27555,2,0,L|60:288,1,70,2|8,0:0|0:0,0:0:0:0:
308,284,27969,6,0,P|324:220|272:180,1,140,2|8,0:0|0:0,0:0:0:0:
201,179,28384,1,2,0:0:0:0:
113,179,28522,2,0,P|85:111|129:75,1,140,2|8,0:0|0:0,0:0:0:0:
196,76,28937,1,2,0:0:0:0:
408,76,29075,5,4,0:0:0:0:
428,112,29352,1,8,0:0:0:0:
340,112,29490,2,0,L|336:188,1,70,2|2,0:0|0:0,0:0:0:0:
424,180,29767,2,0,L|428:108,1,70,2|8,0:0|0:0,0:0:0:0:
184,52,30181,6,0,P|124:76|124:144,1,140,2|8,0:0|0:0,0:0:0:0:
196,144,30596,1,2,0:0:0:0:
283,144,30734,2,0,P|271:196|195:212,1,140,2|8,0:0|0:0,0:0:0:0:
40,212,31287,5,2,0:0:0:0:
392,212,31564,2,0,L|264:156,2,140,4|4|4,0:0|0:0|0:0,0:0:0:0:
148,212,32393,6,0,P|168:272|236:296,1,140,2|8,0:0|0:0,0:0:0:0:
304,296,32808,1,2,0:0:0:0:
392,296,32946,2,0,P|456:275|479:211,1,140,8|8,0:0|0:0,0:0:0:0:
128,212,33499,6,0,P|72:168|92:112,1,140,4|8,0:0|0:0,0:0:0:0:
252,112,33914,1,4,0:0:0:0:
112,112,34190,1,2,0:0:0:0:
464,100,34467,6,0,P|448:172|392:192,1,140,4|0,0:0|0:0,0:0:0:0:
320,192,34882,1,8,0:0:0:0:
164,192,35158,1,2,0:0:0:0:
112,168,35296,1,2,0:0:0:0:
76,128,35435,1,8,0:0:0:0:
428,128,35711,6,0,P|468:188|428:228,1,140,4|8,0:0|0:0,0:0:0:0:
272,228,36126,1,4,0:0:0:0:
412,228,36402,1,2,0:0:0:0:
64,236,36679,6,0,P|80:164|136:144,1,140,4|0,0:0|0:0,0:0:0:0:
208,144,37094,1,8,0:0:0:0:
364,144,37370,1,2,0:0:0:0:
416,168,37508,1,2,0:0:0:0:
452,212,37647,1,8,0:0:0:0:
104,212,37923,6,0,P|40:188|16:124,1,140,4|8,0:0|0:0,0:0:0:0:
172,124,38338,1,4,0:0:0:0:
32,124,38614,1,2,0:0:0:0:
384,124,38891,6,0,P|420:156|380:224,1,140,4|0,0:0|0:0,0:0:0:0:
312,224,39306,1,8,0:0:0:0:
156,224,39582,1,2,0:0:0:0:
102,224,39720,1,2,0:0:0:0:
72,224,39859,1,8,0:0:0:0:
72,224,39997,1,0,0:0:0:0:
228,224,40135,5,8,0:0:0:0:
300,208,40273,1,0,0:0:0:0:
352,172,40412,1,8,0:0:0:0:
108,172,40688,1,8,0:0:0:0:
160,136,40827,1,0,0:0:0:0:
232,120,40965,1,8,0:0:0:0:
476,120,41241,5,8,0:0:0:0:
424,156,41380,1,0,0:0:0:0:
352,172,41518,1,8,0:0:0:0:
108,172,41794,1,8,0:0:0:0:
40,116,41932,1,8,0:0:0:0:
108,60,42071,1,8,0:0:0:0:
456,60,42347,6,0,B|500:112|500:112|452:52,1,140,4|2,0:0|0:0,0:0:0:0:
212,152,42900,1,8,0:0:0:0:
352,152,43177,1,2,0:0:0:0:
424,152,43315,6,0,B|492:168|492:168|420:152,1,140,2|2,0:0|0:0,0:0:0:0:
352,152,43730,1,2,0:0:0:0:
108,152,44006,2,0,P|140:204|212:224,1,140,8|2,0:0|0:0,0:0:0:0:
380,224,44559,6,0,P|348:276|276:296,1,140,2|2,0:0|0:0,0:0:0:0:
32,296,45112,1,8,0:0:0:0:
172,296,45389,1,2,0:0:0:0:
240,296,45527,6,0,P|272:268|216:216,1,140,2|2,0:0|0:0,0:0:0:0:
144,216,45942,1,2,0:0:0:0:
388,224,46218,2,0,P|460:196|492:144,1,140,8|2,0:0|0:0,0:0:0:0:
142,144,46771,6,0,B|74:160|74:160|146:144,1,140,4|8,0:0|0:0,0:0:0:0:
228,144,47186,2,0,B|296:160|296:160|224:144,1,140,0|0,0:0|0:0,0:0:0:0:
142,144,47601,1,8,0:0:0:0:
385,144,47877,5,8,0:0:0:0:
244,144,48154,1,8,0:0:0:0:
172,144,48292,1,0,0:0:0:0:
124,144,48430,1,8,0:0:0:0:
264,144,48707,1,8,0:0:0:0:
408,144,48983,5,2,0:0:0:0:
248,144,49121,2,0,L|240:216,1,70,8|8,0:0|0:0,0:0:0:0:
468,212,49536,2,0,L|472:284,1,70,8|8,0:0|0:0,0:0:0:0:
124,240,49951,6,0,P|88:208|132:144,1,140,4|0,0:0|0:0,0:0:0:0:
288,144,50366,2,0,L|320:132,2,35,8|2|2,0:0|0:0|0:0,0:0:0:0:
200,144,50642,2,0,L|168:132,2,35,8|2|2,0:0|0:0|0:0,0:0:0:0:
288,144,50919,2,0,L|320:132,2,35,8|2|2,0:0|0:0|0:0,0:0:0:0:
80,144,51195,1,4,0:0:0:0:
420,144,52163,6,4,P|460:200|420:248,1,140,4|0,0:0|0:0,0:0:0:0:
264,248,52578,2,4,P|224:192|264:144,1,140,8|2,0:0|0:0,0:0:0:0:
332,144,52992,1,2,0:0:0:0:
172,144,53131,6,0,P|108:124|84:60,1,140,8|2,0:0|0:0,0:0:0:0:
156,60,53545,1,2,0:0:0:0:
316,60,53684,2,0,P|380:80|404:144,1,140,8|2,0:0|0:0,0:0:0:0:
352,144,54098,1,2,0:0:0:0:
284,144,54237,1,8,0:0:0:0:
76,144,54375,6,0,P|48:192|108:228,1,140,4|0,0:0|0:0,0:0:0:0:
264,228,54790,2,4,P|304:284|264:332,1,140,8|2,0:0|0:0,0:0:0:0:
196,332,55204,1,2,0:0:0:0:
352,332,55343,6,0,P|416:312|440:248,1,140,8|2,0:0|0:0,0:0:0:0:
372,248,55757,1,2,0:0:0:0:
216,248,55896,2,0,P|152:228|128:164,1,140,8|2,0:0|0:0,0:0:0:0:
180,164,56310,1,2,0:0:0:0:
248,164,56449,1,8,0:0:0:0:
460,164,56587,6,0,P|476:224|420:268,1,140,4|0,0:0|0:0,0:0:0:0:
264,220,57002,2,0,P|240:272|304:300,1,140,8|2,0:0|0:0,0:0:0:0:
372,300,57416,1,2,0:0:0:0:
216,300,57555,6,4,P|176:244|216:196,1,140,8|2,0:0|0:0,0:0:0:0:
284,196,57969,1,2,0:0:0:0:
424,196,58108,2,4,P|464:140|424:92,1,140,8|2,0:0|0:0,0:0:0:0:
372,92,58522,1,2,0:0:0:0:
300,92,58661,1,8,0:0:0:0:
88,92,58799,6,4,P|48:148|88:196,1,140,4|0,0:0|0:0,0:0:0:0:
244,92,59214,2,4,P|284:148|244:196,1,140,8|2,0:0|0:0,0:0:0:0:
176,196,59628,1,2,0:0:0:0:
20,196,59767,2,0,L|96:196,1,70,8|0,0:0|0:0,0:0:0:0:
300,268,60043,6,0,L|368:256,1,70,4|0,0:0|0:0,0:0:0:0:
352,264,60320,2,0,L|284:252,1,70,8|0,0:0|0:0,0:0:0:0:
128,252,60596,2,0,L|92:252,2,35,2|2|2,0:0|0:0|0:0,0:0:0:0:
476,252,61011,6,4,P|448:200|372:184,1,140,4|0,0:0|0:0,0:0:0:0:
216,184,61425,2,4,P|244:132|320:116,1,140,8|2,0:0|0:0,0:0:0:0:
388,116,61840,1,2,0:0:0:0:
230,116,61978,6,0,P|216:188|268:224,1,140,8|2,0:0|0:0,0:0:0:0:
336,224,62393,1,2,0:0:0:0:
492,224,62531,2,0,P|488:296|436:332,1,140,8|2,0:0|0:0,0:0:0:0:
384,332,62946,1,2,0:0:0:0:
316,332,63084,1,8,0:0:0:0:
106,332,63223,6,0,P|68:284|120:244,1,140,4|0,0:0|0:0,0:0:0:0:
276,264,63637,2,0,P|340:252|380:192,1,140,8|2,0:0|0:0,0:0:0:0:
308,192,64052,1,2,0:0:0:0:
148,192,64190,6,0,P|196:152|272:144,1,140,8|2,0:0|0:0,0:0:0:0:
340,144,64605,1,2,0:0:0:0:
272,144,64743,1,8,0:0:0:0:
116,144,64882,2,0,P|112:192|184:236,1,140,2|2,0:0|0:0,0:0:0:0:
340,236,65296,2,0,L|392:188,1,70,8|0,0:0|0:0,0:0:0:0:
180,188,65573,6,0,P|120:168|76:108,1,140,4|8,0:0|0:0,0:0:0:0:
232,108,65988,2,0,P|180:188|140:196,1,140,4|2,0:0|0:0,0:0:0:0:
72,196,66402,1,8,0:0:0:0:
424,196,66679,6,0,P|468:144|424:104,1,140,4|8,0:0|0:0,0:0:0:0:
268,104,67094,2,0,P|244:160|300:200,1,140,4|2,0:0|0:0,0:0:0:0:
368,200,67508,1,8,0:0:0:0:
124,200,67785,6,0,L|116:128,1,70,2|0,0:0|0:0,0:0:0:0:
204,132,68061,2,0,L|276:132,1,70,8|0,0:0|0:0,0:0:0:0:
432,132,68338,2,0,L|440:60,1,70,8|0,0:0|0:0,0:0:0:0:
352,64,68614,2,0,L|280:64,1,70,8|0,0:0|0:0,0:0:0:0:
72,64,68891,6,0,P|44:108|108:140,1,140,4|8,0:0|0:0,0:0:0:0:
174,140,69306,1,2,0:0:0:0:
138,140,69375,1,2,0:0:0:0:
106,140,69444,1,8,0:0:0:0:
24,144,69582,2,0,L|20:216,1,70,2|8,0:0|0:0,0:0:0:0:
110,212,69859,1,8,0:0:0:0:
320,212,69997,6,0,P|396:200|440:156,1,140,4|8,0:0|0:0,0:0:0:0:
284,156,70550,1,0,0:0:0:0:
216,156,70688,1,2,0:0:0:0:
284,156,70826,1,8,0:0:0:0:
40,156,71103,6,0,P|64:204|144:220,1,140,2|8,0:0|0:0,0:0:0:0:
232,220,71518,2,0,P|208:268|128:284,1,140,2|2,0:0|0:0,0:0:0:0:
40,284,71932,1,8,0:0:0:0:
284,284,72209,6,0,P|328:240|284:192,1,140,2|8,0:0|0:0,0:0:0:0:
128,192,72762,1,0,0:0:0:0:
60,192,72900,1,2,0:0:0:0:
128,192,73038,1,8,0:0:0:0:
372,192,73315,6,0,P|440:188|476:132,1,140,2|8,0:0|0:0,0:0:0:0:
388,131,73730,2,0,P|340:172|388:208,1,140,2|2,0:0|0:0,0:0:0:0:
476,208,74144,1,8,0:0:0:0:
128,172,74421,6,0,P|88:220|132:268,1,140,4|8,0:0|0:0,0:0:0:0:
288,272,74974,1,0,0:0:0:0:
356,272,75112,1,2,0:0:0:0:
288,272,75250,1,8,0:0:0:0:
44,272,75527,6,0,P|80:216|148:208,1,140,2|8,0:0|0:0,0:0:0:0:
236,208,75942,2,0,P|303:200|340:144,1,140,2|2,0:0|0:0,0:0:0:0:
252,144,76356,1,8,0:0:0:0:
496,144,76633,6,0,P|480:200|408:224,1,140,2|8,0:0|0:0,0:0:0:0:
252,224,77186,1,0,0:0:0:0:
184,224,77324,1,2,0:0:0:0:
252,224,77462,1,8,0:0:0:0:
496,224,77739,6,0,P|460:280|392:288,1,140,2|8,0:0|0:0,0:0:0:0:
304,288,78154,2,0,P|341:231|409:224,1,140,2|2,0:0|0:0,0:0:0:0:
496,224,78568,1,8,0:0:0:0:
144,224,78845,6,0,P|76:208|40:152,1,140,4|8,0:0|0:0,0:0:0:0:
196,152,79398,1,0,0:0:0:0:
264,152,79536,1,2,0:0:0:0:
332,152,79674,1,8,0:0:0:0:
88,152,79951,6,0,P|116:200|196:208,1,140,2|8,0:0|0:0,0:0:0:0:
280,208,80366,2,0,L|136:208,1,140,2|2,0:0|0:0,0:0:0:0:
227,208,80780,1,8,0:0:0:0:
472,208,81057,6,0,P|488:144|436:104,1,140,2|8,0:0|0:0,0:0:0:0:
280,104,81610,1,0,0:0:0:0:
212,104,81748,1,2,0:0:0:0:
144,104,81886,1,8,0:0:0:0:
387,120,82163,6,0,P|448:156|476:216,1,140,2|8,0:0|0:0,0:0:0:0:
388,216,82578,2,0,P|348:184|388:120,1,140,2|2,0:0|0:0,0:0:0:0:
476,216,82992,1,8,0:0:0:0:
124,236,83269,6,0,P|84:196|128:140,1,140,4|2,0:0|0:0,0:0:0:0:
280,136,83822,1,8,0:0:0:0:
72,136,84237,5,2,0:0:0:0:
232,136,84513,2,0,L|216:204,1,70,2|2,0:0|0:0,0:0:0:0:
460,184,84928,2,0,P|456:240|392:288,1,140,8|0,0:0|0:0,0:0:0:0:
147,287,85481,6,0,P|104:240|144:188,1,140,8|2,0:0|0:0,0:0:0:0:
216,196,85896,1,0,0:0:0:0:
372,196,86034,2,0,P|416:152|372:104,1,140,8|2,0:0|0:0,0:0:0:0:
301,103,86449,1,0,0:0:0:0:
141,195,86587,6,0,P|97:151|141:103,1,140,8|2,0:0|0:0,0:0:0:0:
209,103,87002,1,0,0:0:0:0:
441,103,87140,2,0,L|449:175,1,70,8|8,0:0|0:0,0:0:0:0:
360,172,87416,1,0,0:0:0:0:
256,192,87693,12,4,89905,0:0:0:0:
