osu file format v14

[General]
AudioFilename: audio.mp3
AudioLeadIn: 0
PreviewTime: 51472
Countdown: 0
SampleSet: Soft
StackLeniency: 0.7
Mode: 2
LetterboxInBreaks: 0
WidescreenStoryboard: 0

[Editor]
Bookmarks: 320,6955,15803,24651,33499,42347,52163,83269,87693,89905
DistanceSpacing: 1.3
BeatDivisor: 8
GridSize: 4
TimelineZoom: 3.399999

[Metadata]
Title:Fist Bump
TitleUnicode:Fist Bump
Artist:Douglas Robb (Hoobastank)
ArtistUnicode:Douglas Robb (Hoobastank)
Creator:rew0825
Version:Overdose
Source:ソニックフォース
Tags:Sonic Forces Vocal Traxx On The Edge A Hero Will Rise Original Soundtrack Main Theme Hedgehog Wave Master Entertainment 大谷 智哉 Tomoya Ohtani 江口 貴勅 Takahito Eguchi SEGA Microsoft Sony Nintendo Xbox One XONE Playstation 4 PS4 Nintendo Switch NS PC Join Resistance 25th Anniversary maimai Ascendance
BeatmapID:1637058
BeatmapSetID:779577

[Difficulty]
HPDrainRate:7
CircleSize:4
OverallDifficulty:9.3
ApproachRate:9.3
SliderMultiplier:1.8
SliderTickRate:1

[Events]
//Background and Video events
0,0,"BG.jpg",0,0
//Break Periods
//Storyboard Layer 0 (Background)
//Storyboard Layer 1 (Fail)
//Storyboard Layer 2 (Pass)
//Storyboard Layer 3 (Foreground)
//Storyboard Sound Samples

[TimingPoints]
320,276.497695852535,4,2,0,30,1,0
4743,-100,4,2,0,40,0,0
6955,-100,4,2,1,80,0,0
15803,-100,4,2,1,60,0,0
21748,-100,4,2,0,60,0,0
21886,-100,4,2,1,60,0,0
22025,-100,4,2,0,60,0,0
22163,-100,4,2,1,60,0,0
31287,-100,4,2,1,40,0,0
31564,-100,4,2,1,60,0,0
52163,-96.1538461538461,4,2,1,80,0,1
68891,-100,4,2,1,60,0,0
69997,-91.743119266055,4,2,1,90,0,1
83269,-100,4,2,1,70,0,0
87693,-100,4,2,1,40,0,0
89905,-100,4,2,1,60,0,0

[Colours]
Combo1 : 255,4,4
Combo2 : 4,4,255

[HitObjects]
248,192,320,5,2,0:0:0:0:
112,192,458,1,0,0:0:0:0:
108,144,527,1,0,0:0:0:0:
104,96,596,1,2,0:0:0:0:
328,96,734,2,0,P|368:148|296:228,1,180,2|2,0:0|0:0,0:0:0:0:
172,227,1149,1,2,0:0:0:0:
164,179,1218,1,0,0:0:0:0:
344,180,1287,6,0,P|424:168|464:72,1,180,2|2,0:0|0:0,0:0:0:0:
196,80,1840,1,2,0:0:0:0:
420,80,1978,2,0,L|428:172,1,90,2|0,0:0|0:0,0:0:0:0:
204,169,2255,2,0,L|196:80,1,90,2|0,0:0|0:0,0:0:0:0:
420,80,2531,5,2,0:0:0:0:
280,80,2670,1,0,0:0:0:0:
276,128,2739,1,0,0:0:0:0:
272,176,2808,1,2,0:0:0:0:
496,176,2946,2,0,P|464:264|384:280,1,180,2|2,0:0|0:0,0:0:0:0:
228,280,3361,1,2,0:0:0:0:
220,232,3430,1,0,0:0:0:0:
400,232,3499,6,0,P|440:164|368:108,1,180,2|2,0:0|0:0,0:0:0:0:
104,108,4052,1,2,0:0:0:0:
328,204,4190,1,2,0:0:0:0:
368,184,4260,1,0,0:0:0:0:
368,132,4329,1,2,0:0:0:0:
328,108,4398,1,0,0:0:0:0:
148,204,4467,1,2,0:0:0:0:
108,184,4536,1,0,0:0:0:0:
108,132,4605,1,2,0:0:0:0:
148,108,4674,1,0,0:0:0:0:
352,108,4743,5,0,1:0:0:0:
216,108,4882,1,2,0:0:0:0:
212,156,4951,1,0,0:0:0:0:
208,204,5020,1,2,0:0:0:0:
432,248,5158,2,0,P|440:180|352:132,1,180,2|2,0:0|0:0,0:0:0:0:
488,144,5573,2,0,L|448:124,1,45,2|0,0:0|0:0,0:0:0:0:
268,124,5711,6,0,L|176:124,1,90,2|0,0:0|0:0,0:0:0:0:
404,124,5988,2,0,L|496:124,1,90,2|0,0:0|0:0,0:0:0:0:
228,124,6264,2,0,P|108:240|228:328,1,360,2|0,0:0|0:0,0:0:0:0:
452,328,6955,5,6,0:0:0:0:
316,328,7094,1,2,0:0:0:0:
452,328,7232,1,8,0:0:0:0:
228,328,7370,2,0,P|140:292|88:228,1,180,2|2,0:0|0:0,0:0:0:0:
224,196,7785,1,8,0:0:0:0:
448,200,7923,6,0,P|480:152|400:88,1,180,2|2,0:0|0:0,0:0:0:0:
176,84,8338,2,0,L|160:172,1,90,8|0,0:0|0:0,0:0:0:0:
296,176,8614,1,2,0:0:0:0:
161,174,8753,1,2,0:0:0:0:
385,176,8891,2,0,L|400:88,1,90,8|0,0:0|0:0,0:0:0:0:
176,84,9167,5,2,0:0:0:0:
40,84,9306,1,2,0:0:0:0:
176,84,9444,1,8,0:0:0:0:
400,84,9582,2,0,P|480:136|448:192,1,180,2|2,0:0|0:0,0:0:0:0:
312,200,9997,1,8,0:0:0:0:
88,204,10135,6,0,P|68:268|148:328,1,180,2|2,0:0|0:0,0:0:0:0:
372,340,10550,2,0,L|388:252,1,90,8|0,0:0|0:0,0:0:0:0:
252,252,10826,1,2,0:0:0:0:
388,252,10965,1,2,0:0:0:0:
164,252,11103,2,0,L|148:164,1,90,8|0,0:0|0:0,0:0:0:0:
372,156,11379,5,2,0:0:0:0:
236,156,11518,1,2,0:0:0:0:
372,156,11656,1,8,0:0:0:0:
148,156,11794,2,0,P|80:187|120:264,1,180,2|2,0:0|0:0,0:0:0:0:
256,264,12209,1,8,0:0:0:0:
476,264,12347,6,0,P|464:192|372:160,1,180,2|2,0:0|0:0,0:0:0:0:
236,160,12762,1,8,0:0:0:0:
460,40,12900,2,0,L|476:220,1,180,2|2,0:0|0:0,0:0:0:0:
252,224,13315,2,0,L|344:224,1,90,8|0,0:0|0:0,0:0:0:0:
120,224,13591,6,0,L|112:132,1,90,8|0,0:0|0:0,0:0:0:0:
336,132,13868,2,0,L|428:132,1,90,8|0,0:0|0:0,0:0:0:0:
200,132,14144,2,0,L|110:132,1,90,8|0,0:0|0:0,0:0:0:0:
336,132,14421,2,0,L|344:224,1,90,8|0,0:0|0:0,0:0:0:0:
208,224,14697,5,2,0:0:0:0:
432,224,14836,1,8,0:0:0:0:
296,224,14974,1,8,0:0:0:0:
72,224,15112,1,2,0:0:0:0:
28,196,15181,1,2,0:0:0:0:
28,144,15250,1,8,0:0:0:0:
72,112,15320,1,8,0:0:0:0:
248,112,15389,1,2,0:0:0:0:
384,112,15527,1,8,0:0:0:0:
224,112,15665,2,8,L|240:68,1,45,8|0,0:0|0:0,0:0:0:0:
420,112,15803,5,4,0:0:0:0:
440,68,16080,2,0,L|448:160,1,90,2|0,0:0|0:0,0:0:0:0:
312,160,16356,2,0,L|320:252,1,90,2|0,0:0|0:0,0:0:0:0:
184,252,16633,2,0,L|192:344,1,90,2|0,0:0|0:0,0:0:0:0:
416,344,16909,6,0,L|424:252,1,90,2|0,0:0|0:0,0:0:0:0:
288,252,17186,1,2,0:0:0:0:
424,256,17324,2,0,L|256:192,1,180
392,229,17739,2,0,L|400:137,1,90,2|0,0:0|0:0,0:0:0:0:
176,140,18015,6,0,L|268:140,1,90,2|0,0:0|0:0,0:0:0:0:
132,48,18292,2,0,L|124:140,1,90,2|0,0:0|0:0,0:0:0:0:
260,140,18568,2,0,L|252:232,1,90,2|0,0:0|0:0,0:0:0:0:
388,232,18845,2,0,L|380:324,1,90,2|0,0:0|0:0,0:0:0:0:
156,324,19121,6,0,L|148:232,1,90,2|0,0:0|0:0,0:0:0:0:
284,232,19398,1,2,0:0:0:0:
148,234,19536,2,0,L|316:170,1,180,0|2,0:0|0:3,0:0:0:0:
180,172,19951,2,0,L|172:80,1,90,2|2,0:0|0:3,0:0:0:0:
397,83,20227,6,0,L|460:148,1,90,2|0,0:0|0:0,0:0:0:0:
324,48,20504,2,0,L|332:140,1,90,2|0,0:0|0:0,0:0:0:0:
196,140,20780,2,0,L|204:232,1,90,2|0,0:0|0:0,0:0:0:0:
68,232,21057,2,0,L|76:324,1,90,2|0,0:0|0:0,0:0:0:0:
300,324,21333,6,0,L|392:324,1,90,2|0,0:0|0:0,0:0:0:0:
256,324,21610,2,2,L|164:324,1,90
212,324,21817,1,2,0:0:0:0:
388,324,21886,2,0,L|480:324,1,90,2|2,0:0|0:0,0:0:0:0:
340,324,22163,2,0,L|432:324,1,90,2|0,0:0|0:0,0:0:0:0:
204,184,22439,6,0,L|208:92,1,90,2|0,0:0|0:0,0:0:0:0:
432,92,22716,1,4,0:0:0:0:
72,92,22992,1,4,0:0:0:0:
432,92,23269,1,4,0:0:0:0:
72,92,23545,5,2,0:0:0:0:
208,92,23684,2,0,L|216:184,1,90,8|8,0:0|0:0,0:0:0:0:
80,184,23960,2,0,L|36:184,1,45,2|2,0:0|0:0,0:0:0:0:
40,232,24098,2,0,L|84:232,1,45,8|8,0:0|0:0,0:0:0:0:
264,232,24237,1,2,0:0:0:0:
400,252,24375,2,0,L|332:192,1,90,8|8,0:0|0:0,0:0:0:0:
76,228,24651,5,4,0:0:0:0:
96,180,24928,1,8,0:0:0:0:
320,180,25066,2,0,L|328:88,1,90,2|2,0:0|0:0,0:0:0:0:
192,88,25343,1,2,0:0:0:0:
416,88,25481,2,0,L|424:180,1,90,8|0,0:0|0:0,0:0:0:0:
200,88,25757,6,0,P|156:152|220:212,1,180,2|8,0:0|0:0,0:0:0:0:
356,212,26172,2,0,L|360:256,1,45,2|0,0:0|0:0,0:0:0:0:
180,212,26310,2,2,L|172:304,1,90
308,304,26587,2,0,L|400:304,1,90,8|2,0:0|0:0,0:0:0:0:
172,212,26863,5,2,0:0:0:0:
148,168,27140,1,8,0:0:0:0:
396,168,27278,2,0,L|308:192,1,90,2|2,0:0|0:0,0:0:0:0:
176,192,27555,1,2,0:0:0:0:
400,192,27693,2,0,L|443:272,1,90,8|0,0:0|0:0,0:0:0:0:
216,232,27969,6,0,P|132:188|144:116,1,180,2|8,0:0|0:0,0:0:0:0:
280,112,28384,2,0,L|320:136,1,46,2|0,0:0|0:0,0:0:0:0:
140,112,28522,2,0,L|132:204,1,90,2|2,0:0|0:0,0:0:0:0:
268,216,28799,2,0,L|176:216,1,90,8|2,0:0|0:0,0:0:0:0:
224,216,29006,1,0,0:0:0:0:
404,296,29075,5,4,0:0:0:0:
428,252,29352,1,8,0:0:0:0:
204,252,29490,2,0,L|196:160,1,90,2|2,0:0|0:0,0:0:0:0:
332,160,29767,1,2,0:0:0:0:
108,160,29905,2,0,L|100:252,1,90,8|0,0:0|0:0,0:0:0:0:
324,252,30181,6,0,P|392:232|440:140,1,180,2|8,0:0|0:0,0:0:0:0:
304,136,30596,2,0,L|260:136,1,45,2|0,0:0|0:0,0:0:0:0:
76,136,30734,2,0,L|68:228,1,90,2|2,0:0|0:0,0:0:0:0:
296,228,31011,2,0,P|400:208|440:152,1,180,8|2,0:0|0:0,0:0:0:0:
80,112,31564,5,4,0:0:0:0:
440,112,31840,1,4,0:0:0:0:
80,112,32117,1,4,0:0:0:0:
440,112,32393,5,2,0:0:0:0:
304,112,32531,2,0,L|296:204,1,90,8|8,0:0|0:0,0:0:0:0:
432,204,32808,2,0,L|476:204,2,45,2|2|8,0:0|0:0|0:0,0:0:0:0:
208,204,33084,2,0,L|248:224,1,45,2|2,0:0|0:0,0:0:0:0:
324,224,33223,2,0,L|284:244,1,45,8|2,0:0|0:0,0:0:0:0:
208,204,33361,2,0,L|248:224,1,45,8|0,0:0|0:0,0:0:0:0:
428,252,33499,6,0,P|480:204|420:136,1,180,4|8,0:0|0:0,0:0:0:0:
188,136,33914,2,0,P|136:184|200:248,1,180,4|2,0:0|0:0,0:0:0:0:
336,252,34329,1,8,0:0:0:0:
108,252,34467,6,0,L|288:252,1,180,4|0,0:0|0:0,0:0:0:0:
64,252,34882,2,0,L|56:160,1,90,8|0,0:0|0:0,0:0:0:0:
192,160,35158,1,2,0:0:0:0:
56,160,35296,1,2,0:0:0:0:
288,68,35435,2,0,L|380:68,1,90,8|0,0:0|0:0,0:0:0:0:
108,68,35711,6,0,P|56:116|120:180,1,180,4|8,0:0|0:0,0:0:0:0:
344,180,36126,2,0,P|396:132|336:64,1,180,4|2,0:0|0:0,0:0:0:0:
200,68,36541,1,8,0:0:0:0:
424,68,36679,6,0,L|244:68,1,180,4|0,0:0|0:0,0:0:0:0:
472,68,37094,2,0,L|480:160,1,90,8|0,0:0|0:0,0:0:0:0:
344,160,37370,1,2,0:0:0:0:
479,160,37508,1,2,0:0:0:0:
256,176,37647,2,0,L|164:176,1,90,8|0,0:0|0:0,0:0:0:0:
436,252,37923,6,0,P|408:184|312:160,1,180,4|8,0:0|0:0,0:0:0:0:
88,160,38338,2,0,P|116:92|212:68,1,180,4|2,0:0|0:0,0:0:0:0:
348,68,38753,1,8,0:0:0:0:
124,68,38891,6,0,P|72:116|132:184,1,180,4|0,0:0|0:0,0:0:0:0:
356,184,39306,2,0,L|364:92,1,90,8|0,0:0|0:0,0:0:0:0:
228,92,39582,1,2,0:0:0:0:
364,92,39720,1,2,0:0:0:0:
140,92,39859,2,0,L|168:180,1,90,8|0,0:0|0:0,0:0:0:0:
440,184,40135,6,0,L|456:272,1,90,8|0,0:0|0:0,0:0:0:0:
232,276,40412,2,0,L|140:276,1,90,8|0,0:0|0:0,0:0:0:0:
368,276,40688,2,0,L|460:276,1,90,8|0,0:0|0:0,0:0:0:0:
232,184,40965,2,0,L|216:272,1,90,8|2,0:0|0:0,0:0:0:0:
440,276,41241,6,0,L|348:276,1,90,8|0,0:0|0:0,0:0:0:0:
124,276,41518,2,0,L|216:276,1,90,8|2,0:0|0:0,0:0:0:0:
260,276,41725,1,2,0:0:0:0:
436,276,41794,1,8,0:0:0:0:
352,228,41932,1,8,0:0:0:0:
376,140,42071,1,8,0:0:0:0:
468,136,42209,1,8,0:0:0:0:
212,132,42347,6,0,P|160:184|216:256,1,180,4|2,0:0|0:0,0:0:0:0:
352,260,42762,1,0,0:0:0:0:
128,260,42900,2,0,L|308:260,1,180,8|2,0:0|0:0,0:0:0:0:
88,260,43315,6,0,P|44:192|104:132,1,180,2|2,0:0|0:0,0:0:0:0:
240,132,43730,1,2,0:0:0:0:
104,132,43868,1,0,0:0:0:0:
328,128,44006,2,0,L|328:220,1,90,8|0,0:0|0:0,0:0:0:0:
192,128,44283,2,0,L|92:128,1,90,2|0,0:0|0:0,0:0:0:0:
328,128,44559,6,0,P|368:200|300:244,1,180,2|2,0:0|0:0,0:0:0:0:
164,244,44974,1,2,0:0:0:0:
388,244,45112,2,0,L|208:244,1,180,8|2,0:0|0:0,0:0:0:0:
456,244,45527,6,0,P|500:176|444:108,1,180,2|2,0:0|0:0,0:0:0:0:
308,108,45942,1,2,0:0:0:0:
444,108,46080,1,0,0:0:0:0:
220,108,46218,2,0,L|220:200,1,90,8|0,0:0|0:0,0:0:0:0:
354,108,46495,2,0,L|444:108,1,90,2|0,0:0|0:0,0:0:0:0:
172,108,46771,6,0,L|164:200,1,90,4|0,0:0|0:0,0:0:0:0:
388,200,47048,2,0,L|380:292,1,90,8|0,0:0|0:0,0:0:0:0:
156,292,47324,2,0,L|248:292,1,90,8|0,0:0|0:0,0:0:0:0:
472,292,47601,2,0,L|380:292,1,90,8|0,0:0|0:0,0:0:0:0:
156,292,47877,6,0,L|164:200,1,90,8|0,0:0|0:0,0:0:0:0:
388,200,48154,2,0,L|396:108,1,90,8|0,0:0|0:0,0:0:0:0:
172,108,48430,2,0,L|80:108,1,90,8|0,0:0|0:0,0:0:0:0:
308,108,48707,2,0,L|400:108,1,90,8|0,0:0|0:0,0:0:0:0:
172,108,48983,5,2,0:0:0:0:
444,108,49121,1,8,0:0:0:0:
308,108,49260,1,8,0:0:0:0:
84,108,49398,1,2,0:0:0:0:
308,108,49536,1,8,0:0:0:0:
444,108,49674,1,8,0:0:0:0:
220,108,49813,1,2,0:0:0:0:
488,108,49951,6,0,L|308:108,1,180,4|0,0:0|0:0,0:0:0:0:
84,108,50366,1,8,0:0:0:0:
92,156,50435,1,2,0:0:0:0:
120,196,50504,1,2,0:0:0:0:
164,212,50573,1,2,0:0:0:0:
344,212,50642,1,8,0:0:0:0:
388,228,50711,1,2,0:0:0:0:
416,268,50780,1,2,0:0:0:0:
424,316,50849,1,2,0:0:0:0:
200,316,50919,2,8,L|152:316,1,46,8|2,0:0|0:0,0:0:0:0:
336,316,51057,2,0,L|388:316,1,46,2|2,0:0|0:0,0:0:0:0:
154,316,51195,1,4,0:0:0:0:
420,316,52163,6,0,P|464:248|404:176,1,187.199998857422,4|0,0:0|0:0,0:0:0:0:
168,176,52578,2,0,L|160:272,1,93.5999994287109,8|0,0:0|0:0,0:0:0:0:
300,272,52854,1,2,0:0:0:0:
160,272,52992,1,2,0:0:0:0:
396,272,53131,2,0,L|404:176,1,93.5999994287109,8|0,0:0|0:0,0:0:0:0:
264,176,53407,5,2,0:0:0:0:
404,176,53545,1,2,0:0:0:0:
172,176,53684,2,0,L|72:176,1,93.5999994287109,8|0,0:0|0:0,0:0:0:0:
220,176,53960,1,2,0:0:0:0:
76,176,54098,1,2,0:0:0:0:
308,176,54237,1,8,0:0:0:0:
76,176,54375,6,0,P|104:236|216:252,1,187.199998857422,4|0,0:0|0:0,0:0:0:0:
448,252,54790,2,0,L|352:252,1,93.5999994287109,8|0,0:0|0:0,0:0:0:0:
212,252,55066,1,2,0:0:0:0:
352,252,55204,1,2,0:0:0:0:
116,252,55343,2,0,L|108:152,1,93.5999994287109,8|0,0:0|0:0,0:0:0:0:
248,156,55619,5,2,0:0:0:0:
108,156,55757,1,2,0:0:0:0:
344,156,55896,2,0,L|440:156,1,93.5999994287109,8|0,0:0|0:0,0:0:0:0:
296,156,56172,1,2,0:0:0:0:
436,156,56310,1,2,0:0:0:0:
200,156,56449,1,8,0:0:0:0:
436,156,56587,6,0,P|448:224|352:252,1,187.199998857422,4|0,0:0|0:0,0:0:0:0:
116,252,57002,2,0,L|108:156,1,93.5999994287109,8|0,0:0|0:0,0:0:0:0:
248,156,57278,1,2,0:0:0:0:
108,156,57416,1,2,0:0:0:0:
340,156,57555,2,0,L|436:156,1,93.5999994287109,8|0,0:0|0:0,0:0:0:0:
292,156,57831,5,2,0:0:0:0:
435,156,57969,1,2,0:0:0:0:
200,156,58108,2,0,L|104:156,1,93.5999994287109,8|0,0:0|0:0,0:0:0:0:
248,156,58384,1,2,0:0:0:0:
104,156,58522,1,2,0:0:0:0:
339,156,58661,1,8,0:0:0:0:
104,156,58799,6,0,P|100:216|204:252,1,187.199998857422,4|0,0:0|0:0,0:0:0:0:
440,252,59214,2,0,L|448:156,1,93.5999994287109,8|0,0:0|0:0,0:0:0:0:
308,156,59490,1,2,0:0:0:0:
448,156,59628,1,2,0:0:0:0:
212,156,59767,2,0,L|116:156,1,93.5999994287109,8|0,0:0|0:0,0:0:0:0:
352,156,60043,6,0,L|360:252,1,93.5999994287109,4|0,0:0|0:0,0:0:0:0:
128,252,60320,2,0,L|120:156,1,93.5999994287109,8|0,0:0|0:0,0:0:0:0:
352,156,60596,2,0,L|396:172,1,46.7999997143555,2|2,0:0|0:0,0:0:0:0:
325,171,60734,2,0,L|280:187,1,46.7999997143555,2|2,0:0|0:0,0:0:0:0:
352,156,60872,1,8,0:0:0:0:
120,160,61011,6,0,P|92:249|164:280,1,187.199998857422,4|0,0:0|0:0,0:0:0:0:
396,280,61425,2,0,L|404:184,1,93.5999994287109,8|0,0:0|0:0,0:0:0:0:
264,184,61702,1,2,0:0:0:0:
403,184,61840,1,2,0:0:0:0:
168,192,61978,2,0,L|72:192,1,93.5999994287109,8|0,0:0|0:0,0:0:0:0:
216,192,62255,5,2,0:0:0:0:
72,192,62393,1,2,0:0:0:0:
308,192,62531,2,0,L|404:192,1,93.5999994287109,8|0,0:0|0:0,0:0:0:0:
260,192,62808,1,2,0:0:0:0:
404,192,62946,1,2,0:0:0:0:
168,192,63084,1,8,0:0:0:0:
404,192,63223,6,0,P|408:256|308:296,1,187.199998857422,4|0,0:0|0:0,0:0:0:0:
72,296,63637,2,0,L|168:296,1,93.5999994287109,8|0,0:0|0:0,0:0:0:0:
308,296,63914,1,2,0:0:0:0:
168,296,64052,1,2,0:0:0:0:
404,292,64190,2,0,L|412:196,1,93.5999994287109,8|0,0:0|0:0,0:0:0:0:
176,196,64467,5,2,0:0:0:0:
36,196,64605,1,2,0:0:0:0:
176,196,64743,1,8,0:0:0:0:
412,196,64882,2,0,P|476:140|412:96,1,187.199998857422,2|2,0:0|0:0,0:0:0:0:
272,196,65296,2,0,L|368:196,1,93.5999994287109,8|0,0:0|0:0,0:0:0:0:
132,280,65573,6,0,P|88:216|168:184,1,187.199998857422,4|8,0:0|0:0,0:0:0:0:
400,184,65988,2,0,P|444:120|364:88,1,187.199998857422,4|2,0:0|0:0,0:0:0:0:
132,88,66402,2,0,L|116:180,1,93.5999994287109,8|0,0:0|0:0,0:0:0:0:
352,180,66679,6,0,P|440:192|468:276,1,187.199998857422,4|8,0:0|0:0,0:0:0:0:
232,276,67094,2,0,P|144:264|116:180,1,187.199998857422,4|2,0:0|0:0,0:0:0:0:
348,176,67508,1,8,0:0:0:0:
232,176,67647,1,0,0:0:0:0:
464,176,67785,6,0,L|472:272,1,93.5999994287109,2|0,0:0|0:0,0:0:0:0:
240,272,68061,2,0,L|336:272,1,93.5999994287109,8|0,0:0|0:0,0:0:0:0:
100,272,68338,2,0,L|96:176,1,93.5999994287109,8|0,0:0|0:0,0:0:0:0:
324,176,68614,2,0,L|228:176,1,93.5999994287109,8|0,0:0|0:0,0:0:0:0:
464,176,68891,5,4,0:0:0:0:
328,176,69029,1,8,0:0:0:0:
464,176,69167,1,8,0:0:0:0:
240,176,69306,2,0,L|260:216,1,45,2|2,0:0|0:0,0:0:0:0:
440,224,69444,2,0,L|464:264,1,45,8|8,0:0|0:0,0:0:0:0:
280,280,69582,1,2,0:0:0:0:
144,280,69720,1,8,0:0:0:0:
280,280,69859,2,0,L|324:268,1,45,8|0,0:0|0:0,0:0:0:0:
144,240,69997,6,0,B|52:208|52:208|148:240,1,196.200002095642,4|8,0:0|0:0,0:0:0:0:
388,240,70412,2,0,B|484:240|484:240|384:240,1,196.200002095642,0|2,0:0|0:0,0:0:0:0:
144,240,70826,2,0,L|136:140,1,98.1000010478211,8|0,0:0|0:0,0:0:0:0:
382,140,71103,6,0,L|480:140,1,98.1000010478211,2|0,0:0|0:0,0:0:0:0:
332,140,71379,1,8,0:0:0:0:
88,12,71518,2,0,P|28:52|100:116,1,196.200002095642,2|2,0:0|0:0,0:0:0:0:
344,112,71932,2,0,L|296:200,1,98.1000010478211,8|0,0:0|0:0,0:0:0:0:
52,112,72209,6,0,P|112:192|204:208,1,196.200002095642,2|8,0:0|0:0,0:0:0:0:
448,208,72624,2,0,P|388:288|296:304,1,196.200002095642,2|2,0:0|0:0,0:0:0:0:
52,304,73038,2,0,L|152:304,1,98.1000010478211,8|0,0:0|0:0,0:0:0:0:
396,304,73315,6,0,L|296:304,1,98.1000010478211,2|0,0:0|0:0,0:0:0:0:
444,304,73591,1,8,0:0:0:0:
200,304,73730,2,0,P|104:272|104:188,1,196.200002095642,2|2,0:0|0:0,0:0:0:0:
348,184,74144,2,0,L|448:184,1,98.1000010478211,8|0,0:0|0:0,0:0:0:0:
127,184,74421,6,0,P|76:120|156:84,1,196.200002095642,4|8,0:0|0:0,0:0:0:0:
404,184,74836,2,0,P|488:228|444:296,1,196.200002095642,2|2,0:0|0:0,0:0:0:0:
200,184,75250,2,0,L|100:184,1,98.1000010478211,8|0,0:0|0:0,0:0:0:0:
348,184,75527,6,0,L|448:184,1,98.1000010478211,2|0,0:0|0:0,0:0:0:0:
300,184,75803,1,8,0:0:0:0:
56,280,75942,2,0,P|52:204|152:184,1,196.200002095642,2|2,0:0|0:0,0:0:0:0:
400,184,76356,2,0,L|408:84,1,98.1000010478211,8|0,0:0|0:0,0:0:0:0:
164,80,76633,6,0,P|92:124|156:184,1,196.200002095642,2|8,0:0|0:0,0:0:0:0:
400,184,77048,2,0,P|444:232|356:284,1,196.200002095642,2|2,0:0|0:0,0:0:0:0:
112,280,77462,2,0,P|104:236|144:204,1,98.1000010478211,8|0,0:0|0:0,0:0:0:0:
388,184,77739,6,0,L|288:184,1,98.1000010478211,2|0,0:0|0:0,0:0:0:0:
440,184,78015,1,8,0:0:0:0:
196,280,78154,2,0,P|140:248|196:156,1,196.200002095642,2|2,0:0|0:0,0:0:0:0:
440,152,78568,2,0,P|472:192|456:232,1,98.1000010478211,8|0,0:0|0:0,0:0:0:0:
140,216,78845,6,0,P|80:140|144:100,1,196.200002095642,4|8,0:0|0:0,0:0:0:0:
388,96,79260,2,0,P|452:140|408:232,1,196.200002095642,2|2,0:0|0:0,0:0:0:0:
164,236,79674,2,0,P|108:276|92:300,1,98.1000010478211,8|0,0:0|0:0,0:0:0:0:
336,304,79951,6,0,L|436:304,1,98.1000010478211,2|0,0:0|0:0,0:0:0:0:
288,304,80227,1,8,0:0:0:0:
44,304,80366,2,0,P|44:220|140:200,1,196.200002095642,2|2,0:0|0:0,0:0:0:0:
384,200,80780,2,0,P|380:152|340:124,1,98.1000010478211,8|0,0:0|0:0,0:0:0:0:
96,200,81057,6,0,P|48:152|124:80,1,196.200002095642,2|8,0:0|0:0,0:0:0:0:
368,76,81472,2,0,P|416:124|340:200,1,196.200002095642,2|2,0:0|0:0,0:0:0:0:
96,100,81886,2,0,L|104:200,1,98.1000010478211,8|0,0:0|0:0,0:0:0:0:
348,200,82163,6,0,L|248:200,1,98.1000010478211,2|0,0:0|0:0,0:0:0:0:
396,200,82439,1,8,0:0:0:0:
152,272,82578,2,0,P|132:200|228:172,1,196.200002095642,2|2,0:0|0:0,0:0:0:0:
472,172,82992,1,8,0:0:0:0:
348,172,83131,1,0,0:0:0:0:
104,172,83269,6,0,P|112:236|212:264,1,180,4|2,0:0|0:0,0:0:0:0:
436,264,83822,1,8,0:0:0:0:
278,296,84098,1,0,0:0:0:0:
436,297,84237,6,0,L|444:200,1,90,2|0,0:0|0:0,0:0:0:0:
308,205,84513,1,2,0:0:0:0:
444,205,84651,1,2,0:0:0:0:
108,208,84928,2,0,P|64:148|136:96,1,180,8|0,0:0|0:0,0:0:0:0:
268,96,85343,1,0,0:0:0:0:
492,96,85481,6,0,L|400:96,1,90,8|0,0:0|0:0,0:0:0:0:
176,96,85757,2,0,L|84:96,1,90,2|0,0:0|0:0,0:0:0:0:
332,96,86034,2,8,L|424:96,1,90,8|0,0:0|0:0,0:0:0:0:
196,96,86310,2,0,L|104:96,1,90,2|0,0:0|0:0,0:0:0:0:
376,96,86587,6,0,L|384:188,1,90,8|0,0:0|0:0,0:0:0:0:
156,188,86863,2,0,L|148:280,1,90,2|0,0:0|0:0,0:0:0:0:
192,280,87071,1,8,0:0:0:0:
372,280,87140,2,8,L|364:188,1,90
140,188,87416,1,0,0:0:0:0:
256,192,87693,12,4,89905,0:0:0:0:
