osu file format v14

[General]
AudioFilename: audio.mp3
AudioLeadIn: 0
PreviewTime: 51472
Countdown: 0
SampleSet: Soft
StackLeniency: 0.7
Mode: 2
LetterboxInBreaks: 0
WidescreenStoryboard: 1

[Editor]
Bookmarks: 320,6955,15803,24651,33499,42347,52163,83269,87693,89905
DistanceSpacing: 2.9
BeatDivisor: 8
GridSize: 4
TimelineZoom: 3.399999

[Metadata]
Title:Fist Bump
TitleUnicode:Fist Bump
Artist:Douglas Robb (Hoobastank)
ArtistUnicode:Douglas Robb (Hoobastank)
Creator:rew0825
Version:Cup
Source:ソニックフォース
Tags:Sonic Forces Vocal Traxx On The Edge A Hero Will Rise Original Soundtrack Main Theme Hedgehog Wave Master Entertainment 大谷 智哉 Tomoya Ohtani 江口 貴勅 Takahito Eguchi SEGA Microsoft Sony Nintendo Xbox One XONE Playstation 4 PS4 Nintendo Switch NS PC Join Resistance 25th Anniversary maimai Ascendance
BeatmapID:1640231
BeatmapSetID:779577

[Difficulty]
HPDrainRate:3
CircleSize:2.5
OverallDifficulty:6
ApproachRate:6
SliderMultiplier:1
SliderTickRate:1

[Events]
//Background and Video events
0,0,"BG.jpg",0,0
//Break Periods
//Storyboard Layer 0 (Background)
//Storyboard Layer 1 (Fail)
//Storyboard Layer 2 (Pass)
//Storyboard Layer 3 (Foreground)
//Storyboard Sound Samples

[TimingPoints]
320,276.497695852535,4,2,0,30,1,0
4743,-100,4,2,0,40,0,0
6955,-100,4,2,1,80,0,0
15803,-100,4,2,1,60,0,0
21748,-100,4,2,0,60,0,0
21886,-100,4,2,1,60,0,0
31287,-100,4,2,1,40,0,0
31564,-100,4,2,1,60,0,0
52163,-100,4,2,1,80,0,1
68891,-100,4,2,1,60,0,0
69997,-100,4,2,1,90,0,1
83269,-100,4,2,1,70,0,0
87693,-100,4,2,1,40,0,0
89905,-100,4,2,1,60,0,0

[Colours]
Combo1 : 255,4,4
Combo2 : 4,4,255

[HitObjects]
136,192,320,6,0,P|108:156|136:116,1,100,2|2,0:0|0:0,0:0:0:0:
184,116,734,2,0,L|284:116,1,100,2|2,0:0|0:0,0:0:0:0:
384,116,1287,6,0,L|284:116,1,100,2|2,0:0|0:0,0:0:0:0:
184,116,1840,1,2,0:0:0:0:
136,116,1978,2,0,L|236:116,1,100,2|2,0:0|0:0,0:0:0:0:
360,116,2531,6,0,P|388:152|360:192,1,100,2|2,0:0|0:0,0:0:0:0:
312,192,2946,2,0,L|212:192,1,100,2|2,0:0|0:0,0:0:0:0:
112,192,3499,6,0,L|212:192,1,100,2|2,0:0|0:0,0:0:0:0:
312,192,4051,1,2,0:0:0:0:
360,192,4190,2,0,L|260:192,1,100,2|2,0:0|0:0,0:0:0:0:
136,192,4743,1,0,1:0:0:0:
256,192,5020,12,0,6679,0:0:0:0:
376,192,6955,6,0,P|404:156|376:116,1,100,6|8,0:0|0:0,0:0:0:0:
328,116,7370,2,0,L|224:116,1,100,2|2,0:0|0:0,0:0:0:0:
328,116,7923,6,0,P|376:152|328:208,1,150,2|8,0:0|0:0,0:0:0:0:
228,208,8614,1,2,0:0:0:0:
280,208,8753,1,2,0:0:0:0:
328,208,8891,1,8,0:0:0:0:
204,208,9167,6,0,P|176:172|204:132,1,100,2|8,0:0|0:0,0:0:0:0:
252,132,9582,2,0,L|356:132,1,100,2|2,0:0|0:0,0:0:0:0:
252,132,10135,6,0,P|204:168|252:224,1,150,2|8,0:0|0:0,0:0:0:0:
352,224,10826,1,2,0:0:0:0:
400,224,10965,1,2,0:0:0:0:
352,224,11103,1,8,0:0:0:0:
228,224,11379,6,0,L|128:224,1,100,2|8,0:0|0:0,0:0:0:0:
176,224,11794,2,0,L|284:224,1,100,2|2,0:0|0:0,0:0:0:0:
376,224,12347,6,0,P|424:188|376:132,1,150,2|8,0:0|0:0,0:0:0:0:
276,132,13038,1,0,0:0:0:0:
328,132,13177,1,2,0:0:0:0:
376,132,13315,1,8,0:0:0:0:
252,132,13591,6,0,L|152:132,1,100,8|8,0:0|0:0,0:0:0:0:
252,132,14144,2,0,L|352:132,1,100,8|8,0:0|0:0,0:0:0:0:
228,132,14697,6,0,P|192:160|216:200,1,100,2|8,0:0|0:0,0:0:0:0:
264,200,15112,1,2,0:0:0:0:
316,200,15250,2,0,P|352:228|328:268,1,100,8|8,0:0|0:0,0:0:0:0:
280,268,15665,1,8,0:0:0:0:
220,268,15803,5,4,0:0:0:0:
320,268,16080,2,0,L|420:268,2,100,2|2|2,0:0|0:0|0:0,0:0:0:0:
220,268,16909,6,0,L|120:268,1,100,2|2,0:0|0:0,0:0:0:0:
244,268,17462,2,0,P|340:256|396:176,1,200,0|2,0:0|0:0,0:0:0:0:
296,176,18292,6,0,L|196:176,2,100,2|2|2,0:0|0:0|0:0,0:0:0:0:
396,176,19121,6,0,L|296:176,1,100,2|2,0:0|0:0,0:0:0:0:
172,176,19674,2,0,P|208:264|303:267,1,200,0|2,0:0|0:0,0:0:0:0:
204,268,20504,6,0,L|104:268,2,100,2|2|2,0:0|0:0|0:0,0:0:0:0:
304,268,21333,6,0,L|404:268,1,100,2|2,0:0|0:0,0:0:0:0:
352,268,21748,1,2,0:0:0:0:
292,268,21886,2,0,L|188:268,1,100,2|2,0:0|0:0,0:0:0:0:
92,268,22439,5,2,0:0:0:0:
216,268,22716,2,0,L|316:268,2,100,4|4|4,0:0|0:0|0:0,0:0:0:0:
92,268,23545,5,2,0:0:0:0:
192,268,23822,2,0,L|292:268,1,100,8|8,0:0|0:0,0:0:0:0:
342,268,24237,1,2,0:0:0:0:
292,268,24375,1,8,0:0:0:0:
168,268,24651,5,4,0:0:0:0:
268,268,24928,2,0,L|368:268,2,100,8|2|8,0:0|0:0|0:0,0:0:0:0:
168,268,25757,6,0,P|148:224|180:192,1,100,2|8,0:0|0:0,0:0:0:0:
304,192,26310,2,0,P|360:136|280:84,1,200,2|2,0:0|0:0,0:0:0:0:
180,84,27140,6,0,L|80:84,2,100,8|2|8,0:0|0:0|0:0,0:0:0:0:
280,84,27969,6,0,P|300:128|268:160,1,100,2|8,0:0|0:0,0:0:0:0:
144,160,28522,2,0,P|88:216|168:268,1,200,2|4,0:0|0:0,0:0:0:0:
268,268,29352,6,0,L|368:268,2,100,8|2|8,0:0|0:0|0:0,0:0:0:0:
168,268,30181,6,0,P|116:256|80:228,1,100,2|8,0:0|0:0,0:0:0:0:
204,228,30734,2,0,P|300:216|356:136,1,200,2|2,0:0|0:0,0:0:0:0:
232,136,31564,6,0,L|132:136,2,100,4|4|4,0:0|0:0|0:0,0:0:0:0:
356,136,32393,6,0,P|380:176|356:220,1,100,2|8,0:0|0:0,0:0:0:0:
256,220,32946,2,0,P|232:260|256:304,1,100,8|8,0:0|0:0,0:0:0:0:
380,304,33499,6,0,P|404:244|344:200,1,150,4|4,0:0|0:0,0:0:0:0:
244,200,34190,1,2,0:0:0:0:
120,200,34467,6,0,P|76:136|120:100,1,150,4|8,0:0|0:0,0:0:0:0:
220,99,35158,1,2,0:0:0:0:
268,99,35296,1,2,0:0:0:0:
319,98,35435,1,8,0:0:0:0:
192,99,35711,6,0,P|144:136|192:192,1,150,4|4,0:0|0:0,0:0:0:0:
292,192,36402,1,2,0:0:0:0:
416,192,36679,6,0,P|460:256|416:292,1,150,4|8,0:0|0:0,0:0:0:0:
316,292,37370,1,2,0:0:0:0:
268,292,37508,1,2,0:0:0:0:
217,293,37647,1,8,0:0:0:0:
340,292,37923,6,0,P|412:280|464:224,1,150,4|4,0:0|0:0,0:0:0:0:
364,224,38614,1,2,0:0:0:0:
240,292,38891,6,0,P|164:280|144:216,1,150,4|8,0:0|0:0,0:0:0:0:
244,236,39582,1,2,0:0:0:0:
296,236,39720,1,2,0:0:0:0:
344,236,39859,1,8,0:0:0:0:
220,236,40135,6,0,L|120:236,1,100,8|8,0:0|0:0,0:0:0:0:
220,236,40688,2,0,L|320:236,1,100,8|8,0:0|0:0,0:0:0:0:
420,236,41241,6,0,L|320:236,1,100,8|8,0:0|0:0,0:0:0:0:
220,236,41794,6,0,L|208:136,1,100,8|8,0:0|0:0,0:0:0:0:
332,136,42347,6,0,L|436:136,2,100,4|2|8,0:0|0:0|0:0,0:0:0:0:
180,136,43315,1,2,0:0:0:0:
80,136,43591,6,0,L|80:188,1,50,2|2,0:0|0:0,0:0:0:0:
180,184,44006,2,8,L|284:184,1,100,8|2,0:0|0:0,0:0:0:0:
156,184,44559,6,0,L|52:184,2,100,2|2|8,0:0|0:0|0:0,0:0:0:0:
308,184,45527,1,2,0:0:0:0:
408,184,45803,6,0,L|408:132,1,50,2|2,0:0|0:0,0:0:0:0:
308,136,46218,2,0,L|208:136,1,100,8|2,0:0|0:0,0:0:0:0:
332,136,46771,5,4,0:0:0:0:
420,136,47048,1,8,0:0:0:0:
332,136,47324,1,8,0:0:0:0:
232,136,47601,1,8,0:0:0:0:
356,136,47877,5,8,0:0:0:0:
444,172,48154,1,8,0:0:0:0:
420,256,48430,1,8,0:0:0:0:
320,256,48707,1,8,0:0:0:0:
232,136,49121,2,0,L|228:188,1,50,8|8,0:0|0:0,0:0:0:0:
328,188,49536,2,0,L|332:240,1,50,8|8,0:0|0:0,0:0:0:0:
208,236,49951,6,0,P|184:192|208:152,1,100,4|0,0:0|0:0,0:0:0:0:
256,152,50366,1,8,0:0:0:0:
356,152,50642,1,8,0:0:0:0:
404,152,50780,1,2,0:0:0:0:
356,152,50919,1,8,0:0:0:0:
232,152,51195,1,4,0:0:0:0:
156,152,52163,6,0,P|112:205|156:259,1,150,4|8,0:0|0:0,0:0:0:0:
256,260,52854,2,0,L|356:260,1,100,2|8,0:0|0:0,0:0:0:0:
256,260,53407,6,0,L|156:260,1,100,2|8,0:0|0:0,0:0:0:0:
256,260,53960,1,2,0:0:0:0:
356,260,54237,1,8,0:0:0:0:
408,260,54375,6,0,P|452:207|408:153,1,150,4|8,0:0|0:0,0:0:0:0:
308,152,55066,2,0,L|208:152,1,100,2|8,0:0|0:0,0:0:0:0:
308,152,55619,6,0,L|408:152,1,100,2|8,0:0|0:0,0:0:0:0:
308,152,56172,1,2,0:0:0:0:
208,152,56449,1,8,0:0:0:0:
156,152,56587,6,0,L|308:152,1,150,4|8,0:0|0:0,0:0:0:0:
408,152,57278,2,0,P|400:192|356:228,1,100,2|8,0:0|0:0,0:0:0:0:
256,224,57831,6,0,P|216:248|204:300,1,100,2|8,0:0|0:0,0:0:0:0:
304,296,58384,1,2,0:0:0:0:
404,296,58661,1,8,0:0:0:0:
456,296,58799,6,0,L|304:296,1,150,4|8,0:0|0:0,0:0:0:0:
206,296,59490,1,2,0:0:0:0:
158,296,59628,1,2,0:0:0:0:
206,296,59767,1,8,0:0:0:0:
331,296,60043,6,0,L|431:296,1,100,4|8,0:0|0:0,0:0:0:0:
333,296,60596,1,2,0:0:0:0:
284,296,60734,1,2,0:0:0:0:
160,244,61011,6,0,P|116:192|160:136,1,150,4|8,0:0|0:0,0:0:0:0:
260,136,61702,2,0,L|364:136,1,100,2|8,0:0|0:0,0:0:0:0:
460,136,62255,6,0,L|356:136,1,100,2|8,0:0|0:0,0:0:0:0:
260,136,62808,1,2,0:0:0:0:
162,136,63084,1,8,0:0:0:0:
112,136,63223,6,0,P|68:188|112:244,1,150,4|8,0:0|0:0,0:0:0:0:
212,244,63914,2,0,L|312:244,1,100,2|8,0:0|0:0,0:0:0:0:
212,244,64467,6,0,L|112:244,1,100,2|8,0:0|0:0,0:0:0:0:
156,244,64882,1,2,0:0:0:0:
268,128,65158,1,2,0:0:0:0:
312,128,65296,1,8,0:0:0:0:
188,128,65573,6,0,P|120:120|64:64,2,150,4|4|8,0:0|0:0|0:0,0:0:0:0:
312,128,66679,6,0,P|380:120|436:64,2,150,4|4|8,0:0|0:0|0:0,0:0:0:0:
187,128,67785,6,0,P|144:152|136:200,1,100,2|8,0:0|0:0,0:0:0:0:
236,196,68338,2,0,L|340:196,1,100,8|8,0:0|0:0,0:0:0:0:
211,272,68891,5,4,0:0:0:0:
112,272,69167,1,8,0:0:0:0:
148,272,69444,1,8,0:0:0:0:
247,272,69720,1,8,0:0:0:0:
372,272,69997,6,0,P|448:212|392:152,1,200,4|0,0:0|0:0,0:0:0:0:
292,152,70826,1,8,0:0:0:0:
192,152,71103,6,0,L|68:236,2,150,2|2|8,0:0|0:0|0:0,0:0:0:0:
316,256,72209,6,0,P|356:204|264:152,1,200,2|0,0:0|0:0,0:0:0:0:
140,152,73038,1,8,0:0:0:0:
264,152,73315,6,0,L|388:236,2,150,2|2|8,0:0|0:0|0:0,0:0:0:0:
140,152,74421,6,0,P|84:212|156:280,1,200,4|0,0:0|0:0,0:0:0:0:
252,280,75250,1,8,0:0:0:0:
352,280,75527,6,0,L|476:196,2,150,2|2|8,0:0|0:0|0:0,0:0:0:0:
228,280,76633,6,0,P|184:236|264:160,1,200,2|0,0:0|0:0,0:0:0:0:
364,160,77462,1,8,0:0:0:0:
264,160,77739,6,0,L|140:244,2,150,2|2|8,0:0|0:0|0:0,0:0:0:0:
388,160,78845,6,0,P|452:224|388:288,1,200,4|0,0:0|0:0,0:0:0:0:
288,288,79674,1,8,0:0:0:0:
188,288,79951,6,0,L|64:204,2,150,2|2|8,0:0|0:0|0:0,0:0:0:0:
312,288,81057,6,0,P|356:216|272:172,1,200,2|0,0:0|0:0,0:0:0:0:
172,172,81886,1,8,0:0:0:0:
272,172,82163,6,0,L|420:152,2,150,2|2|8,0:0|0:0|0:0,0:0:0:0:
148,172,83269,6,0,P|96:236|172:296,1,200,4|8,0:0|0:0,0:0:0:0:
372,172,84375,2,0,P|424:236|348:296,1,200,0|8,0:0|0:0,0:0:0:0:
148,176,85481,6,0,L|60:224,2,100,8|2|8,0:0|0:0|0:0,0:0:0:0:
360,176,86587,2,0,L|448:224,2,100,8|2|8,0:0|0:0|0:0,0:0:0:0:
256,192,87693,12,4,89905,0:0:0:0:
