osu file format v14

[General]
AudioFilename: audio.mp3
AudioLeadIn: 0
PreviewTime: 51472
Countdown: 0
SampleSet: Soft
StackLeniency: 0.7
Mode: 2
LetterboxInBreaks: 0
WidescreenStoryboard: 0

[Editor]
Bookmarks: 320,15803,33499,52163,61149,69997,83269
DistanceSpacing: 2.9
BeatDivisor: 4
GridSize: 32
TimelineZoom: 3.399999

[Metadata]
Title:Fist Bump
TitleUnicode:Fist Bump
Artist:Douglas Robb (Hoobastank)
ArtistUnicode:Douglas Robb (Hoobastank)
Creator:rew0825
Version:Ascendance's Ultimate
Source:ソニックフォース
Tags:Sonic Forces Vocal Traxx On The Edge A Hero Will Rise Original Soundtrack Main Theme Hedgehog Wave Master Entertainment 大谷 智哉 Tomoya Ohtani 江口 貴勅 Takahito Eguchi SEGA Microsoft Sony Nintendo Xbox One XONE Playstation 4 PS4 Nintendo Switch NS PC Join Resistance 25th Anniversary maimai Ascendance
BeatmapID:1682915
BeatmapSetID:779577

[Difficulty]
HPDrainRate:7
CircleSize:4.2
OverallDifficulty:9.6
ApproachRate:9.6
SliderMultiplier:2.16
SliderTickRate:2

[Events]
//Background and Video events
0,0,"BG.jpg",0,0
//Break Periods
//Storyboard Layer 0 (Background)
//Storyboard Layer 1 (Fail)
//Storyboard Layer 2 (Pass)
//Storyboard Layer 3 (Foreground)
//Storyboard Sound Samples

[TimingPoints]
320,276.497695852535,4,2,0,30,1,0
4743,-100,4,2,0,40,0,0
6955,-100,4,2,1,80,0,0
15803,-100,4,2,1,60,0,0
21748,-100,4,2,0,60,0,0
21886,-100,4,2,1,60,0,0
22025,-100,4,2,0,60,0,0
22163,-100,4,2,1,60,0,0
31287,-100,4,2,1,40,0,0
31564,-100,4,2,1,60,0,0
52163,-96.1538461538461,4,2,1,80,0,1
68891,-100,4,2,1,60,0,0
69997,-91.743119266055,4,2,1,90,0,1
83269,-100,4,2,1,70,0,0
87693,-100,4,2,1,40,0,0
89905,-100,4,2,1,60,0,0

[Colours]
Combo1 : 255,4,4
Combo2 : 4,4,255

[HitObjects]
281,90,320,5,2,0:0:0:0:
399,144,458,2,0,L|406:202,2,54,0|0|2,0:0|0:0|0:0,0:0:0:0:
248,286,734,2,0,L|470:272,1,216,2|2,0:0|0:0,0:0:0:0:
326,233,1149,2,0,L|245:221,1,54,2|0,0:0|0:0,0:0:0:0:
210,216,1287,6,0,L|434:198,1,216,2|2,0:0|0:0,0:0:0:0:
188,108,1840,1,2,0:0:0:0:
393,286,1978,1,2,0:0:0:0:
480,231,2116,1,0,0:0:0:0:
477,128,2255,1,2,0:0:0:0:
386,80,2392,1,0,0:0:0:0:
186,79,2531,5,2,0:0:0:0:
67,144,2670,2,0,L|57:207,2,54,0|0|2,0:0|0:0|0:0,0:0:0:0:
217,256,2946,2,0,P|283:183|198:107,1,216,2|2,0:0|0:0,0:0:0:0:
114,100,3361,2,0,L|189:100,1,54,2|0,0:0|0:0,0:0:0:0:
216,97,3499,6,0,L|434:98,1,216,2|2,0:0|0:0,0:0:0:0:
209,52,4052,1,2,0:0:0:0:
360,111,4190,2,0,L|354:172,1,54,2|0,0:0|0:0,0:0:0:0:
194,189,4329,2,0,L|183:243,1,54,2|0,0:0|0:0,0:0:0:0:
348,238,4467,2,0,L|358:185,1,54,2|0,0:0|0:0,0:0:0:0:
187,169,4605,2,0,L|197:116,1,54,2|0,0:0|0:0,0:0:0:0:
391,27,4743,5,0,1:0:0:0:
440,45,4813,1,0,0:0:0:0:
462,93,4881,1,2,0:0:0:0:
446,143,4950,1,0,0:0:0:0:
400,168,5019,1,2,0:0:0:0:
258,172,5158,2,0,P|151:208|24:150,1,216,2|2,0:0|0:0,0:0:0:0:
155,148,5573,1,2,0:0:0:0:
299,241,5711,6,0,P|364:172|290:93,1,216,2|2,0:0|0:0,0:0:0:0:
167,86,6126,2,0,L|41:86,2,108,0|2|0,0:0|0:0|0:0,0:0:0:0:
298,87,6541,2,0,L|424:87,2,108,0|0|0,0:0|0:0|0:0,0:0:0:0:
62,39,6955,6,0,L|52:157,1,108,6|2,0:0|0:0,0:0:0:0:
172,186,7232,1,8,0:0:0:0:
476,281,7370,2,0,P|380:268|359:274,1,108,2|0,0:0|0:0,0:0:0:0:
114,293,7647,2,0,P|101:197|107:176,1,108,2|8,0:0|0:0,0:0:0:0:
406,75,7923,6,0,P|308:55|187:92,1,216,2|2,0:0|0:0,0:0:0:0:
451,231,8338,2,0,P|481:159|472:119,1,108,8|0,0:0|0:0,0:0:0:0:
351,49,8614,1,2,0:0:0:0:
238,94,8752,1,2,0:0:0:0:
240,196,8890,1,8,0:0:0:0:
352,249,9029,2,0,L|411:249,1,54,0|0,0:0|0:0,0:0:0:0:
240,346,9167,6,0,L|232:215,1,108,2|2,0:0|0:0,0:0:0:0:
362,267,9444,1,8,0:0:0:0:
90,300,9582,2,0,P|26:228|122:156,1,216,2|2,0:0|0:0,0:0:0:0:
204,152,9997,1,8,0:0:0:0:
431,149,10135,6,0,L|213:148,1,216,2|2,0:0|0:0,0:0:0:0:
348,125,10550,1,8,0:0:0:0:
79,288,10688,2,0,P|12:226|96:147,1,216,0|2,0:0|0:0,0:0:0:0:
226,139,11103,2,0,L|39:141,1,162,8|0,0:0|0:0,0:0:0:0:
316,81,11379,6,0,L|426:81,2,108,2|2|8,0:0|0:0|0:0,0:0:0:0:
106,155,11794,2,0,L|83:42,1,108,2|0,0:0|0:0,0:0:0:0:
342,263,12071,2,0,L|456:251,1,108,2|8,0:0|0:0,0:0:0:0:
146,247,12347,6,0,L|382:228,1,216,2|2,0:0|0:0,0:0:0:0:
490,217,12762,1,8,0:0:0:0:
190,332,12900,2,0,P|121:256|216:182,1,216,2|2,0:0|0:0,0:0:0:0:
315,181,13315,2,0,L|373:181,1,54,8|0,0:0|0:0,0:0:0:0:
147,85,13453,2,0,L|66:85,1,54,0|0,0:0|0:0,0:0:0:0:
339,41,13591,5,8,0:0:0:0:
477,41,13730,1,0,0:0:0:0:
254,154,13868,5,8,0:0:0:0:
392,153,14007,1,0,0:0:0:0:
173,41,14144,5,8,0:0:0:0:
36,39,14283,1,0,0:0:0:0:
254,154,14421,5,8,0:0:0:0:
118,154,14560,1,0,0:0:0:0:
444,334,14697,6,0,L|460:212,1,108,2|8,0:0|0:0,0:0:0:0:
176,108,14974,1,8,0:0:0:0:
283,86,15112,2,0,L|350:86,1,54,2|2,0:0|0:0,0:0:0:0:
137,41,15250,6,0,L|63:41,1,54,8|8,0:0|0:0,0:0:0:0:
137,41,15389,2,0,L|204:41,1,54,2|0,0:0|0:0,0:0:0:0:
400,39,15527,2,0,L|459:38,1,54,8|0,0:0|0:0,0:0:0:0:
233,168,15665,2,0,L|161:167,1,54,8|0,0:0|0:0,0:0:0:0:
400,39,15803,5,4,0:0:0:0:
241,95,16080,2,0,L|245:207,1,108,2|0,0:0|0:0,0:0:0:0:
105,189,16356,2,0,L|106:303,1,108,2|0,0:0|0:0,0:0:0:0:
241,95,16633,2,0,L|245:207,1,108,2|0,0:0|0:0,0:0:0:0:
404,245,16909,6,0,L|284:273,2,108,2|0|2,0:0|0:0|0:0,0:0:0:0:
269,240,17324,2,0,P|200:173|292:99,1,216,0|0,0:0|0:0,0:0:0:0:
387,157,17739,2,0,L|396:42,1,108,2|0,0:0|0:0,0:0:0:0:
126,31,18015,5,2,0:0:0:0:
319,123,18292,2,0,L|200:105,1,108,2|0,0:0|0:0,0:0:0:0:
91,210,18568,2,0,L|211:197,1,108,2|0,0:0|0:0,0:0:0:0:
330,229,18845,2,0,L|450:219,1,108,2|0,0:0|0:0,0:0:0:0:
204,328,19121,6,0,L|86:313,2,108,2|0|2,0:0|0:0|0:0,0:0:0:0:
326,221,19536,2,0,L|106:244,1,216,0|2,0:0|0:3,0:0:0:0:
255,307,19951,2,0,L|375:329,1,108,2|2,0:0|0:3,0:0:0:0:
166,359,20227,5,2,0:0:0:0:
364,306,20504,2,0,L|353:195,1,108,2|0,0:0|0:0,0:0:0:0:
236,228,20780,2,0,L|225:117,1,108,2|0,0:0|0:0,0:0:0:0:
98,162,21057,2,0,L|87:51,1,108,2|0,0:0|0:0,0:0:0:0:
225,78,21333,6,0,L|448:58,1,216,2|2,0:0|0:0,0:0:0:0:
322,106,21748,2,0,L|256:94,1,54,2|2,0:0|0:0,0:0:0:0:
73,227,21886,2,0,L|193:215,1,108,2|2,0:0|0:0,0:0:0:0:
292,248,22163,2,0,L|412:237,1,108,2|0,0:0|0:0,0:0:0:0:
269,330,22439,6,0,L|141:316,1,108,2|0,0:0|0:0,0:0:0:0:
444,268,22716,2,0,L|458:142,1,108,4|0,0:0|0:0,0:0:0:0:
68,268,22992,2,0,L|54:142,1,108,4|0,0:0|0:0,0:0:0:0:
444,268,23269,2,0,L|458:142,1,108,4|0,0:0|0:0,0:0:0:0:
169,63,23545,5,2,0:0:0:0:
288,148,23684,2,0,L|295:82,1,54,8|0,0:0|0:0,0:0:0:0:
108,177,23822,2,0,L|48:176,1,54,8|0,0:0|0:0,0:0:0:0:
108,177,23960,2,0,L|176:177,1,54,2|2,0:0|0:0,0:0:0:0:
314,180,24098,6,0,L|394:181,1,54,8|8,0:0|0:0,0:0:0:0:
499,184,24237,2,0,L|411:183,1,54,2|0,0:0|0:0,0:0:0:0:
294,181,24375,2,0,L|206:180,1,54,8|0,0:0|0:0,0:0:0:0:
89,182,24513,2,0,L|1:181,1,54,8|0,0:0|0:0,0:0:0:0:
314,94,24651,6,0,L|430:94,1,108,4|0,0:0|0:0,0:0:0:0:
151,32,24928,1,8,0:0:0:0:
272,170,25066,1,2,0:0:0:0:
275,116,25135,1,0,0:0:0:0:
278,62,25204,1,2,0:0:0:0:
151,32,25343,1,2,0:0:0:0:
361,237,25481,2,0,L|481:227,1,108,8|0,0:0|0:0,0:0:0:0:
176,313,25757,6,0,L|59:304,2,108,2|0|8,0:0|0:0|0:0,0:0:0:0:
427,351,26172,2,0,L|442:298,1,54,2|0,0:0|0:0,0:0:0:0:
257,248,26310,2,0,L|134:228,1,108,2|2,0:0|0:0,0:0:0:0:
410,198,26587,2,0,P|457:137|391:79,1,162,8|0,0:0|0:0,0:0:0:0:
181,47,26863,6,0,L|51:47,1,108,2|0,0:0|0:0,0:0:0:0:
320,25,27140,1,8,0:0:0:0:
192,90,27278,1,2,0:0:0:0:
197,143,27347,1,0,0:0:0:0:
202,197,27416,1,2,0:0:0:0:
345,234,27555,1,2,0:0:0:0:
97,330,27693,2,0,L|83:212,1,108,8|0,0:0|0:0,0:0:0:0:
372,153,27969,5,2,0:0:0:0:
254,164,28107,1,0,0:0:0:0:
135,179,28245,1,8,0:0:0:0:
353,238,28384,2,0,L|415:248,1,54,2|0,0:0|0:0,0:0:0:0:
221,127,28522,2,0,L|94:143,1,108,2|2,0:0|0:0,0:0:0:0:
320,43,28799,2,0,L|464:55,1,108,8|2,0:0|0:0,0:0:0:0:
368,75,29006,1,0,0:0:0:0:
159,79,29075,6,0,L|41:63,1,108,4|0,0:0|0:0,0:0:0:0:
380,171,29352,1,8,0:0:0:0:
259,231,29490,1,2,0:0:0:0:
205,223,29559,1,0,0:0:0:0:
152,216,29628,1,2,0:0:0:0:
42,198,29767,1,2,0:0:0:0:
325,318,29905,2,0,L|443:304,1,108,8|0,0:0|0:0,0:0:0:0:
157,349,30181,6,0,L|33:334,2,108,2|0|8,0:0|0:0|0:0,0:0:0:0:
414,359,30596,2,0,L|429:283,1,54,2|0,0:0|0:0,0:0:0:0:
235,260,30734,2,0,L|118:239,1,108,2|2,0:0|0:0,0:0:0:0:
372,198,31011,2,0,P|417:139|356:83,1,162,8|0,0:0|0:0,0:0:0:0:
189,82,31287,5,2,0:0:0:0:
355,86,31564,2,0,L|500:85,1,108,4|0,0:0|0:0,0:0:0:0:
200,88,31840,2,0,L|92:88,1,108,4|0,0:0|0:0,0:0:0:0:
293,56,32117,2,0,L|400:56,1,108,4|0,0:0|0:0,0:0:0:0:
101,28,32393,5,2,0:0:0:0:
377,229,32531,2,0,L|392:106,1,108,8|8,0:0|0:0,0:0:0:0:
238,285,32808,2,0,L|245:225,1,54,2|2,0:0|0:0,0:0:0:0:
441,255,32946,1,8,0:0:0:0:
494,236,33015,1,0,0:0:0:0:
509,185,33084,1,2,0:0:0:0:
476,138,33153,1,2,0:0:0:0:
287,83,33223,2,0,L|232:92,1,54,8|2,0:0|0:0,0:0:0:0:
411,28,33361,2,0,L|469:40,1,54,8|0,0:0|0:0,0:0:0:0:
178,15,33499,6,0,P|103:75|189:144,1,216,4|8,0:0|0:0,0:0:0:0:
456,168,33914,2,0,L|344:167,1,108,4|0,0:0|0:0,0:0:0:0:
37,258,34190,2,0,L|192:258,1,108,2|8,0:0|0:0,0:0:0:0:
429,327,34467,6,0,L|175:327,1,216,4|0,0:0|0:0,0:0:0:0:
494,232,34882,2,0,L|377:232,1,108,8|0,0:0|0:0,0:0:0:0:
265,227,35158,2,0,L|389:227,1,108,2|2,0:0|0:0,0:0:0:0:
64,131,35435,2,0,L|189:132,1,108,8|0,0:0|0:0,0:0:0:0:
458,132,35711,6,0,L|345:132,2,108,4|0|8,0:0|0:0|0:0,0:0:0:0:
174,255,36126,2,0,P|104:188|194:106,1,216,4|2,0:0|0:0,0:0:0:0:
281,107,36541,1,8,0:0:0:0:
16,81,36679,6,0,L|236:81,1,216,4|0,0:0|0:0,0:0:0:0:
117,59,37094,1,8,0:0:0:0:
356,234,37232,2,0,P|420:157|337:85,1,216,0|2,0:0|0:0,0:0:0:0:
233,83,37647,2,0,L|418:83,1,162,8|0,0:0|0:0,0:0:0:0:
121,297,37923,6,0,P|60:220|152:146,1,216,4|8,0:0|0:0,0:0:0:0:
385,142,38338,2,0,L|497:142,1,108,4|0,0:0|0:0,0:0:0:0:
208,79,38614,2,0,L|96:79,1,108,2|8,0:0|0:0,0:0:0:0:
396,281,38891,6,0,P|458:206|366:143,1,216,4|0,0:0|0:0,0:0:0:0:
254,206,39306,2,0,L|240:89,1,108,8|0,0:0|0:0,0:0:0:0:
377,306,39582,2,0,L|391:189,1,108,2|2,0:0|0:0,0:0:0:0:
126,283,39859,2,0,L|14:291,1,108,8|0,0:0|0:0,0:0:0:0:
339,88,40135,5,8,0:0:0:0:
468,77,40273,1,0,0:0:0:0:
258,217,40412,5,8,0:0:0:0:
387,206,40550,1,0,0:0:0:0:
160,81,40688,5,8,0:0:0:0:
31,70,40826,1,0,0:0:0:0:
241,210,40965,5,8,0:0:0:0:
112,199,41103,1,2,0:0:0:0:
432,293,41241,6,0,L|453:176,1,108,8|0,0:0|0:0,0:0:0:0:
179,107,41518,2,0,L|121:96,1,54,8|0,0:0|0:0,0:0:0:0:
348,66,41656,2,0,L|406:55,1,54,2|2,0:0|0:0,0:0:0:0:
165,334,41794,1,8,0:0:0:0:
65,273,41932,1,8,0:0:0:0:
67,169,42070,1,8,0:0:0:0:
170,114,42208,1,8,0:0:0:0:
433,230,42347,6,0,P|497:154|399:84,1,216,4|2,0:0|0:0,0:0:0:0:
299,135,42762,2,0,L|279:26,1,108,0|8,0:0|0:0,0:0:0:0:
432,315,43038,2,0,L|451:187,1,108,0|2,0:0|0:0,0:0:0:0:
140,237,43315,6,0,L|393:216,1,216,2|2,0:0|0:0,0:0:0:0:
212,115,43730,2,0,L|210:239,1,108,2|0,0:0|0:0,0:0:0:0:
459,325,44006,2,0,L|216:313,1,216,8|2,0:0|0:0,0:0:0:0:
115,303,44421,1,0,0:0:0:0:
262,350,44559,6,0,P|321:286|238:208,1,216,2|2,0:0|0:0,0:0:0:0:
114,206,44974,2,0,L|230:206,1,108,2|8,0:0|0:0,0:0:0:0:
344,206,45250,2,0,L|464:205,1,108,0|2,0:0|0:0,0:0:0:0:
153,324,45527,6,0,P|76:256|147:178,1,216,2|2,0:0|0:0,0:0:0:0:
250,176,45942,2,0,L|363:176,1,108,2|0,0:0|0:0,0:0:0:0:
51,90,46218,2,0,L|272:88,1,216,8|2,0:0|0:0,0:0:0:0:
142,58,46633,1,0,0:0:0:0:
378,278,46771,6,0,P|444:207|346:134,1,216,4|8,0:0|0:0,0:0:0:0:
256,182,47186,2,0,L|241:65,1,108,0|8,0:0|0:0,0:0:0:0:
374,107,47462,2,0,L|486:88,1,108,0|8,0:0|0:0,0:0:0:0:
232,268,47739,6,0,L|6:250,1,216,0|0,0:0|0:0,0:0:0:0:
122,231,48154,2,0,L|262:225,1,108,8|0,0:0|0:0,0:0:0:0:
468,329,48430,2,0,L|216:312,1,216,8|8,0:0|0:0,0:0:0:0:
128,295,48845,1,0,0:0:0:0:
464,168,48983,5,2,0:0:0:0:
164,221,49121,1,8,0:0:0:0:
464,168,49260,1,8,0:0:0:0:
334,95,49398,1,2,0:0:0:0:
36,37,49536,2,0,L|156:55,2,108,8|8|2,0:0|0:0|0:0,0:0:0:0:
391,144,49951,6,0,L|147:172,1,216,4|0,0:0|0:0,0:0:0:0:
445,269,50366,2,0,L|504:269,1,54,8|2,0:0|0:0,0:0:0:0:
270,209,50504,2,0,L|210:209,1,54,2|2,0:0|0:0,0:0:0:0:
38,93,50642,6,0,L|121:78,1,54,8|2,0:0|0:0,0:0:0:0:
237,82,50780,2,0,L|299:71,1,54,2|2,0:0|0:0,0:0:0:0:
434,77,50919,2,0,L|496:65,1,54,8|2,0:0|0:0,0:0:0:0:
290,72,51057,2,0,L|237:82,1,54,2|2,0:0|0:0,0:0:0:0:
456,172,51195,5,4,0:0:0:0:
271,177,51472,1,0,0:0:0:0:
387,248,51748,2,0,L|497:248,2,108,0|0|0,0:0|0:0|0:0,0:0:0:0:
96,333,52163,6,0,P|33:267|117:179,1,224.639998628906,4|0,0:0|0:0,0:0:0:0:
392,180,52578,2,0,L|270:180,1,112.319999314453,8|0,0:0|0:0,0:0:0:0:
151,252,52854,2,0,L|133:116,1,112.319999314453,2|2,0:0|0:0,0:0:0:0:
464,363,53131,2,0,L|482:227,1,112.319999314453,8|0,0:0|0:0,0:0:0:0:
210,295,53407,6,0,L|201:173,1,112.319999314453,2|2,0:0|0:0,0:0:0:0:
322,157,53684,1,8,0:0:0:0:
66,73,53822,2,0,L|299:46,1,224.639998628906,0|2,0:0|0:0,0:0:0:0:
20,12,54237,1,8,0:0:0:0:
341,253,54375,6,0,P|408:178|330:105,1,224.639998628906,4|0,0:0|0:0,0:0:0:0:
208,165,54790,2,0,L|192:48,1,112.319999314453,8|0,0:0|0:0,0:0:0:0:
319,98,55066,1,2,0:0:0:0:
181,41,55204,1,2,0:0:0:0:
458,315,55343,2,0,L|463:191,1,112.319999314453,8|0,0:0|0:0,0:0:0:0:
157,265,55619,5,2,0:0:0:0:
286,247,55757,1,2,0:0:0:0:
408,223,55896,1,8,0:0:0:0:
116,175,56034,2,0,L|5:157,2,112.319999314453,0|2|2,0:0|0:0|0:0,0:0:0:0:
460,338,56449,1,8,0:0:0:0:
179,356,56587,6,0,P|109:285|194:204,1,224.639998628906,4|0,0:0|0:0,0:0:0:0:
469,248,57002,2,0,L|473:117,1,112.319999314453,8|0,0:0|0:0,0:0:0:0:
345,107,57278,2,0,L|468:89,1,112.319999314453,2|2,0:0|0:0,0:0:0:0:
163,58,57555,2,0,L|36:38,1,112.319999314453,8|0,0:0|0:0,0:0:0:0:
310,14,57831,5,2,0:0:0:0:
178,72,57969,2,0,L|186:208,1,112.319999314453,2|8,0:0|0:0,0:0:0:0:
482,238,58246,2,0,L|362:248,1,112.319999314453,0|2,0:0|0:0,0:0:0:0:
138,323,58522,2,0,L|18:333,1,112.319999314453,2|8,0:0|0:0,0:0:0:0:
366,282,58799,6,0,L|137:261,1,224.639998628906,4|0,0:0|0:0,0:0:0:0:
268,234,59214,2,0,L|394:212,1,112.319999314453,8|0,0:0|0:0,0:0:0:0:
251,197,59490,2,0,L|138:177,1,112.319999314453,2|2,0:0|0:0,0:0:0:0:
452,364,59767,2,0,L|471:250,1,112.319999314453,8|0,0:0|0:0,0:0:0:0:
183,42,60043,6,0,L|56:42,1,112.319999314453,4|0,0:0|0:0,0:0:0:0:
336,165,60320,2,0,L|209:165,1,112.319999314453,8|0,0:0|0:0,0:0:0:0:
431,286,60596,2,0,L|488:286,1,56.1599996572266,2|2,0:0|0:0,0:0:0:0:
294,277,60734,2,0,L|224:277,1,56.1599996572266,2|2,0:0|0:0,0:0:0:0:
399,207,60872,2,0,L|455:207,1,56.1599996572266,8|0,0:0|0:0,0:0:0:0:
197,202,61011,6,0,P|133:123|239:51,1,224.639998628906,4|0,0:0|0:0,0:0:0:0:
413,39,61425,2,0,L|298:39,1,112.319999314453,8|0,0:0|0:0,0:0:0:0:
178,50,61702,2,0,L|185:167,1,112.319999314453,2|2,0:0|0:0,0:0:0:0:
451,188,61978,2,0,L|458:305,1,112.319999314453,8|0,0:0|0:0,0:0:0:0:
170,322,62255,5,2,0:0:0:0:
308,357,62393,2,0,L|312:231,1,112.319999314453,2|8,0:0|0:0,0:0:0:0:
116,167,62670,2,0,L|361:157,1,224.639998628906,0|2,0:0|0:0,0:0:0:0:
36,87,63084,1,8,0:0:0:0:
359,47,63223,6,0,L|117:44,1,224.639998628906,4|0,0:0|0:0,0:0:0:0:
262,181,63637,2,0,L|282:57,1,112.319999314453,8|0,0:0|0:0,0:0:0:0:
135,117,63914,2,0,L|111:239,1,112.319999314453,2|2,0:0|0:0,0:0:0:0:
369,278,64190,2,0,L|498:267,1,112.319999314453,8|0,0:0|0:0,0:0:0:0:
182,338,64467,6,0,L|295:355,2,112.319999314453,2|2|8,0:0|0:0|0:0,0:0:0:0:
443,273,64882,2,0,P|496:189|411:124,1,224.639998628906,2|2,0:0|0:0,0:0:0:0:
135,190,65296,2,0,L|110:59,1,112.319999314453,8|0,0:0|0:0,0:0:0:0:
381,52,65573,6,0,P|234:35|129:75,1,224.639998628906,4|8,0:0|0:0,0:0:0:0:
427,272,65988,2,0,P|495:177|411:97,1,224.639998628906,4|2,0:0|0:0,0:0:0:0:
189,67,66402,2,0,P|127:67|64:87,1,112.319999314453,8|0,0:0|0:0,0:0:0:0:
293,27,66679,6,0,P|380:53|516:7,1,224.639998628906,4|8,0:0|0:0,0:0:0:0:
199,125,67094,2,0,P|119:187|191:300,1,224.639998628906,4|2,0:0|0:0,0:0:0:0:
389,323,67508,2,0,P|444:316|499:325,1,112.319999314453,8|0,0:0|0:0,0:0:0:0:
173,88,67785,5,2,0:0:0:0:
44,77,67923,1,0,0:0:0:0:
254,217,68062,5,8,0:0:0:0:
125,206,68200,1,0,0:0:0:0:
352,81,68338,5,8,0:0:0:0:
481,70,68476,1,0,0:0:0:0:
271,210,68615,5,8,0:0:0:0:
400,199,68753,1,0,0:0:0:0:
122,326,68891,5,4,0:0:0:0:
387,368,69029,2,0,L|401:251,1,108,8|8,0:0|0:0,0:0:0:0:
260,243,69306,2,0,L|187:225,1,54,2|2,0:0|0:0,0:0:0:0:
357,207,69444,1,8,0:0:0:0:
377,158,69513,1,8,0:0:0:0:
367,106,69582,1,2,0:0:0:0:
329,69,69651,1,0,0:0:0:0:
276,60,69720,1,8,0:0:0:0:
424,83,69859,2,0,L|430:24,1,54,8|0,0:0|0:0,0:0:0:0:
188,18,69997,6,0,P|106:83|204:162,1,235.440002514771,4|8,0:0|0:0,0:0:0:0:
301,172,70412,1,0,0:0:0:0:
170,223,70550,2,0,L|298:224,1,117.720001257385,0|2,0:0|0:0,0:0:0:0:
411,288,70826,2,0,L|417:163,1,117.720001257385,8|0,0:0|0:0,0:0:0:0:
136,327,71103,6,0,L|373:319,1,235.440002514771,2|8,0:0|0:0,0:0:0:0:
254,303,71518,1,2,0:0:0:0:
125,292,71656,2,0,L|141:165,1,117.720001257385,0|2,0:0|0:0,0:0:0:0:
281,196,71932,2,0,L|301:65,1,117.720001257385,8|0,0:0|0:0,0:0:0:0:
63,51,72209,6,0,L|307:31,1,235.440002514771,2|8,0:0|0:0,0:0:0:0:
407,147,72624,2,0,L|164:124,1,235.440002514771,2|2,0:0|0:0,0:0:0:0:
462,315,73038,2,0,L|473:179,1,117.720001257385,8|0,0:0|0:0,0:0:0:0:
207,348,73315,6,0,P|130:261|208:188,1,235.440002514771,2|8,0:0|0:0,0:0:0:0:
318,210,73730,1,2,0:0:0:0:
187,239,73868,1,0,0:0:0:0:
88,187,74006,1,2,0:0:0:0:
94,75,74144,1,8,0:0:0:0:
198,35,74282,1,0,0:0:0:0:
401,276,74421,6,0,P|472:201|382:123,1,235.440002514771,4|8,0:0|0:0,0:0:0:0:
284,162,74836,1,2,0:0:0:0:
400,199,74974,2,0,L|409:72,1,117.720001257385,0|2,0:0|0:0,0:0:0:0:
268,160,75250,2,0,L|259:287,1,117.720001257385,8|0,0:0|0:0,0:0:0:0:
486,338,75527,6,0,L|233:310,1,235.440002514771,2|8,0:0|0:0,0:0:0:0:
133,360,75942,1,2,0:0:0:0:
264,319,76080,2,0,L|279:182,1,117.720001257385,0|2,0:0|0:0,0:0:0:0:
132,199,76356,2,0,L|117:62,1,117.720001257385,8|0,0:0|0:0,0:0:0:0:
336,26,76633,6,0,P|413:90|333:175,1,235.440002514771,2|8,0:0|0:0,0:0:0:0:
215,206,77048,2,0,L|475:195,1,235.440002514771,2|2,0:0|0:0,0:0:0:0:
157,117,77462,2,0,L|20:127,1,117.720001257385,8|0,0:0|0:0,0:0:0:0:
296,44,77739,6,0,P|412:44|516:127,2,235.440002514771,2|8|0,0:0|0:0|0:0,0:0:0:0:
166,116,78430,2,0,L|160:187,1,58.8600006286926,2|0,0:0|0:0,0:0:0:0:
339,254,78568,2,0,L|489:283,1,117.720001257385,8|0,0:0|0:0,0:0:0:0:
182,362,78845,6,0,P|111:282|211:194,1,235.440002514771,4|8,0:0|0:0,0:0:0:0:
294,191,79260,1,2,0:0:0:0:
408,187,79398,2,0,L|286:187,1,117.720001257385,0|2,0:0|0:0,0:0:0:0:
176,188,79674,2,0,L|49:189,1,117.720001257385,8|0,0:0|0:0,0:0:0:0:
336,336,79951,6,0,P|402:252|326:169,1,235.440002514771,2|8,0:0|0:0,0:0:0:0:
205,166,80366,1,2,0:0:0:0:
328,164,80504,2,0,L|478:164,2,117.720001257385,0|2|8,0:0|0:0|0:0,0:0:0:0:
184,158,80919,1,0,0:0:0:0:
420,344,81057,6,0,P|491:270|399:191,1,235.440002514771,2|8,0:0|0:0,0:0:0:0:
286,257,81472,2,0,L|265:133,1,117.720001257385,2|0,0:0|0:0,0:0:0:0:
412,151,81748,2,0,L|433:27,1,117.720001257385,2|8,0:0|0:0,0:0:0:0:
284,2,82025,1,0,0:0:0:0:
58,170,82163,6,0,L|307:146,1,235.440002514771,2|8,0:0|0:0,0:0:0:0:
412,261,82578,2,0,L|170:241,1,235.440002514771,2|2,0:0|0:0,0:0:0:0:
442,187,82992,2,0,L|464:53,1,117.720001257385,8|0,0:0|0:0,0:0:0:0:
188,105,83269,6,0,L|71:88,1,108,4|0,0:0|0:0,0:0:0:0:
327,211,83684,2,0,L|84:236,1,216,0|0,0:0|0:0,0:0:0:0:
481,329,84237,2,0,P|498:253|396:173,1,216,2|2,0:0|0:0,0:0:0:0:
308,174,84651,2,0,L|195:186,1,108,2|0,0:0|0:0,0:0:0:0:
447,107,84928,2,0,L|207:84,1,216,8|0,0:0|0:0,0:0:0:0:
126,74,85343,1,0,0:0:0:0:
394,341,85481,6,0,L|418:225,1,108,8|0,0:0|0:0,0:0:0:0:
272,220,85757,2,0,L|164:200,1,108,2|0,0:0|0:0,0:0:0:0:
438,138,86034,2,0,L|322:114,1,108,8|0,0:0|0:0,0:0:0:0:
187,160,86310,2,0,L|53:137,1,108,2|0,0:0|0:0,0:0:0:0:
317,253,86587,6,0,L|332:135,1,108,8|0,0:0|0:0,0:0:0:0:
203,88,86863,2,0,L|86:74,1,108,2|0,0:0|0:0,0:0:0:0:
428,207,87140,2,0,L|444:94,1,108,8|8,0:0|0:0,0:0:0:0:
297,89,87416,2,0,L|442:90,1,108,0|0,0:0|0:0,0:0:0:0:
113,22,87693,5,0,0:0:0:0:
256,192,87831,12,4,89905,0:0:0:0:
