osu file format v14

[General]
AudioFilename: audio.mp3
AudioLeadIn: 0
PreviewTime: 13893
Countdown: 0
SampleSet: Soft
StackLeniency: 0.7
Mode: 0
LetterboxInBreaks: 0
WidescreenStoryboard: 1

[Editor]
DistanceSpacing: 0.2
BeatDivisor: 4
GridSize: 16
TimelineZoom: 2

[Metadata]
Title:The Loud House Theme Song (TV Size)
TitleUnicode:The Loud House Theme Song (TV Size)
Artist:Doug Rockwell
ArtistUnicode:Doug Rockwell
Creator:FinEStRoNEs
Version:Extra
Source:The Loud House
Tags:theloudhouse nickelodeon jr cartoon opening themesong theme song rock english Caponata59 Zuga Massimoty Asahina Oleshev Asahina_Oleshev
BeatmapID:3781858
BeatmapSetID:1754834

[Difficulty]
HPDrainRate:5.5
CircleSize:4
OverallDifficulty:9
ApproachRate:9.2
SliderMultiplier:1.8
SliderTickRate:1

[Events]
//Background and Video events
0,0,"bg.jpg",0,0
//Break Periods
//Storyboard Layer 0 (Background)
//Storyboard Layer 1 (Fail)
//Storyboard Layer 2 (Pass)
//Storyboard Layer 3 (Foreground)
//Storyboard Layer 4 (Overlay)
//Storyboard Sound Samples

[TimingPoints]
300,338.983050847458,4,2,2,85,1,0
977,-100,4,2,2,80,0,0
1316,-100,4,2,2,75,0,0
1655,338.983050847458,4,2,2,75,1,0
1690,338.983050847458,4,2,2,70,1,0
7113,-100,4,2,2,75,0,0
11181,-100,4,2,2,70,0,0
11351,-100,4,2,2,72,0,0
11520,-100,4,2,2,74,0,0
11690,-100,4,2,2,76,0,0
11859,-100,4,2,2,78,0,0
12028,-100,4,2,2,80,0,0
12198,-100,4,2,2,82,0,0
12367,-100,4,2,2,84,0,0
12537,-100,4,2,2,85,0,1
12876,-90.9090909090909,4,2,2,85,0,1
13893,338.983050847458,4,2,2,85,1,1
23347,338.983050847458,4,2,2,80,1,0
24702,338.983050847458,4,2,2,75,1,0
24702,-111.111111111111,4,2,2,75,0,0
25379,-100,4,2,2,75,0,0
28769,-100,4,2,2,70,0,0
29108,-100,4,2,2,75,0,0
29447,-100,4,2,2,80,0,0
29786,-100,4,2,2,40,0,0
31142,-100,4,2,2,5,0,0

[Colours]
Combo1 : 26,116,242
Combo2 : 164,32,240
Combo3 : 37,185,239
Combo4 : 23,209,116
Combo5 : 226,45,124

[HitObjects]
93,213,300,5,8,3:2:0:0:
71,170,384,1,8,2:0:0:0:
77,125,469,1,8,2:0:0:0:
111,102,554,1,8,2:0:0:0:
148,111,638,5,8,3:2:0:0:
185,131,723,1,8,2:0:0:0:
225,131,808,1,8,2:0:0:0:
264,104,893,1,8,2:0:0:0:
304,78,977,6,0,L|296:29,3,45,8|8|8|8,3:0|2:3|2:3|2:3,0:0:0:0:
283,192,1316,2,0,L|273:237,3,45,4|4|4|4,3:0|2:3|2:3|2:3,0:0:0:0:
18,169,1690,6,0,P|61:181|93:213,1,90,6|2,3:2|2:0,0:0:0:0:
170,366,2028,2,0,P|174:320|201:283,1,90,10|10,2:1|3:1,0:0:0:0:
264,104,2367,1,2,3:0:0:0:
340,289,2537,1,2,2:0:0:0:
383,66,2706,2,0,L|394:161,1,90,10|8,2:3|2:3,0:0:0:0:
372,317,3045,5,2,3:2:0:0:
283,192,3215,1,2,2:0:0:0:
238,373,3384,1,10,2:1:0:0:
404,223,3554,2,0,P|447:235|479:267,2,90,10|2|10,3:1|3:2|2:1,0:0:0:0:
468,338,4062,5,10,2:1:0:0:
369,156,4232,1,8,3:1:0:0:
323,367,4401,2,0,P|280:381|236:372,1,90,2|2,3:2|2:0,0:0:0:0:
133,197,4740,2,0,P|176:188|219:202,1,90,10|10,2:1|3:1,0:0:0:0:
33,338,5079,2,0,L|33:235,1,90,2|2,3:2|2:0,0:0:0:0:
78,42,5418,5,10,2:3:0:0:
133,197,5588,1,8,2:3:0:0:
78,42,5757,2,0,P|121:33|164:47,1,90,2|0,3:2|2:0,0:0:0:0:
180,68,6012,1,0,0:0:0:0:
180,68,6096,5,10,2:1:0:0:
218,201,6266,1,8,3:1:0:0:
306,48,6435,5,2,3:1:0:0:
313,203,6605,1,8,2:1:0:0:
432,48,6774,5,10,2:1:0:0:
413,205,6944,1,8,3:1:0:0:
143,244,7113,6,0,P|186:232|218:200,1,90,10|2,3:0|2:0,0:0:0:0:
306,48,7452,2,0,P|310:94|337:131,1,90,10|10,2:1|3:1,0:0:0:0:
352,300,7791,1,2,3:1:0:0:
428,115,7961,1,2,2:0:0:0:
471,338,8130,2,8,P|475:291|482:243,1,90,10|8,2:3|2:3,0:0:0:0:
179,317,8469,6,0,P|222:325|264:312,1,90,2|2,3:1|2:0,0:0:0:0:
118,163,8808,2,0,P|75:149|32:158,1,90,10|10,2:1|3:1,0:0:0:0:
252,85,9147,5,2,3:1:0:0:
254,192,9317,1,10,2:1:0:0:
130,32,9486,5,10,2:1:0:0:
118,163,9656,1,8,3:1:0:0:
352,48,9825,6,0,B|336:95|336:95|350:137,1,90,2|0,3:1|2:0,0:0:0:0:
470,249,10164,2,8,B|483:206|483:206|474:163,1,90,10|10,2:1|3:1,0:0:0:0:
324,338,10503,1,2,3:1:0:0:
254,192,10673,1,2,2:0:0:0:
177,345,10842,2,0,P|185:294|188:251,1,90,10|8,2:3|2:3,0:0:0:0:
156,95,11181,5,10,2:3:0:0:
106,257,11351,1,0,3:0:0:0:
246,45,11520,5,8,2:3:0:0:
301,264,11690,1,0,3:0:0:0:
80,109,11859,5,8,2:3:0:0:
326,175,12028,1,0,3:0:0:0:
121,188,12198,5,8,2:3:0:0:
336,97,12367,1,0,3:0:0:0:
199,352,12537,5,8,2:0:0:0:
194,303,12622,1,8,2:0:0:0:
221,263,12706,1,8,2:0:0:0:
264,253,12791,1,8,2:0:0:0:
309,267,12876,2,8,L|300:322,3,49.5,8|8|8|8,2:0|2:0|2:0|2:0,0:0:0:0:
348,49,13215,5,8,2:0:0:0:
336,97,13300,1,8,2:0:0:0:
363,138,13384,1,8,2:0:0:0:
414,153,13469,1,8,2:0:0:0:
463,132,13554,2,8,L|451:85,3,49.5000015106202,8|8|8|8,2:0|2:0|2:0|2:0,0:0:0:0:
147,27,13893,6,0,P|190:39|222:71,1,90,14|0,2:0|2:0,0:0:0:0:
278,343,14231,1,10,2:0:0:0:
221,70,14401,2,0,L|229:4,1,45,2|0,2:0|3:2,0:0:0:0:
81,344,14570,5,8,2:0:0:0:
145,67,14740,1,0,3:2:0:0:
336,283,14909,5,10,2:0:0:0:
61,103,15079,1,0,3:2:0:0:
172,337,15248,6,0,P|181:285|183:247,1,90,10|0,2:0|2:0,0:0:0:0:
271,29,15587,5,10,2:0:0:0:
74,258,15757,2,0,L|28:248,1,45,2|0,2:0|3:2,0:0:0:0:
376,189,15926,5,8,2:0:0:0:
136,39,16096,1,0,3:2:0:0:
217,314,16265,5,10,2:0:0:0:
293,105,16435,1,0,3:2:0:0:
298,340,16604,5,10,2:0:0:0:
269,198,16774,1,0,2:0:0:0:
399,284,16943,5,10,2:0:0:0:
411,146,17113,1,0,2:0:0:0:
244,207,17282,5,10,2:0:0:0:
221,70,17452,1,2,3:2:0:0:
426,181,17621,5,10,2:0:0:0:
438,43,17791,1,0,3:2:0:0:
227,98,17960,6,0,B|272:87|272:87|318:98,1,90,10|2,2:0|2:0,0:0:0:0:
161,258,18299,2,0,B|118:268|118:268|73:257,1,90,10|2,2:0|2:0,0:0:0:0:
127,92,18638,5,10,2:0:0:0:
52,291,18808,1,2,3:2:0:0:
221,70,18977,5,10,2:0:0:0:
258,305,19147,1,0,3:2:0:0:
16,180,19316,6,0,L|4:86,1,90,14|0,2:0|2:0,0:0:0:0:
299,229,19655,5,10,2:0:0:0:
127,92,19825,2,0,L|73:101,1,45,2|0,2:0|3:2,0:0:0:0:
412,185,19994,5,8,2:0:0:0:
121,222,20164,1,0,3:2:0:0:
271,0,20333,5,10,2:0:0:0:
382,273,20503,1,0,3:2:0:0:
121,222,20672,6,0,P|141:182|180:161,1,90,10|0,2:0|2:0,0:0:0:0:
165,340,21011,5,10,2:0:0:0:
39,152,21181,2,0,P|26:128|15:111,1,45,2|0,2:0|3:2,0:0:0:0:
295,281,21350,5,8,2:0:0:0:
365,59,21520,1,0,3:2:0:0:
99,185,21689,5,10,2:0:0:0:
18,7,21859,1,0,3:2:0:0:
187,189,22028,6,0,P|230:177|283:167,1,90,10|0,2:0|2:0,0:0:0:0:
452,78,22367,2,0,P|408:66|364:58,1,90,10|0,2:0|2:0,0:0:0:0:
306,201,22706,1,10,2:0:0:0:
306,201,22791,1,0,0:0:0:0:
306,201,22876,1,0,3:2:0:0:
471,337,23045,2,0,P|474:293|481:248,1,90,10|0,2:0|3:2,0:0:0:0:
452,78,23347,5,8,2:0:0:0:
295,281,24024,5,8,2:0:0:0:
58,36,24702,6,0,B|89:-9|140:7|140:7|146:51|202:79,1,162,4|8,3:2|2:1,0:0:0:0:
209,37,25125,1,0,0:0:0:0:
209,37,25210,1,8,3:1:0:0:
104,101,25379,2,0,L|90:201,1,90,0|0,3:2|0:0,0:0:0:0:
60,325,25718,6,0,P|142:320|181:233,1,180,10|0,3:1|2:0,0:0:0:0:
200,206,26142,1,0,0:0:0:0:
204,210,26227,1,0,3:2:0:0:
299,308,26396,2,0,L|342:290,1,45,8|0,2:1|0:0,0:0:0:0:
284,156,26566,2,0,L|231:143,1,45,8|0,3:1|0:0,0:0:0:0:
392,191,26735,1,0,2:0:0:0:
341,39,26905,1,8,3:1:0:0:
402,206,27074,2,0,P|449:187|491:175,1,90,10|8,2:1|3:1,0:0:0:0:
133,0,27413,6,0,P|115:93|93:176,1,180,0|8,3:2|2:1,0:0:0:0:
62,185,27837,1,0,0:0:0:0:
62,185,27922,1,8,3:1:0:0:
216,87,28091,1,0,3:0:0:0:
62,185,28261,1,0,2:0:0:0:
148,319,28430,2,8,P|153:268|160:224,1,90,10|8,3:1|2:1,0:0:0:0:
261,194,28769,6,0,B|344:164|313:227|401:200,1,135,12|0,3:2|0:0,0:0:0:0:
430,192,29108,6,0,B|434:330|434:329,1,135,14|0,3:2|0:0,0:0:0:0:
406,357,29447,5,14,3:2:0:0:
256,192,29532,12,0,31142,2:0:0:0:
