osu file format v14

[General]
AudioFilename: audio.mp3
AudioLeadIn: 0
PreviewTime: 13836
Countdown: 0
SampleSet: Soft
StackLeniency: 0.7
Mode: 0
LetterboxInBreaks: 0
WidescreenStoryboard: 1

[Editor]
DistanceSpacing: 0.7
BeatDivisor: 4
GridSize: 16
TimelineZoom: 1.1

[Metadata]
Title:The Loud House Theme Song (TV Size)
TitleUnicode:The Loud House Theme Song (TV Size)
Artist:Doug Rockwell
ArtistUnicode:Doug Rockwell
Creator:Aakki
Version:Insane
Source:The Loud House
Tags:english pop rock ajt finnish bn hivie een persoon enneya butylcyclobutyn nickelodeon cartoon
BeatmapID:3628368
BeatmapSetID:1772207

[Difficulty]
HPDrainRate:5
CircleSize:4
OverallDifficulty:7
ApproachRate:7.8
SliderMultiplier:1.4
SliderTickRate:1

[Events]
//Background and Video events
0,0,"bg.jpg",0,0
//Break Periods
//Storyboard Layer 0 (Background)
//Storyboard Layer 1 (Fail)
//Storyboard Layer 2 (Pass)
//Storyboard Layer 3 (Foreground)
//Storyboard Layer 4 (Overlay)
//Storyboard Sound Samples

[TimingPoints]
300,338.983050847458,4,2,1,60,1,0
1655,338.983050847458,4,1,1,60,1,8
1690,338.983050847458,4,2,1,65,1,0
1690,-111.111111111111,4,2,1,65,0,0
11166,-111.111111111111,4,2,1,55,0,0
12522,-100,4,2,1,70,0,0
13893,338.983050847458,4,2,1,80,1,1
13893,-90.9090909090909,4,2,1,80,0,1
23347,338.983050847458,4,2,1,80,1,0
24702,338.983050847458,4,2,1,80,1,0
24721,-117.647058823529,4,2,1,65,0,0
29106,-117.647058823529,4,2,1,75,0,0
29445,-117.647058823529,4,2,1,85,0,0
31140,-117.647058823529,4,2,1,5,0,0

[Colours]
Combo1 : 255,192,0
Combo2 : 255,128,64
Combo3 : 18,124,255
Combo4 : 128,64,64

[HitObjects]
446,53,300,5,8,1:2:0:0:
446,53,384,1,8,0:0:0:0:
446,53,469,1,8,0:0:0:0:
345,123,638,1,8,1:2:0:0:
345,123,723,1,8,0:0:0:0:
345,123,808,2,0,L|298:135,1,35,8|8,0:0|0:0,0:0:0:0:
254,202,977,5,8,3:0:0:0:
194,156,1147,1,8,3:0:0:0:
193,82,1316,1,4,3:0:0:0:
254,15,1486,1,4,3:0:0:0:
281,21,1571,1,4,3:0:0:0:
310,30,1690,6,0,P|358:21|436:12,1,125.999996154785,6|10,1:2|0:0,0:0:0:0:
506,59,2198,1,8,0:0:0:0:
428,152,2367,2,0,P|417:190|415:223,1,62.9999980773926,2|2,1:2|0:0,0:0:0:0:
319,264,2706,2,0,P|330:226|332:193,1,62.9999980773926,10|6,3:0|3:0,0:0:0:0:
247,134,3045,6,0,P|211:141|117:176,1,125.999996154785,2|10,1:2|0:0,0:0:0:0:
84,237,3554,1,10,0:0:0:0:
5,150,3723,1,2,1:2:0:0:
5,150,3893,1,10,0:0:0:0:
81,73,4062,2,0,P|67:41|60:7,1,62.9999980773926,10|10,0:0|0:0,0:0:0:0:
136,176,4401,6,0,B|200:186|186:211|267:219,1,125.999996154785,2|10,1:2|0:0,0:0:0:0:
316,159,4910,1,10,0:0:0:0:
287,44,5079,2,0,P|261:76|261:103,1,62.9999980773926,2|2,1:2|0:0,0:0:0:0:
402,158,5418,2,0,P|428:126|428:99,1,62.9999980773926,10|12,3:0|3:0,0:0:0:0:
383,14,5757,1,6,1:2:0:0:
153,283,6096,6,0,B|120:288|101:318|101:318|67:319|42:287,2,125.999996154785,8|4|2,1:0|1:0|3:0,0:0:0:0:
225,324,6944,1,0,1:0:0:0:
142,272,7113,6,0,P|120:236|120:137,1,125.999996154785,2|10,1:2|1:2,0:0:0:0:
157,60,7622,1,10,0:0:0:0:
100,146,7791,2,0,P|57:158|31:174,1,62.9999980773926,2|2,1:2|0:0,0:0:0:0:
204,200,8130,2,0,P|247:188|273:172,1,62.9999980773926,10|6,3:0|3:0,0:0:0:0:
354,48,8469,6,0,P|385:43|446:121,1,125.999996154785,2|10,1:2|1:2,0:0:0:0:
489,177,8978,1,10,0:0:0:0:
400,263,9147,1,2,1:2:0:0:
354,197,9317,1,10,0:0:0:0:
437,331,9486,2,0,P|472:337|513:353,1,62.9999980773926,10|10,0:0|0:0,0:0:0:0:
302,282,9825,6,0,P|261:291|167:322,1,125.999996154785,2|10,1:2|1:2,0:0:0:0:
180,316,10334,1,10,0:0:0:0:
78,261,10503,1,2,1:2:0:0:
137,190,10673,1,2,0:0:0:0:
62,102,10842,2,0,P|47:148|31:179,1,62.9999980773926,10|6,3:0|3:0,0:0:0:0:
191,30,11181,6,0,P|231:51|317:75,1,125.999996154785,2|2,1:2|1:2,0:0:0:0:
308,73,11690,2,0,P|324:36|326:8,1,62.9999980773926,2|2,0:0|1:2,0:0:0:0:
214,125,12028,1,0,0:0:0:0:
214,125,12198,2,0,P|198:162|196:190,1,62.9999980773926,2|0,1:2|0:0,0:0:0:0:
378,350,12537,5,8,1:2:0:0:
401,343,12622,1,8,0:0:0:0:
424,337,12706,1,8,0:0:0:0:
288,300,12876,1,8,1:2:0:0:
265,306,12961,1,8,0:0:0:0:
242,313,13045,1,8,0:0:0:0:
79,364,13215,5,8,1:2:0:0:
71,342,13300,1,8,0:0:0:0:
65,318,13384,1,8,0:0:0:0:
59,294,13469,1,8,0:0:0:0:
53,270,13554,2,0,P|50:244|49:230,3,35,8|8|8|8,1:2|0:0|0:0|0:0,0:0:0:0:
0,117,13893,6,0,P|50:139|156:165,1,154.000004699707,14|8,1:2|1:2,0:0:0:0:
257,62,14401,1,2,1:2:0:0:
257,62,14486,1,0,1:0:0:0:
257,62,14570,1,8,1:2:0:0:
179,14,14740,1,0,1:3:0:0:
261,140,14909,2,0,P|265:186|279:226,1,77.0000023498536,10|0,1:2|1:3,0:0:0:0:
342,48,15248,6,0,B|423:31|413:76|505:47,1,154.000004699707,10|8,1:2|1:2,0:0:0:0:
377,137,15757,1,2,1:2:0:0:
377,137,15842,1,0,1:0:0:0:
377,137,15926,1,8,1:2:0:0:
257,62,16096,1,0,1:3:0:0:
274,215,16265,2,0,P|266:259|260:297,1,77.0000023498536,10|0,1:2|1:3,0:0:0:0:
72,340,16604,6,0,P|37:308|41:232,1,115.50000352478,10|0,1:2|0:0,0:0:0:0:
34,243,16943,2,0,P|52:204|58:162,1,77.0000023498536,10|2,1:2|1:2,0:0:0:0:
11,100,17282,1,8,1:2:0:0:
127,219,17452,1,2,1:3:0:0:
6,87,17621,6,0,P|51:79|133:1,1,154.000004699707,10|10,1:2|1:2,0:0:0:0:
129,8,18130,5,2,0:0:0:0:
254,117,18299,2,0,P|241:75|238:38,1,77.0000023498536,10|2,1:2|1:2,0:0:0:0:
177,145,18638,1,10,1:2:0:0:
281,234,18808,1,2,1:3:0:0:
379,136,18977,2,0,P|418:152|460:157,1,77.0000023498536,10|0,1:2|1:3,0:0:0:0:
281,234,19316,6,0,P|244:267|208:370,1,154.000004699707,14|8,1:2|1:2,0:0:0:0:
141,253,19825,1,2,1:2:0:0:
141,253,19909,1,0,1:0:0:0:
141,253,19994,1,8,1:2:0:0:
181,165,20164,1,0,1:3:0:0:
108,336,20333,2,0,P|64:346|21:362,1,77.0000023498536,10|0,1:2|1:3,0:0:0:0:
5,187,20672,6,0,P|42:218|160:254,1,154.000004699707,10|8,1:2|1:2,0:0:0:0:
290,207,21181,1,2,1:2:0:0:
290,207,21265,1,0,1:0:0:0:
290,207,21350,1,8,1:2:0:0:
226,297,21520,1,0,1:3:0:0:
102,161,21689,2,0,P|107:113|122:70,1,77.0000023498536,10|0,1:2|1:3,0:0:0:0:
299,8,22028,6,0,P|334:32|338:114,1,115.50000352478,14|0,1:2|0:0,0:0:0:0:
344,100,22367,2,0,P|295:112|260:128,1,77.0000023498536,10|2,1:2|1:2,0:0:0:0:
167,20,22706,1,10,1:2:0:0:
227,211,22876,1,0,1:3:0:0:
162,136,23045,1,10,1:2:0:0:
286,33,23215,1,0,1:3:0:0:
320,229,23347,6,0,P|332:279|333:284,1,35,14|0,0:0|0:0,0:0:0:0:
329,263,24024,6,2,B|383:243|422:316|422:316|431:203|515:204,1,280,6|6,1:0|1:2,0:1:0:0:
512,203,25040,5,8,0:0:0:0:
477,128,25210,1,8,0:0:0:0:
432,39,25379,2,0,P|392:55|362:60,1,59.5000011348725,0|0,1:0|0:0,0:0:0:0:
214,77,25718,6,0,P|276:86|329:133,1,119.000002269745,2|0,1:0|0:0,0:0:0:0:
204,83,26227,2,0,P|181:50|184:17,1,59.5000011348725,0|8,1:0|0:0,0:0:0:0:
119,98,26566,1,8,0:0:0:0:
216,197,26735,2,0,P|204:238|199:268,2,59.5000011348725,2|8|10,0:0|1:2|1:1,0:0:0:0:
121,234,27244,1,8,1:2:0:0:
301,343,27413,6,0,B|361:336|367:372|441:356,1,119.000002269745,0|8,1:0|0:0,0:0:0:0:
479,308,27922,1,8,0:0:0:0:
402,197,28091,2,0,P|398:242|387:264,1,59.5000011348725,0|0,1:0|0:0,0:0:0:0:
500,191,28430,2,0,P|504:146|515:124,1,59.5000011348725,2|0,1:0|0:0,0:0:0:0:
325,9,28769,5,0,1:0:0:0:
275,173,29108,5,4,1:2:0:0:
205,365,29447,5,6,1:1:0:0:
256,192,29532,12,0,31142,0:0:0:0:
