osu file format v14

[General]
AudioFilename: audio.mp3
AudioLeadIn: 0
PreviewTime: 38716
Countdown: 0
SampleSet: Normal
StackLeniency: 0.7
Mode: 1
LetterboxInBreaks: 0
WidescreenStoryboard: 0

[Editor]
DistanceSpacing: 0.9
BeatDivisor: 4
GridSize: 4
TimelineZoom: 1.6

[Metadata]
Title:Youkoso Japari Park e
TitleUnicode:ようこそジャパリパークへ
Artist:Doubutsu Biscuits x PPP
ArtistUnicode:どうぶつビスケッツ×PPP
Creator:404 AccNotFound
Version:Oni
Source:けものフレンズ
Tags:opening KEMONO FRIENDS tanoshi sugoi AsukaLangley asuasu_yura
BeatmapID:1254017
BeatmapSetID:592668

[Difficulty]
HPDrainRate:6
CircleSize:5
OverallDifficulty:5.5
ApproachRate:5
SliderMultiplier:1.4
SliderTickRate:1

[Events]
//Background and Video events
0,0,"1.png",0,0
//Break Periods
//Storyboard Layer 0 (Background)
//Storyboard Layer 1 (Fail)
//Storyboard Layer 2 (Pass)
//Storyboard Layer 3 (Foreground)
//Storyboard Sound Samples

[TimingPoints]
512,600,4,1,0,65,1,0
3511,352.941176470588,4,1,0,65,1,0
38805,-100,4,1,0,65,0,1
50099,-100,4,1,0,65,0,0
55747,-100,4,1,0,65,0,0
64216,-100,4,1,0,65,0,1
86805,-100,4,1,0,65,0,0

[HitObjects]
276,172,3511,5,6,0:0:0:0:
252,136,3687,1,0,0:0:0:0:
252,136,3863,1,0,0:0:0:0:
144,132,4040,1,6,0:0:0:0:
248,200,4393,1,0,0:0:0:0:
248,200,4569,1,2,0:0:0:0:
144,132,4746,1,4,0:0:0:0:
144,132,5099,1,2,0:0:0:0:
144,132,5275,1,0,0:0:0:0:
144,132,5452,1,6,0:0:0:0:
144,132,5805,1,2,0:0:0:0:
144,132,5981,1,0,0:0:0:0:
144,132,6158,1,0,0:0:0:0:
144,132,6334,1,4,0:0:0:0:
224,116,6687,1,2,0:0:0:0:
224,116,7040,1,6,0:0:0:0:
308,184,7393,1,0,0:0:0:0:
224,116,7746,1,0,0:0:0:0:
156,132,7922,1,0,0:0:0:0:
224,116,8099,1,2,0:0:0:0:
148,132,8275,1,2,0:0:0:0:
228,88,8452,1,0,0:0:0:0:
220,48,8805,1,2,0:0:0:0:
224,116,9158,1,0,0:0:0:0:
108,140,9334,1,0,0:0:0:0:
108,140,9422,1,2,0:0:0:0:
108,140,9510,1,2,0:0:0:0:
108,140,9687,1,2,0:0:0:0:
108,140,9775,1,0,0:0:0:0:
108,140,9863,1,0,0:0:0:0:
224,136,10040,1,2,0:0:0:0:
224,136,10128,1,2,0:0:0:0:
224,136,10216,1,0,0:0:0:0:
184,76,10393,1,2,0:0:0:0:
184,96,10569,1,0,0:0:0:0:
184,92,10746,1,0,0:0:0:0:
184,92,10834,1,2,0:0:0:0:
184,92,10922,1,2,0:0:0:0:
184,92,11099,1,2,0:0:0:0:
184,92,11187,1,0,0:0:0:0:
184,92,11275,1,0,0:0:0:0:
184,96,11452,1,0,0:0:0:0:
220,76,11540,1,2,0:0:0:0:
220,76,11628,1,0,0:0:0:0:
220,76,11805,1,2,0:0:0:0:
220,76,11981,1,0,0:0:0:0:
196,168,12158,1,0,0:0:0:0:
196,168,12246,1,2,0:0:0:0:
196,168,12334,1,2,0:0:0:0:
196,168,12510,1,2,0:0:0:0:
196,168,12599,1,2,0:0:0:0:
196,168,12687,1,0,0:0:0:0:
196,168,12863,1,2,0:0:0:0:
196,168,12952,1,0,0:0:0:0:
196,168,13040,1,0,0:0:0:0:
196,168,13216,1,2,0:0:0:0:
88,136,13393,1,0,0:0:0:0:
280,92,13481,1,0,0:0:0:0:
152,136,13569,1,0,0:0:0:0:
64,48,13658,1,0,0:0:0:0:
168,84,13746,1,2,0:0:0:0:
68,52,13834,1,2,0:0:0:0:
168,84,13922,1,2,0:0:0:0:
256,192,14099,12,0,14628,0:0:0:0:
264,164,14805,5,4,0:0:0:0:
188,116,15510,1,6,0:0:0:0:
188,116,16040,1,4,0:0:0:0:
160,124,16922,1,6,0:0:0:0:
208,92,17099,1,0,0:0:0:0:
208,92,17187,1,0,0:0:0:0:
208,92,17275,1,2,0:0:0:0:
208,92,17452,1,2,0:0:0:0:
168,132,17628,1,0,0:0:0:0:
168,128,17805,1,0,0:0:0:0:
168,128,17893,1,0,0:0:0:0:
168,132,17981,1,2,0:0:0:0:
168,132,18158,1,2,0:0:0:0:
168,132,18246,1,2,0:0:0:0:
168,132,18334,1,0,0:0:0:0:
168,132,18510,1,2,0:0:0:0:
168,132,18599,1,0,0:0:0:0:
168,128,18687,1,0,0:0:0:0:
168,128,18863,1,2,0:0:0:0:
168,132,19040,1,0,0:0:0:0:
104,144,19216,1,0,0:0:0:0:
104,144,19305,1,0,0:0:0:0:
104,144,19393,1,2,0:0:0:0:
104,144,19569,1,2,0:0:0:0:
104,144,19658,1,2,0:0:0:0:
104,144,19746,1,0,0:0:0:0:
104,144,19922,1,2,0:0:0:0:
104,144,20010,1,0,0:0:0:0:
104,144,20099,1,2,0:0:0:0:
164,200,20275,1,2,0:0:0:0:
248,104,20452,1,0,0:0:0:0:
160,152,20628,1,0,0:0:0:0:
160,152,20805,1,2,0:0:0:0:
164,152,20981,1,0,0:0:0:0:
176,140,21158,1,2,0:0:0:0:
176,140,21334,1,0,0:0:0:0:
176,140,21422,1,2,0:0:0:0:
184,144,21510,1,0,0:0:0:0:
176,140,21687,1,6,0:0:0:0:
196,92,22040,1,0,0:0:0:0:
204,44,22128,1,0,0:0:0:0:
196,92,22216,1,2,0:0:0:0:
204,44,22393,1,0,0:0:0:0:
204,44,22481,1,0,0:0:0:0:
204,44,22569,1,2,0:0:0:0:
208,48,22834,1,2,0:0:0:0:
208,48,23099,1,0,0:0:0:0:
208,48,23275,1,6,0:0:0:0:
224,80,23628,1,2,0:0:0:0:
224,80,23716,1,2,0:0:0:0:
224,80,23805,1,0,0:0:0:0:
224,80,23893,1,0,0:0:0:0:
272,152,23981,1,2,0:0:0:0:
272,152,24069,1,0,0:0:0:0:
272,152,24158,1,0,0:0:0:0:
272,152,24246,1,2,0:0:0:0:
272,152,24334,1,2,0:0:0:0:
88,168,24510,1,0,0:0:0:0:
272,152,24687,1,4,0:0:0:0:
140,160,25040,1,4,0:0:0:0:
140,160,25393,1,6,0:0:0:0:
180,88,25746,1,2,0:0:0:0:
208,64,26099,5,2,0:0:0:0:
196,120,26275,1,0,0:0:0:0:
76,192,26452,1,2,0:0:0:0:
248,132,26540,1,2,0:0:0:0:
76,192,26628,1,2,0:0:0:0:
96,180,26805,1,0,0:0:0:0:
96,180,26981,1,2,0:0:0:0:
144,120,27158,1,0,0:0:0:0:
144,120,27334,1,0,0:0:0:0:
144,120,27510,1,2,0:0:0:0:
192,96,27687,1,2,0:0:0:0:
192,96,27775,1,2,0:0:0:0:
192,96,27863,1,0,0:0:0:0:
192,96,28040,1,2,0:0:0:0:
144,108,28216,1,0,0:0:0:0:
220,140,28305,1,0,0:0:0:0:
144,108,28393,1,0,0:0:0:0:
144,108,28569,1,2,0:0:0:0:
260,144,28922,1,0,0:0:0:0:
156,164,29275,1,0,0:0:0:0:
156,164,29452,1,0,0:0:0:0:
156,164,29628,1,2,0:0:0:0:
180,144,29716,1,2,0:0:0:0:
156,164,29805,1,2,0:0:0:0:
156,164,29981,1,0,0:0:0:0:
160,156,30158,1,6,0:0:0:0:
160,156,30510,1,4,0:0:0:0:
156,160,30863,1,4,0:0:0:0:
160,156,31216,1,6,0:0:0:0:
156,160,31569,1,6,0:0:0:0:
144,96,31922,1,0,0:0:0:0:
84,136,32099,1,2,0:0:0:0:
84,136,32275,1,2,0:0:0:0:
84,136,32363,1,2,0:0:0:0:
84,136,32452,1,0,0:0:0:0:
184,100,32628,1,0,0:0:0:0:
184,100,32805,1,2,0:0:0:0:
180,92,33158,1,0,0:0:0:0:
308,136,33246,1,0,0:0:0:0:
184,88,33334,1,0,0:0:0:0:
184,88,33510,1,2,0:0:0:0:
184,88,33687,1,2,0:0:0:0:
184,88,33775,1,2,0:0:0:0:
180,92,33863,1,0,0:0:0:0:
184,88,34040,1,0,0:0:0:0:
184,88,34216,1,2,0:0:0:0:
136,128,34393,1,0,0:0:0:0:
136,128,34569,1,2,0:0:0:0:
136,64,34746,1,0,0:0:0:0:
136,64,34834,1,0,0:0:0:0:
136,64,34922,1,2,0:0:0:0:
136,64,35099,1,2,0:0:0:0:
216,88,35275,1,0,0:0:0:0:
136,64,35452,1,2,0:0:0:0:
244,64,35540,1,2,0:0:0:0:
104,140,35628,1,2,0:0:0:0:
32,144,35805,1,4,0:0:0:0:
148,144,36158,1,2,0:0:0:0:
152,128,36334,1,0,0:0:0:0:
152,128,36510,1,0,0:0:0:0:
188,132,36599,1,0,0:0:0:0:
152,128,36687,1,2,0:0:0:0:
152,128,36863,1,0,0:0:0:0:
152,128,37040,1,0,0:0:0:0:
200,84,37216,1,0,0:0:0:0:
200,84,37393,1,2,0:0:0:0:
132,88,38452,1,2,0:0:0:0:
276,172,38805,5,4,0:0:0:0:
252,136,38981,1,0,0:0:0:0:
252,136,39157,1,0,0:0:0:0:
144,132,39334,1,6,0:0:0:0:
248,200,39687,1,0,0:0:0:0:
248,200,39863,1,2,0:0:0:0:
144,132,40040,1,4,0:0:0:0:
144,132,40393,1,2,0:0:0:0:
144,132,40569,1,0,0:0:0:0:
144,132,40746,1,6,0:0:0:0:
144,132,41099,1,2,0:0:0:0:
144,132,41275,1,0,0:0:0:0:
144,132,41452,1,0,0:0:0:0:
144,132,41628,1,4,0:0:0:0:
224,116,41981,1,2,0:0:0:0:
224,116,42334,1,6,0:0:0:0:
224,116,42687,1,0,0:0:0:0:
224,212,43040,1,2,0:0:0:0:
232,212,43128,1,2,0:0:0:0:
168,104,43216,1,0,0:0:0:0:
172,60,43393,1,0,0:0:0:0:
172,108,43569,1,0,0:0:0:0:
168,40,43746,1,2,0:0:0:0:
188,124,43922,1,0,0:0:0:0:
188,124,44099,1,2,0:0:0:0:
188,124,44275,1,2,0:0:0:0:
276,172,44452,5,4,0:0:0:0:
252,136,44628,1,0,0:0:0:0:
252,136,44805,1,0,0:0:0:0:
144,132,44981,1,6,0:0:0:0:
248,200,45334,1,0,0:0:0:0:
248,200,45510,1,2,0:0:0:0:
144,132,45687,1,4,0:0:0:0:
144,132,46040,1,2,0:0:0:0:
144,132,46216,1,0,0:0:0:0:
144,132,46393,1,6,0:0:0:0:
144,132,46746,1,2,0:0:0:0:
144,132,46922,1,0,0:0:0:0:
144,132,47099,1,0,0:0:0:0:
144,132,47275,1,4,0:0:0:0:
224,116,47628,1,2,0:0:0:0:
224,116,47981,1,6,0:0:0:0:
224,116,48334,1,0,0:0:0:0:
120,168,48687,1,0,0:0:0:0:
120,168,48863,1,0,0:0:0:0:
120,168,49040,1,2,0:0:0:0:
204,48,49216,1,2,0:0:0:0:
464,168,49305,1,2,0:0:0:0:
204,48,49393,1,0,0:0:0:0:
196,52,49569,1,0,0:0:0:0:
72,196,49658,1,0,0:0:0:0:
184,48,49746,1,2,0:0:0:0:
280,88,50099,5,4,0:0:0:0:
244,100,50628,1,0,0:0:0:0:
244,100,50981,1,2,0:0:0:0:
244,100,51157,1,0,0:0:0:0:
244,100,51334,1,2,0:0:0:0:
136,172,51422,1,2,0:0:0:0:
136,172,51510,1,2,0:0:0:0:
148,152,51687,1,0,0:0:0:0:
148,152,51863,1,0,0:0:0:0:
156,156,52040,1,2,0:0:0:0:
156,156,52128,1,2,0:0:0:0:
156,156,52216,1,2,0:0:0:0:
152,144,52393,1,0,0:0:0:0:
152,144,52569,1,2,0:0:0:0:
152,144,52746,1,2,0:0:0:0:
152,144,52834,1,2,0:0:0:0:
152,144,52922,1,0,0:0:0:0:
140,120,53187,1,0,0:0:0:0:
140,120,53275,1,2,0:0:0:0:
148,104,53452,1,0,0:0:0:0:
148,104,53628,1,2,0:0:0:0:
148,104,53805,1,0,0:0:0:0:
148,104,53893,1,2,0:0:0:0:
148,104,53981,1,0,0:0:0:0:
148,104,54158,1,2,0:0:0:0:
336,260,54246,1,2,0:0:0:0:
336,260,54334,1,2,0:0:0:0:
148,104,54510,1,0,0:0:0:0:
148,104,54687,1,0,0:0:0:0:
148,104,54863,1,2,0:0:0:0:
148,104,54952,1,2,0:0:0:0:
148,104,55040,1,2,0:0:0:0:
148,104,55216,1,0,0:0:0:0:
148,104,55393,1,0,0:0:0:0:
256,64,55569,1,2,0:0:0:0:
148,104,55746,5,4,0:0:0:0:
128,180,56099,1,2,0:0:0:0:
136,172,56275,1,0,0:0:0:0:
196,80,56363,1,0,0:0:0:0:
196,80,56452,1,0,0:0:0:0:
256,96,56628,1,0,0:0:0:0:
256,100,56805,1,2,0:0:0:0:
256,100,56981,1,2,0:0:0:0:
256,96,57069,1,2,0:0:0:0:
256,96,57158,1,0,0:0:0:0:
260,100,57334,1,0,0:0:0:0:
260,100,57510,1,2,0:0:0:0:
260,100,57687,1,2,0:0:0:0:
260,100,57775,1,0,0:0:0:0:
260,100,57863,1,0,0:0:0:0:
260,104,58040,1,0,0:0:0:0:
260,100,58216,1,2,0:0:0:0:
168,96,58393,1,0,0:0:0:0:
168,96,58481,1,2,0:0:0:0:
168,96,58569,1,0,0:0:0:0:
164,88,58746,1,0,0:0:0:0:
164,88,58922,1,2,0:0:0:0:
16,184,59099,1,0,0:0:0:0:
220,88,59187,1,0,0:0:0:0:
116,116,59275,1,0,0:0:0:0:
56,136,59452,1,0,0:0:0:0:
148,120,59540,1,0,0:0:0:0:
64,132,59628,1,2,0:0:0:0:
148,120,59716,1,2,0:0:0:0:
64,132,59805,1,2,0:0:0:0:
64,132,59893,1,2,0:0:0:0:
64,132,59981,1,0,0:0:0:0:
260,132,60687,1,2,0:0:0:0:
224,116,61393,1,0,0:0:0:0:
108,140,61569,1,0,0:0:0:0:
108,140,61657,1,2,0:0:0:0:
108,140,61745,1,2,0:0:0:0:
108,140,61922,1,2,0:0:0:0:
108,140,62010,1,0,0:0:0:0:
108,140,62098,1,0,0:0:0:0:
224,136,62275,1,0,0:0:0:0:
224,136,62363,1,2,0:0:0:0:
224,136,62451,1,2,0:0:0:0:
184,76,62628,1,2,0:0:0:0:
284,120,62805,1,0,0:0:0:0:
284,120,62893,1,0,0:0:0:0:
184,92,62981,1,0,0:0:0:0:
184,92,63069,1,0,0:0:0:0:
284,120,63158,1,2,0:0:0:0:
284,120,63246,1,2,0:0:0:0:
216,164,63334,1,2,0:0:0:0:
256,192,63510,12,0,64040,0:0:0:0:
232,96,64216,5,2,0:0:0:0:
140,132,64393,1,0,0:0:0:0:
264,120,64481,1,0,0:0:0:0:
56,152,64569,1,0,0:0:0:0:
56,152,64746,1,2,0:0:0:0:
52,140,65099,1,0,0:0:0:0:
52,140,65275,1,2,0:0:0:0:
172,120,65628,1,2,0:0:0:0:
244,88,65805,1,0,0:0:0:0:
264,116,65893,1,0,0:0:0:0:
204,40,65981,1,0,0:0:0:0:
244,88,66158,1,2,0:0:0:0:
172,120,66510,1,0,0:0:0:0:
172,120,66687,1,2,0:0:0:0:
172,120,67040,1,0,0:0:0:0:
172,120,67216,1,0,0:0:0:0:
172,120,67393,1,2,0:0:0:0:
172,120,67569,1,0,0:0:0:0:
156,100,67658,1,0,0:0:0:0:
172,120,67746,1,2,0:0:0:0:
172,120,67922,1,2,0:0:0:0:
172,120,68099,1,0,0:0:0:0:
172,120,68452,1,2,0:0:0:0:
172,120,68628,1,0,0:0:0:0:
156,100,68716,1,0,0:0:0:0:
172,120,68805,1,0,0:0:0:0:
172,120,68981,1,2,0:0:0:0:
172,120,69158,1,0,0:0:0:0:
172,120,69334,1,0,0:0:0:0:
176,116,69422,1,0,0:0:0:0:
172,120,69510,1,2,0:0:0:0:
200,88,69863,1,2,0:0:0:0:
200,88,70040,1,0,0:0:0:0:
280,40,70128,1,0,0:0:0:0:
200,88,70216,1,0,0:0:0:0:
200,88,70393,1,2,0:0:0:0:
132,96,70746,1,0,0:0:0:0:
132,96,70922,1,2,0:0:0:0:
132,96,71275,1,0,0:0:0:0:
132,96,71452,1,0,0:0:0:0:
264,48,71540,1,0,0:0:0:0:
132,96,71628,1,2,0:0:0:0:
212,60,71805,1,0,0:0:0:0:
212,60,72158,1,0,0:0:0:0:
112,116,72334,1,2,0:0:0:0:
128,120,72687,1,0,0:0:0:0:
328,128,72863,1,0,0:0:0:0:
92,100,73040,1,2,0:0:0:0:
196,60,73216,1,2,0:0:0:0:
264,48,73305,1,2,0:0:0:0:
92,100,73393,1,0,0:0:0:0:
184,108,73569,1,0,0:0:0:0:
92,100,73746,1,2,0:0:0:0:
92,100,73922,1,2,0:0:0:0:
176,124,74099,1,0,0:0:0:0:
180,72,74187,1,0,0:0:0:0:
120,140,74275,1,0,0:0:0:0:
120,156,74452,1,2,0:0:0:0:
268,48,74628,1,0,0:0:0:0:
120,152,74805,1,2,0:0:0:0:
8,136,75158,1,2,0:0:0:0:
32,124,75510,5,6,0:0:0:0:
124,100,75687,1,0,0:0:0:0:
204,196,75775,1,0,0:0:0:0:
112,100,75863,1,0,0:0:0:0:
236,128,76040,1,2,0:0:0:0:
188,80,76216,1,0,0:0:0:0:
228,120,76393,1,0,0:0:0:0:
228,120,76569,1,2,0:0:0:0:
188,80,76746,1,0,0:0:0:0:
164,100,76922,1,2,0:0:0:0:
164,100,77099,1,0,0:0:0:0:
200,192,77187,1,0,0:0:0:0:
164,100,77275,1,0,0:0:0:0:
116,84,77452,1,2,0:0:0:0:
276,52,77628,1,0,0:0:0:0:
116,84,77805,1,0,0:0:0:0:
116,84,77981,1,2,0:0:0:0:
280,52,78158,1,2,0:0:0:0:
68,144,78334,1,0,0:0:0:0:
68,144,78510,1,0,0:0:0:0:
176,136,78599,1,0,0:0:0:0:
68,144,78687,1,2,0:0:0:0:
216,92,78863,1,0,0:0:0:0:
144,108,79040,1,2,0:0:0:0:
144,108,79216,1,0,0:0:0:0:
144,108,79393,1,2,0:0:0:0:
144,108,79569,1,0,0:0:0:0:
108,148,79746,1,2,0:0:0:0:
112,156,79922,1,0,0:0:0:0:
480,48,80010,1,0,0:0:0:0:
120,152,80099,1,0,0:0:0:0:
108,148,80275,1,2,0:0:0:0:
108,148,80452,1,0,0:0:0:0:
108,148,80628,1,0,0:0:0:0:
60,96,80716,1,0,0:0:0:0:
112,148,80805,1,2,0:0:0:0:
280,240,80981,1,0,0:0:0:0:
284,172,81158,5,6,0:0:0:0:
284,172,81334,1,0,0:0:0:0:
212,96,81422,1,0,0:0:0:0:
284,172,81510,1,0,0:0:0:0:
76,144,81687,1,2,0:0:0:0:
304,56,81863,1,0,0:0:0:0:
100,136,82040,1,0,0:0:0:0:
100,136,82216,1,2,0:0:0:0:
304,56,82393,1,2,0:0:0:0:
100,136,82569,1,0,0:0:0:0:
100,136,82746,1,0,0:0:0:0:
272,184,82834,1,0,0:0:0:0:
100,136,82922,1,2,0:0:0:0:
152,64,83099,1,2,0:0:0:0:
232,180,83275,1,0,0:0:0:0:
84,92,83452,1,0,0:0:0:0:
152,96,83628,1,2,0:0:0:0:
152,96,83981,1,0,0:0:0:0:
32,144,84158,1,0,0:0:0:0:
144,104,84334,1,2,0:0:0:0:
244,96,84510,1,2,0:0:0:0:
244,96,84599,1,2,0:0:0:0:
144,104,84687,1,0,0:0:0:0:
92,132,84863,1,0,0:0:0:0:
164,88,85040,1,2,0:0:0:0:
164,88,85216,1,2,0:0:0:0:
256,72,85305,1,0,0:0:0:0:
72,80,85393,1,0,0:0:0:0:
160,96,85569,1,0,0:0:0:0:
160,96,85746,1,2,0:0:0:0:
164,108,85922,1,0,0:0:0:0:
164,108,86099,1,2,0:0:0:0:
164,108,86452,1,2,0:0:0:0:
216,148,86805,5,4,0:0:0:0:
264,112,87158,1,2,0:0:0:0:
216,148,87510,1,4,0:0:0:0:
264,112,87863,1,2,0:0:0:0:
264,112,88040,1,4,0:0:0:0:
264,112,88393,1,4,0:0:0:0:
264,112,88569,1,2,0:0:0:0:
264,112,88922,1,4,0:0:0:0:
