osu file format v14

[General]
AudioFilename: audio.mp3
AudioLeadIn: 0
PreviewTime: 38628
Countdown: 0
SampleSet: Normal
StackLeniency: 0.7
Mode: 1
LetterboxInBreaks: 0
WidescreenStoryboard: 0

[Editor]
DistanceSpacing: 0.9
BeatDivisor: 2
GridSize: 4
TimelineZoom: 1

[Metadata]
Title:Youkoso Japari Park e
TitleUnicode:ようこそジャパリパークへ
Artist:Doubutsu Biscuits x PPP
ArtistUnicode:どうぶつビスケッツ×PPP
Creator:404 AccNotFound
Version:Futsuu
Source:けものフレンズ
Tags:opening KEMONO FRIENDS tanoshi sugoi AsukaLangley asuasu_yura
BeatmapID:1254014
BeatmapSetID:592668

[Difficulty]
HPDrainRate:6.5
CircleSize:5
OverallDifficulty:3
ApproachRate:5
SliderMultiplier:1.4
SliderTickRate:1

[Events]
//Background and Video events
0,0,"1.png",0,0
//Break Periods
//Storyboard Layer 0 (Background)
//Storyboard Layer 1 (Fail)
//Storyboard Layer 2 (Pass)
//Storyboard Layer 3 (Foreground)
//Storyboard Sound Samples

[TimingPoints]
512,600,4,1,0,75,1,0
3511,352.941176470588,4,1,0,75,1,0
38805,-100,4,1,0,75,0,1
50099,-100,4,1,0,75,0,0
55746,-100,4,1,0,75,0,0
64216,-100,4,1,0,75,0,1
86805,-100,4,1,0,75,0,0

[HitObjects]
276,172,3511,5,4,0:0:0:0:
144,132,4040,1,6,0:0:0:0:
144,132,4746,1,4,0:0:0:0:
144,132,5452,1,6,0:0:0:0:
144,132,6334,1,0,0:0:0:0:
224,116,6687,1,2,0:0:0:0:
224,116,7040,1,0,0:0:0:0:
224,116,7746,1,0,0:0:0:0:
224,116,8099,1,2,0:0:0:0:
228,88,8452,1,2,0:0:0:0:
224,116,9158,1,0,0:0:0:0:
208,124,9334,1,0,0:0:0:0:
156,96,9510,1,2,0:0:0:0:
108,140,9863,1,0,0:0:0:0:
184,96,10569,1,0,0:0:0:0:
320,160,10746,1,0,0:0:0:0:
184,92,10922,1,0,0:0:0:0:
184,92,11275,1,2,0:0:0:0:
220,76,11981,1,0,0:0:0:0:
320,160,12158,1,0,0:0:0:0:
196,168,12334,1,2,0:0:0:0:
196,168,12687,1,0,0:0:0:0:
208,164,13393,2,0,L|288:176,4,70
264,164,14805,5,4,0:0:0:0:
188,116,15510,1,6,0:0:0:0:
188,116,16040,1,4,0:0:0:0:
160,124,16922,1,6,0:0:0:0:
168,132,17628,1,0,0:0:0:0:
188,204,17805,1,0,0:0:0:0:
168,132,17981,1,2,0:0:0:0:
168,132,18334,1,0,0:0:0:0:
168,132,19040,1,0,0:0:0:0:
368,128,19216,1,0,0:0:0:0:
204,104,19393,1,0,0:0:0:0:
104,144,19746,1,2,0:0:0:0:
248,104,20452,1,0,0:0:0:0:
220,112,20805,1,0,0:0:0:0:
176,140,21158,1,2,0:0:0:0:
176,140,21687,1,0,0:0:0:0:
196,92,22216,1,2,0:0:0:0:
204,44,22569,1,2,0:0:0:0:
208,48,23275,1,0,0:0:0:0:
184,128,23628,1,2,0:0:0:0:
340,152,23805,1,2,0:0:0:0:
272,152,23981,1,2,0:0:0:0:
272,152,24687,1,4,0:0:0:0:
140,160,25040,1,4,0:0:0:0:
140,160,25393,1,6,0:0:0:0:
208,64,26099,5,0,0:0:0:0:
96,180,26805,1,2,0:0:0:0:
144,120,27158,1,0,0:0:0:0:
144,120,27510,1,2,0:0:0:0:
144,108,28216,1,0,0:0:0:0:
144,108,28569,1,2,0:0:0:0:
260,144,28922,1,0,0:0:0:0:
156,164,29628,1,2,0:0:0:0:
288,176,29981,1,0,0:0:0:0:
160,156,30158,1,2,0:0:0:0:
196,128,30510,1,2,0:0:0:0:
156,160,30863,1,0,0:0:0:0:
156,160,31569,1,6,0:0:0:0:
240,140,32275,1,0,0:0:0:0:
48,164,32452,1,2,0:0:0:0:
184,164,32805,1,0,0:0:0:0:
180,92,33158,1,2,0:0:0:0:
240,140,33687,1,2,0:0:0:0:
144,80,33863,1,0,0:0:0:0:
136,128,34569,1,0,0:0:0:0:
284,176,34922,1,0,0:0:0:0:
220,120,35099,1,2,0:0:0:0:
276,168,35452,1,2,0:0:0:0:
328,244,35628,1,0,0:0:0:0:
32,144,35805,1,0,0:0:0:0:
224,104,36158,1,2,0:0:0:0:
148,144,36334,1,2,0:0:0:0:
152,128,36687,1,2,0:0:0:0:
216,184,37040,1,0,0:0:0:0:
200,84,37393,1,6,0:0:0:0:
276,172,38805,5,4,0:0:0:0:
324,280,39158,1,0,0:0:0:0:
328,288,39334,1,2,0:0:0:0:
308,280,39687,1,2,0:0:0:0:
304,280,40040,1,0,0:0:0:0:
308,280,40393,1,2,0:0:0:0:
308,280,40569,1,2,0:0:0:0:
304,280,40746,1,2,0:0:0:0:
148,232,41099,1,0,0:0:0:0:
148,232,41275,1,0,0:0:0:0:
144,132,41628,1,0,0:0:0:0:
224,116,41981,1,2,0:0:0:0:
208,104,42334,1,0,0:0:0:0:
224,212,43040,1,0,0:0:0:0:
172,60,43393,1,0,0:0:0:0:
172,108,43569,1,0,0:0:0:0:
172,104,43746,1,2,0:0:0:0:
276,172,44452,5,4,0:0:0:0:
200,192,44805,1,0,0:0:0:0:
200,192,44981,1,2,0:0:0:0:
200,192,45334,1,2,0:0:0:0:
200,192,45687,1,0,0:0:0:0:
200,192,46040,1,2,0:0:0:0:
200,192,46216,1,2,0:0:0:0:
200,192,46393,1,2,0:0:0:0:
88,208,46746,1,0,0:0:0:0:
100,212,46922,1,2,0:0:0:0:
144,132,47275,1,0,0:0:0:0:
312,152,47628,1,2,0:0:0:0:
224,116,47981,1,2,0:0:0:0:
120,168,48687,1,0,0:0:0:0:
120,168,49040,1,2,0:0:0:0:
204,48,49393,1,0,0:0:0:0:
280,88,50099,5,4,0:0:0:0:
264,168,50628,1,2,0:0:0:0:
244,100,50981,1,0,0:0:0:0:
244,100,51334,1,0,0:0:0:0:
136,172,51510,1,2,0:0:0:0:
156,156,52216,1,2,0:0:0:0:
152,144,52922,1,4,0:0:0:0:
108,108,53628,1,2,0:0:0:0:
128,152,54334,1,6,0:0:0:0:
352,144,55040,1,2,0:0:0:0:
148,104,55746,5,4,0:0:0:0:
20,140,56099,1,0,0:0:0:0:
136,172,56275,1,0,0:0:0:0:
176,208,56452,1,2,0:0:0:0:
256,96,56805,1,0,0:0:0:0:
256,100,57158,1,2,0:0:0:0:
104,136,57510,1,2,0:0:0:0:
260,100,57687,1,2,0:0:0:0:
244,232,57863,1,0,0:0:0:0:
260,104,58216,1,2,0:0:0:0:
168,96,58569,1,0,0:0:0:0:
208,112,58922,1,2,0:0:0:0:
16,184,59099,1,2,0:0:0:0:
56,136,59275,1,0,0:0:0:0:
204,140,59628,1,0,0:0:0:0:
64,132,59981,1,4,0:0:0:0:
224,116,61393,1,0,0:0:0:0:
108,140,61745,1,2,0:0:0:0:
108,140,62098,1,0,0:0:0:0:
188,180,62805,2,0,L|268:176,4,70
232,96,64216,5,2,0:0:0:0:
56,152,64569,1,0,0:0:0:0:
224,140,64746,1,2,0:0:0:0:
216,120,65275,1,2,0:0:0:0:
172,120,65628,1,0,0:0:0:0:
204,40,65981,1,2,0:0:0:0:
244,88,66158,1,2,0:0:0:0:
180,148,66687,1,2,0:0:0:0:
172,120,67040,1,0,0:0:0:0:
56,100,67393,1,0,0:0:0:0:
172,120,67746,1,2,0:0:0:0:
304,172,68099,1,2,0:0:0:0:
172,120,68452,1,0,0:0:0:0:
172,120,68805,1,2,0:0:0:0:
284,128,68981,1,2,0:0:0:0:
200,88,69863,1,2,0:0:0:0:
200,88,70216,1,0,0:0:0:0:
200,88,70393,1,2,0:0:0:0:
316,240,70922,1,2,0:0:0:0:
132,96,71275,1,0,0:0:0:0:
132,96,71628,1,2,0:0:0:0:
212,60,71805,1,2,0:0:0:0:
308,232,72334,1,2,0:0:0:0:
128,120,72687,1,0,0:0:0:0:
92,100,73040,1,0,0:0:0:0:
92,100,73393,1,2,0:0:0:0:
416,116,73746,1,0,0:0:0:0:
344,152,73922,1,2,0:0:0:0:
176,124,74099,1,2,0:0:0:0:
224,196,74452,1,0,0:0:0:0:
120,152,74805,1,2,0:0:0:0:
32,124,75510,5,6,0:0:0:0:
112,100,75863,1,0,0:0:0:0:
236,128,76040,1,0,0:0:0:0:
180,88,76216,1,2,0:0:0:0:
260,76,76569,1,2,0:0:0:0:
164,100,76922,1,0,0:0:0:0:
164,100,77275,1,2,0:0:0:0:
116,84,77452,1,2,0:0:0:0:
216,104,77981,1,2,0:0:0:0:
68,144,78334,1,0,0:0:0:0:
68,144,78687,1,2,0:0:0:0:
144,108,79040,1,2,0:0:0:0:
220,80,79393,1,0,0:0:0:0:
108,148,79746,1,2,0:0:0:0:
120,152,80099,1,0,0:0:0:0:
188,136,80275,1,0,0:0:0:0:
284,172,81158,5,6,0:0:0:0:
284,172,81510,1,0,0:0:0:0:
76,144,81687,1,0,0:0:0:0:
204,148,81863,1,2,0:0:0:0:
260,76,82216,1,2,0:0:0:0:
100,136,82569,1,0,0:0:0:0:
100,136,82922,1,2,0:0:0:0:
152,64,83099,1,2,0:0:0:0:
200,148,83275,1,0,0:0:0:0:
196,100,83628,1,2,0:0:0:0:
152,96,83981,1,0,0:0:0:0:
144,104,84334,1,2,0:0:0:0:
144,104,84687,1,0,0:0:0:0:
176,160,85040,1,2,0:0:0:0:
192,128,85216,1,2,0:0:0:0:
192,120,85393,1,0,0:0:0:0:
164,108,86099,1,2,0:0:0:0:
164,108,86452,1,2,0:0:0:0:
216,148,86805,5,4,0:0:0:0:
216,148,87510,1,4,0:0:0:0:
264,112,88040,1,6,0:0:0:0:
120,152,88393,1,0,0:0:0:0:
264,112,88569,1,2,0:0:0:0:
264,112,88922,1,4,0:0:0:0:
