osu file format v14

[General]
AudioFilename: audio.mp3
AudioLeadIn: 0
PreviewTime: 38724
Countdown: 0
SampleSet: Normal
StackLeniency: 0.7
Mode: 1
LetterboxInBreaks: 0
WidescreenStoryboard: 0

[Editor]
DistanceSpacing: 1.2
BeatDivisor: 4
GridSize: 4
TimelineZoom: 1.4

[Metadata]
Title:Youkoso JAPARI PARK e (TV size ver.)
TitleUnicode:ようこそジャパリパークへ(TVサイズver.)
Artist:Doubutsu Biscuits x PPP
ArtistUnicode:どうぶつビスケッツ×PPP
Creator:butter0414
Version:Kantan
Source:けものフレンズ
Tags:Kemono Friends komasy サーバル serval 尾崎由香 Ozaki Yuka フェネック Fennec 本宮佳奈 Motomiya Kana アライグマ Common raccoon 小野早稀 Ono Saki ロイヤルペンギン Royal penguin 佐々木未来 Sasaki Mikoi コウテイペンギン Emperor penguin 根本流風 Nemoto Ruka ジェンツーペンギン Gentoo penguin 田村響華 Tamura Kyoka イワトビペンギン Rockhopper penguin 相場あいな Aiba Aina フンボルトペンギン Humboldt penguin 築田行子 Chikuta Ikuko
BeatmapID:1262148
BeatmapSetID:591845

[Difficulty]
HPDrainRate:7
CircleSize:5
OverallDifficulty:3
ApproachRate:5
SliderMultiplier:1.4
SliderTickRate:1

[Events]
//Background and Video events
0,0,"BG.jpg",0,0
//Break Periods
//Storyboard Layer 0 (Background)
//Storyboard Layer 1 (Fail)
//Storyboard Layer 2 (Pass)
//Storyboard Layer 3 (Foreground)
//Storyboard Sound Samples

[TimingPoints]
695,352.941176470588,4,1,0,50,1,0
3430,-100,4,1,0,90,0,0
9253,-100,4,1,0,60,0,0
13400,-100,4,1,0,90,0,0
14724,-100,4,1,0,80,0,0
26194,-100,4,1,0,70,0,0
30121,-100,4,1,0,80,0,0
37665,-100,4,1,0,50,0,0
38724,-100,4,1,0,90,0,0
38812,-100,4,1,0,90,0,1
50106,-100,4,1,0,90,0,0
50194,-100,4,1,0,80,0,0
61489,-100,4,1,0,70,0,0
62768,-100,4,1,0,80,0,0
64180,-100,4,1,0,90,0,0
64224,-100,4,1,0,90,0,1
86812,-100,4,1,0,90,0,0

[HitObjects]
256,192,3518,5,4,0:0:0:0:
256,192,4753,1,6,0:0:0:0:
256,192,6342,1,0,0:0:0:0:
256,192,7047,1,2,0:0:0:0:
256,192,7753,1,4,0:0:0:0:
256,192,8459,1,6,0:0:0:0:
256,192,9165,1,6,0:0:0:0:
256,192,10577,1,0,0:0:0:0:
256,192,11283,1,0,0:0:0:0:
256,192,11636,1,0,0:0:0:0:
256,192,11989,1,2,0:0:0:0:
256,192,13400,1,0,0:0:0:0:
256,192,14106,1,6,0:0:0:0:
256,192,14812,1,4,0:0:0:0:
256,192,15518,1,4,0:0:0:0:
256,192,16047,1,4,0:0:0:0:
256,192,16930,1,2,0:0:0:0:
256,192,17636,1,0,0:0:0:0:
256,192,19047,1,0,0:0:0:0:
256,192,20459,1,0,0:0:0:0:
220,268,21165,1,2,0:0:0:0:
256,192,21694,1,0,0:0:0:0:
256,192,22577,1,0,0:0:0:0:
256,192,23283,1,0,0:0:0:0:
256,192,23989,1,2,0:0:0:0:
256,192,24694,1,4,0:0:0:0:
256,192,25047,1,4,0:0:0:0:
256,192,25400,1,4,0:0:0:0:
256,192,26106,1,4,0:0:0:0:
256,192,26812,1,2,0:0:0:0:
256,192,27518,1,4,0:0:0:0:
256,192,28930,1,6,0:0:0:0:
256,192,29636,1,2,0:0:0:0:
256,192,30165,1,4,0:0:0:0:
256,192,30871,1,6,0:0:0:0:
256,192,31577,1,4,0:0:0:0:
256,192,32459,1,0,0:0:0:0:
256,192,33165,1,2,0:0:0:0:
256,192,33871,1,0,0:0:0:0:
256,192,34577,1,0,0:0:0:0:
256,192,35812,1,0,0:0:0:0:
256,192,36694,1,2,0:0:0:0:
256,192,37047,1,0,0:0:0:0:
256,192,37400,1,2,0:0:0:0:
256,192,38812,1,4,0:0:0:0:
256,192,39342,1,0,0:0:0:0:
256,192,40047,1,2,0:0:0:0:
256,192,40753,1,2,0:0:0:0:
256,192,41636,1,0,0:0:0:0:
256,192,42342,1,2,0:0:0:0:
256,192,43047,1,0,0:0:0:0:
256,192,43400,1,2,0:0:0:0:
256,192,43753,1,2,0:0:0:0:
256,192,44459,1,4,0:0:0:0:
256,192,44989,1,0,0:0:0:0:
256,192,45694,1,2,0:0:0:0:
256,192,46400,1,2,0:0:0:0:
256,192,47283,1,0,0:0:0:0:
256,192,47989,1,2,0:0:0:0:
256,192,48694,1,0,0:0:0:0:
256,192,49400,1,2,0:0:0:0:
256,192,49753,1,2,0:0:0:0:
256,192,50106,1,0,0:0:0:0:
256,192,51518,1,0,0:0:0:0:
256,192,52224,1,2,0:0:0:0:
256,192,52577,1,0,0:0:0:0:
256,192,52930,1,0,0:0:0:0:
256,192,53636,1,2,0:0:0:0:
256,192,54342,1,0,0:0:0:0:
256,192,55047,1,2,0:0:0:0:
256,192,55753,1,0,0:0:0:0:
256,192,56459,1,2,0:0:0:0:
256,192,56812,1,0,0:0:0:0:
256,192,57165,1,2,0:0:0:0:
256,192,57871,1,2,0:0:0:0:
256,192,58577,1,0,0:0:0:0:
256,192,59283,1,2,0:0:0:0:
256,192,59636,1,0,0:0:0:0:
256,192,59989,1,2,0:0:0:0:
300,164,61400,1,4,0:0:0:0:
300,164,62812,1,0,0:0:0:0:
300,164,63518,1,6,0:0:0:0:
256,184,64224,1,4,0:0:0:0:
256,184,64930,1,2,0:0:0:0:
256,184,65636,1,0,0:0:0:0:
256,184,66342,1,2,0:0:0:0:
256,184,66694,1,2,0:0:0:0:
256,184,67047,1,0,0:0:0:0:
256,184,67753,1,2,0:0:0:0:
256,184,68459,1,0,0:0:0:0:
256,184,68812,1,0,0:0:0:0:
256,184,69165,1,2,0:0:0:0:
256,184,69871,1,0,0:0:0:0:
256,184,70577,1,2,0:0:0:0:
256,184,71283,1,0,0:0:0:0:
256,184,71636,1,2,0:0:0:0:
256,184,71989,1,2,0:0:0:0:
256,184,72694,1,0,0:0:0:0:
256,184,73400,1,0,0:0:0:0:
256,184,73753,1,2,0:0:0:0:
256,184,74106,1,0,0:0:0:0:
256,184,74812,1,6,0:0:0:0:
256,184,75165,1,6,0:0:0:0:
256,184,75518,1,4,0:0:0:0:
256,184,76224,1,2,0:0:0:0:
256,184,76930,1,0,0:0:0:0:
256,184,77636,1,2,0:0:0:0:
256,184,77989,1,0,0:0:0:0:
256,184,78342,1,0,0:0:0:0:
256,184,79047,1,2,0:0:0:0:
256,184,79400,1,2,0:0:0:0:
256,184,79753,1,0,0:0:0:0:
256,184,80459,1,0,0:0:0:0:
256,184,80812,1,2,0:0:0:0:
256,184,81165,1,0,0:0:0:0:
256,184,81871,1,2,0:0:0:0:
256,184,82577,1,0,0:0:0:0:
256,184,83283,1,2,0:0:0:0:
256,184,83636,1,2,0:0:0:0:
256,184,83989,1,0,0:0:0:0:
256,184,84694,1,2,0:0:0:0:
256,184,85400,1,0,0:0:0:0:
256,184,86106,1,6,0:0:0:0:
256,184,86459,1,6,0:0:0:0:
256,184,86812,1,4,0:0:0:0:
256,184,87518,1,4,0:0:0:0:
256,184,88047,1,4,0:0:0:0:
256,184,88577,1,0,0:0:0:0:
256,184,88930,1,4,0:0:0:0:
