osu file format v14

[General]
AudioFilename: audio.mp3
AudioLeadIn: 0
PreviewTime: 38724
Countdown: 0
SampleSet: Normal
StackLeniency: 0.7
Mode: 1
LetterboxInBreaks: 0
WidescreenStoryboard: 0

[Editor]
DistanceSpacing: 1.2
BeatDivisor: 4
GridSize: 8
TimelineZoom: 1.4

[Metadata]
Title:Youkoso JAPARI PARK e (TV size ver.)
TitleUnicode:ようこそジャパリパークへ(TVサイズver.)
Artist:Doubutsu Biscuits x PPP
ArtistUnicode:どうぶつビスケッツ×PPP
Creator:butter0414
Version:Muzukashii
Source:けものフレンズ
Tags:Kemono Friends komasy サーバル serval 尾崎由香 Ozaki Yuka フェネック Fennec 本宮佳奈 Motomiya Kana アライグマ Common raccoon 小野早稀 Ono Saki ロイヤルペンギン Royal penguin 佐々木未来 Sasaki Mikoi コウテイペンギン Emperor penguin 根本流風 Nemoto Ruka ジェンツーペンギン Gentoo penguin 田村響華 Tamura Kyoka イワトビペンギン Rockhopper penguin 相場あいな Aiba Aina フンボルトペンギン Humboldt penguin 築田行子 Chikuta Ikuko
BeatmapID:1262149
BeatmapSetID:591845

[Difficulty]
HPDrainRate:5
CircleSize:5
OverallDifficulty:5
ApproachRate:5
SliderMultiplier:1.4
SliderTickRate:1

[Events]
//Background and Video events
0,0,"BG.jpg",0,0
//Break Periods
//Storyboard Layer 0 (Background)
//Storyboard Layer 1 (Fail)
//Storyboard Layer 2 (Pass)
//Storyboard Layer 3 (Foreground)
//Storyboard Sound Samples

[TimingPoints]
695,352.941176470588,4,1,0,50,1,0
3430,-100,4,1,0,90,0,0
9253,-100,4,1,0,80,0,0
14724,-100,4,1,0,80,0,0
17371,-100,4,1,0,80,0,0
26194,-100,4,1,0,70,0,0
30121,-100,4,1,0,80,0,0
37665,-100,4,1,0,50,0,0
38724,-100,4,1,0,90,0,0
38812,-100,4,1,0,90,0,1
50106,-100,4,1,0,90,0,0
50194,-100,4,1,0,80,0,0
61489,-100,4,1,0,70,0,0
64180,-100,4,1,0,90,0,0
64224,-100,4,1,0,90,0,1
86812,-100,4,1,0,90,0,0

[HitObjects]
256,192,3518,5,4,0:0:0:0:
256,192,4047,1,4,0:0:0:0:
256,192,4753,1,6,0:0:0:0:
256,192,5459,1,6,0:0:0:0:
256,192,5812,1,0,0:0:0:0:
256,192,5989,1,2,0:0:0:0:
256,192,6165,1,0,0:0:0:0:
256,192,6342,1,0,0:0:0:0:
256,192,6694,1,2,0:0:0:0:
256,192,7047,1,0,0:0:0:0:
256,192,7224,1,0,0:0:0:0:
256,192,7400,1,2,0:0:0:0:
256,192,7753,1,4,0:0:0:0:
256,192,8106,1,4,0:0:0:0:
256,192,8459,1,6,0:0:0:0:
256,192,8812,1,6,0:0:0:0:
256,192,9165,1,6,0:0:0:0:
256,192,9871,1,0,0:0:0:0:
256,192,10224,1,0,0:0:0:0:
256,192,10577,1,0,0:0:0:0:
256,192,11283,1,0,0:0:0:0:
256,192,11460,1,0,0:0:0:0:
256,192,11548,1,0,0:0:0:0:
256,192,11636,1,0,0:0:0:0:
256,192,11989,1,2,0:0:0:0:
256,192,12694,1,0,0:0:0:0:
256,192,13047,1,0,0:0:0:0:
256,192,13400,2,0,L|416:48,1,210
256,192,14106,1,6,0:0:0:0:
256,192,14812,1,4,0:0:0:0:
256,192,15518,1,4,0:0:0:0:
256,192,16047,1,4,0:0:0:0:
256,192,16930,1,4,0:0:0:0:
256,192,17194,1,2,0:0:0:0:
256,192,17459,1,2,0:0:0:0:
256,192,17636,1,0,0:0:0:0:
256,192,17989,1,2,0:0:0:0:
256,192,18165,1,2,0:0:0:0:
256,192,18342,1,0,0:0:0:0:
256,192,18694,1,2,0:0:0:0:
256,192,19047,1,0,0:0:0:0:
256,192,19400,1,0,0:0:0:0:
256,192,19577,1,2,0:0:0:0:
256,192,19753,1,0,0:0:0:0:
256,192,19930,1,2,0:0:0:0:
256,192,20106,1,2,0:0:0:0:
256,192,20283,1,2,0:0:0:0:
256,192,20459,1,0,0:0:0:0:
256,192,20989,1,0,0:0:0:0:
220,268,21165,1,2,0:0:0:0:
256,192,21430,1,0,0:0:0:0:
256,192,21694,1,0,0:0:0:0:
256,192,22047,1,2,0:0:0:0:
256,192,22136,1,2,0:0:0:0:
256,192,22224,1,2,0:0:0:0:
256,192,22400,1,2,0:0:0:0:
256,192,22577,1,0,0:0:0:0:
256,192,22842,1,2,0:0:0:0:
256,192,23106,1,2,0:0:0:0:
256,192,23283,1,0,0:0:0:0:
256,192,23636,1,2,0:0:0:0:
256,192,23812,1,2,0:0:0:0:
256,192,23989,1,0,0:0:0:0:
256,192,24342,1,2,0:0:0:0:
256,192,24694,1,4,0:0:0:0:
256,192,25047,1,4,0:0:0:0:
256,192,25400,1,4,0:0:0:0:
256,192,25753,1,2,0:0:0:0:
256,192,25930,1,0,0:0:0:0:
256,192,26106,1,4,0:0:0:0:
256,192,26636,1,0,0:0:0:0:
256,192,26812,1,2,0:0:0:0:
256,192,26989,1,2,0:0:0:0:
256,192,27165,1,0,0:0:0:0:
256,192,27518,1,4,0:0:0:0:
256,192,28047,1,0,0:0:0:0:
256,192,28224,1,2,0:0:0:0:
256,192,28400,1,2,0:0:0:0:
256,192,28489,1,2,0:0:0:0:
256,192,28577,1,2,0:0:0:0:
256,192,28753,1,0,0:0:0:0:
256,192,28930,1,6,0:0:0:0:
256,192,29459,1,0,0:0:0:0:
256,192,29636,1,2,0:0:0:0:
256,192,29812,1,0,0:0:0:0:
256,192,29989,1,0,0:0:0:0:
256,192,30165,1,4,0:0:0:0:
256,192,30518,1,4,0:0:0:0:
256,192,30871,1,6,0:0:0:0:
256,192,31224,1,6,0:0:0:0:
256,192,31577,1,4,0:0:0:0:
256,192,32106,1,2,0:0:0:0:
256,192,32283,1,0,0:0:0:0:
256,192,32459,1,0,0:0:0:0:
256,192,32812,1,2,0:0:0:0:
256,192,33165,1,0,0:0:0:0:
256,192,33518,1,2,0:0:0:0:
256,192,33694,1,2,0:0:0:0:
256,192,33871,1,0,0:0:0:0:
256,192,34224,1,2,0:0:0:0:
256,192,34400,1,0,0:0:0:0:
256,192,34577,1,0,0:0:0:0:
256,192,34930,1,0,0:0:0:0:
256,192,35106,1,2,0:0:0:0:
256,192,35459,1,2,0:0:0:0:
256,192,35636,1,2,0:0:0:0:
256,192,35812,1,4,0:0:0:0:
256,192,36165,1,2,0:0:0:0:
256,192,36342,1,0,0:0:0:0:
256,192,36518,1,0,0:0:0:0:
256,192,36606,1,0,0:0:0:0:
256,192,36694,1,0,0:0:0:0:
256,192,36871,1,0,0:0:0:0:
256,192,37047,1,2,0:0:0:0:
256,192,37224,1,0,0:0:0:0:
256,192,37400,1,2,0:0:0:0:
256,192,37753,1,2,0:0:0:0:
256,192,38106,1,0,0:0:0:0:
256,192,38459,1,2,0:0:0:0:
256,192,38812,1,4,0:0:0:0:
256,192,38989,1,2,0:0:0:0:
256,192,39077,1,2,0:0:0:0:
256,192,39165,1,2,0:0:0:0:
256,192,39342,1,0,0:0:0:0:
256,192,39694,1,0,0:0:0:0:
256,192,39871,1,2,0:0:0:0:
256,192,40047,1,0,0:0:0:0:
256,192,40400,1,0,0:0:0:0:
256,192,40577,1,0,0:0:0:0:
256,192,40753,1,2,0:0:0:0:
256,192,41106,1,2,0:0:0:0:
256,192,41283,1,2,0:0:0:0:
256,192,41459,1,0,0:0:0:0:
256,192,41636,1,0,0:0:0:0:
256,192,41989,1,2,0:0:0:0:
256,192,42342,1,0,0:0:0:0:
256,192,42518,1,0,0:0:0:0:
256,192,42694,1,2,0:0:0:0:
256,192,43047,1,0,0:0:0:0:
256,192,43224,1,0,0:0:0:0:
256,192,43400,1,2,0:0:0:0:
256,192,43577,1,2,0:0:0:0:
256,192,43753,1,0,0:0:0:0:
256,192,43930,1,2,0:0:0:0:
256,192,44106,1,2,0:0:0:0:
256,192,44459,1,4,0:0:0:0:
256,192,44636,1,2,0:0:0:0:
256,192,44812,1,2,0:0:0:0:
256,192,44989,1,0,0:0:0:0:
256,192,45342,1,0,0:0:0:0:
256,192,45518,1,2,0:0:0:0:
256,192,45694,1,0,0:0:0:0:
256,192,46047,1,2,0:0:0:0:
256,192,46224,1,2,0:0:0:0:
256,192,46400,1,0,0:0:0:0:
256,192,46753,1,2,0:0:0:0:
256,192,46842,1,2,0:0:0:0:
256,192,46930,1,2,0:0:0:0:
256,192,47106,1,0,0:0:0:0:
256,192,47283,1,0,0:0:0:0:
256,192,47636,1,2,0:0:0:0:
256,192,47989,1,0,0:0:0:0:
256,192,48165,1,0,0:0:0:0:
256,192,48342,1,2,0:0:0:0:
256,192,48694,1,0,0:0:0:0:
256,192,48871,1,0,0:0:0:0:
256,192,49047,1,2,0:0:0:0:
256,192,49136,1,2,0:0:0:0:
256,192,49224,1,2,0:0:0:0:
256,192,49400,1,0,0:0:0:0:
256,192,49753,1,2,0:0:0:0:
256,192,49930,1,2,0:0:0:0:
256,192,50106,1,0,0:0:0:0:
256,192,50636,1,2,0:0:0:0:
256,192,50989,1,0,0:0:0:0:
256,192,51342,1,2,0:0:0:0:
256,192,51518,1,2,0:0:0:0:
256,192,51871,1,0,0:0:0:0:
256,192,52047,1,2,0:0:0:0:
256,192,52400,1,0,0:0:0:0:
256,192,52577,1,0,0:0:0:0:
256,192,52930,1,0,0:0:0:0:
256,192,53283,1,0,0:0:0:0:
256,192,53459,1,2,0:0:0:0:
256,192,53812,1,2,0:0:0:0:
256,192,53989,1,0,0:0:0:0:
256,192,54165,1,2,0:0:0:0:
256,192,54342,1,2,0:0:0:0:
256,192,54694,1,0,0:0:0:0:
256,192,54871,1,2,0:0:0:0:
256,192,54959,1,2,0:0:0:0:
256,192,55047,1,2,0:0:0:0:
256,192,55400,1,0,0:0:0:0:
256,192,55577,1,2,0:0:0:0:
256,192,55753,1,0,0:0:0:0:
256,192,56106,1,2,0:0:0:0:
256,192,56283,1,2,0:0:0:0:
256,192,56636,1,0,0:0:0:0:
256,192,56812,1,2,0:0:0:0:
256,192,56989,1,2,0:0:0:0:
256,192,57165,1,0,0:0:0:0:
256,192,57518,1,2,0:0:0:0:
256,192,57694,1,2,0:0:0:0:
256,192,58047,1,0,0:0:0:0:
256,192,58224,1,2,0:0:0:0:
256,192,58400,1,2,0:0:0:0:
256,192,58577,1,0,0:0:0:0:
256,192,58930,1,2,0:0:0:0:
256,192,59106,1,0,0:0:0:0:
256,192,59283,1,2,0:0:0:0:
256,192,59459,1,2,0:0:0:0:
256,192,59636,1,0,0:0:0:0:
256,192,59812,1,2,0:0:0:0:
256,192,59989,1,0,0:0:0:0:
300,164,60694,1,2,0:0:0:0:
300,164,61400,1,4,0:0:0:0:
300,164,61753,1,0,0:0:0:0:
300,164,62106,1,0,0:0:0:0:
300,164,62459,1,0,0:0:0:0:
300,164,62812,2,0,L|144:304,1,210
300,164,63518,1,6,0:0:0:0:
256,184,64224,1,0,0:0:0:0:
256,184,64400,1,0,0:0:0:0:
256,184,64577,1,2,0:0:0:0:
256,184,64753,1,2,0:0:0:0:
256,184,64930,1,0,0:0:0:0:
256,184,65283,1,2,0:0:0:0:
256,184,65636,1,2,0:0:0:0:
256,184,65812,1,2,0:0:0:0:
256,184,65989,1,0,0:0:0:0:
256,184,66165,1,0,0:0:0:0:
256,184,66342,1,2,0:0:0:0:
256,184,66694,1,0,0:0:0:0:
256,184,67047,1,0,0:0:0:0:
256,184,67400,1,2,0:0:0:0:
256,184,67753,1,2,0:0:0:0:
256,184,67930,1,0,0:0:0:0:
256,184,68106,1,2,0:0:0:0:
256,184,68459,1,0,0:0:0:0:
256,184,68636,1,0,0:0:0:0:
256,184,68812,1,2,0:0:0:0:
256,184,68989,1,2,0:0:0:0:
256,184,69165,1,0,0:0:0:0:
256,184,69518,1,2,0:0:0:0:
256,184,69606,1,2,0:0:0:0:
256,184,69694,1,2,0:0:0:0:
256,184,69871,1,0,0:0:0:0:
256,184,70047,1,2,0:0:0:0:
256,184,70224,1,0,0:0:0:0:
256,184,70400,1,0,0:0:0:0:
256,184,70577,1,2,0:0:0:0:
256,184,70930,1,2,0:0:0:0:
256,184,71283,1,2,0:0:0:0:
256,184,71459,1,0,0:0:0:0:
256,184,71636,1,2,0:0:0:0:
256,184,71812,1,2,0:0:0:0:
256,184,71989,1,0,0:0:0:0:
256,184,72165,1,2,0:0:0:0:
256,184,72342,1,0,0:0:0:0:
256,184,72694,1,0,0:0:0:0:
256,184,73047,1,2,0:0:0:0:
256,184,73400,1,2,0:0:0:0:
256,184,73577,1,2,0:0:0:0:
256,184,73753,1,0,0:0:0:0:
256,184,73930,1,2,0:0:0:0:
256,184,74106,1,0,0:0:0:0:
256,184,74459,1,0,0:0:0:0:
256,184,74636,1,0,0:0:0:0:
256,184,74812,1,6,0:0:0:0:
256,184,75165,1,6,0:0:0:0:
256,184,75518,1,4,0:0:0:0:
256,184,75871,1,2,0:0:0:0:
256,184,76224,1,2,0:0:0:0:
256,184,76400,1,0,0:0:0:0:
256,184,76577,1,2,0:0:0:0:
256,184,76753,1,2,0:0:0:0:
256,184,76930,1,0,0:0:0:0:
256,184,77283,1,2,0:0:0:0:
256,184,77459,1,0,0:0:0:0:
256,184,77636,1,2,0:0:0:0:
256,184,77812,1,0,0:0:0:0:
256,184,77989,1,2,0:0:0:0:
256,184,78165,1,2,0:0:0:0:
256,184,78342,1,0,0:0:0:0:
256,184,78694,1,2,0:0:0:0:
256,184,79047,1,0,0:0:0:0:
256,184,79224,1,0,0:0:0:0:
256,184,79400,1,2,0:0:0:0:
256,184,79577,1,0,0:0:0:0:
256,184,79665,1,0,0:0:0:0:
256,184,79753,1,0,0:0:0:0:
256,184,80106,1,2,0:0:0:0:
256,184,80283,1,2,0:0:0:0:
256,184,80459,1,0,0:0:0:0:
256,184,80636,1,2,0:0:0:0:
256,184,80812,1,0,0:0:0:0:
256,184,80989,1,2,0:0:0:0:
256,184,81165,1,0,0:0:0:0:
256,184,81518,1,2,0:0:0:0:
256,184,81694,1,0,0:0:0:0:
256,184,81871,1,2,0:0:0:0:
256,184,82224,1,2,0:0:0:0:
256,184,82577,1,0,0:0:0:0:
256,184,82753,1,0,0:0:0:0:
256,184,82930,1,2,0:0:0:0:
256,184,83106,1,2,0:0:0:0:
256,184,83283,1,0,0:0:0:0:
256,184,83459,1,2,0:0:0:0:
256,184,83636,1,0,0:0:0:0:
256,184,83989,1,0,0:0:0:0:
256,184,84342,1,2,0:0:0:0:
256,184,84694,1,2,0:0:0:0:
256,184,84871,1,0,0:0:0:0:
256,184,85047,1,2,0:0:0:0:
256,184,85224,1,2,0:0:0:0:
256,184,85400,1,0,0:0:0:0:
256,184,85753,1,0,0:0:0:0:
256,184,85930,1,0,0:0:0:0:
256,184,86106,1,6,0:0:0:0:
256,184,86459,1,6,0:0:0:0:
256,184,86812,1,4,0:0:0:0:
256,184,87165,1,2,0:0:0:0:
256,184,87518,1,4,0:0:0:0:
256,184,87871,1,2,0:0:0:0:
256,184,88047,1,4,0:0:0:0:
256,184,88400,1,0,0:0:0:0:
256,184,88577,1,2,0:0:0:0:
256,184,88930,1,4,0:0:0:0:
