osu file format v14

[General]
AudioFilename: audio.mp3
AudioLeadIn: 0
PreviewTime: 38906
Countdown: 0
SampleSet: Soft
StackLeniency: 0.7
Mode: 0
LetterboxInBreaks: 0
WidescreenStoryboard: 0

[Editor]
DistanceSpacing: 1
BeatDivisor: 4
GridSize: 4
TimelineZoom: 1

[Metadata]
Title:Youkoso JAPARI PARK e (TV size ver.)
TitleUnicode:ようこそジャパリパークへ(TVサイズver.)
Artist:Doubutsu Biscuits x PPP
ArtistUnicode:どうぶつビスケッツ×PPP
Creator:alacat
Version:Easy-!
Source:けものフレンズ
Tags:Oishi Masayoshi 大石昌良 オーイシマサヨシ iyasine opening KEMONO FRIENDS サーバル Serval Cat フェネック Fennec アライグマ common raccoon 尾崎由香 Yuka Ozaki 本宮佳奈 Kana Motomiya 小野早稀 Saki Ono ペパプ PENGUINS Performance Project. Royal Emperor Gentoo Rockhopper Humboldt penguin 佐々木未来 Mikoi Sasaki 根本流風 Nemoto Ruka 田村響華 Tamura Kyouka 相羽あいな Aina Aiba 築田行子 Chikuta Ikuko
BeatmapID:1209257
BeatmapSetID:570479

[Difficulty]
HPDrainRate:3
CircleSize:3
OverallDifficulty:3
ApproachRate:4
SliderMultiplier:0.999999999999999
SliderTickRate:1

[Events]
//Background and Video events
0,0,"BG.jpg",0,0
Video,325,"video.flv"
//Break Periods
2,9458,12174
//Storyboard Layer 0 (Background)
//Storyboard Layer 1 (Fail)
//Storyboard Layer 2 (Pass)
//Storyboard Layer 3 (Foreground)
//Storyboard Sound Samples

[TimingPoints]
3612,352.941176470588,4,2,1,60,1,0
9259,-100,4,2,1,50,0,0
13494,-100,4,2,1,40,0,0
14200,-100,4,2,1,50,0,0
14906,-100,4,2,1,60,0,0
15611,-100,4,2,1,50,0,0
16141,-100,4,2,1,40,0,0
17023,-100,4,2,1,50,0,0
17729,-100,4,2,1,60,0,0
24788,-100,4,2,1,40,0,0
25494,-100,4,2,1,60,0,0
26200,-100,4,2,1,40,0,0
30259,-100,4,2,1,30,0,0
30611,-100,4,2,1,40,0,0
30964,-100,4,2,1,50,0,0
31317,-100,4,2,1,60,0,0
31670,-100,4,2,1,50,0,0
36788,-100,4,2,1,60,0,0
37494,-100,4,2,1,70,0,0
38906,-100,4,2,1,70,0,1
43141,-100,4,2,1,50,0,1
43847,-100,4,2,1,60,0,1
44553,-100,4,2,1,70,0,1
50200,-100,4,2,1,60,0,0
51611,-100,4,2,1,40,0,0
55847,-100,4,2,1,60,0,0
58670,-100,4,2,1,40,0,0
59376,-100,4,2,1,50,0,0
60082,-100,4,2,1,60,0,0
61494,-100,4,2,1,50,0,0
62906,-100,4,2,1,40,0,0
63611,-100,4,2,1,50,0,0
64317,-100,4,2,1,70,0,0
86906,-100,4,2,1,50,0,0
88141,-100,4,2,1,60,0,0
89023,-100,4,2,1,70,0,0

[Colours]
Combo1 : 255,192,162
Combo2 : 255,255,125
Combo3 : 162,81,81

[HitObjects]
36,348,3612,6,0,B|20:248|20:248|44:204,1,150,4|4,0:0|0:0,0:0:0:0:
208,88,4847,2,0,B|287:100|287:100|315:125|315:125|398:138,1,200,4|4,0:0|0:0,0:0:0:0:
256,348,6435,6,0,L|156:330,1,99.9999999999999,4|2,0:0|0:1,0:0:0:0:
132,232,7141,2,0,L|230:249,1,99.9999999999999,2|2,0:1|0:1,0:0:0:0:
328,268,7847,2,0,P|417:233|427:135,2,200,4|2|4,0:0|0:1|0:0,0:0:0:0:
196,220,13494,6,0,P|168:164|264:164,1,200,4|2,0:1|0:0,0:0:0:0:
164,336,14906,6,0,B|256:372|256:372|364:372,1,200,4|4,0:0|0:0,0:0:0:0:
440,244,16141,2,0,B|285:244|285:244|197:208,1,250,4|4,0:0|0:0,0:0:0:0:
80,48,17729,6,0,B|128:32|128:32|180:32,1,99.9999999999999,4|2,0:0|0:1,0:0:0:0:
252,100,18435,1,2,0:1:0:0:
344,64,18788,1,2,0:1:0:0:
440,32,19141,2,0,B|476:128|412:128|448:228,1,200,4|2,0:0|0:1,0:0:0:0:
292,352,20553,5,4,0:0:0:0:
160,204,21259,2,0,P|80:204|36:264,2,150,8|4|0,0:0|0:0|0:0,0:0:0:0:
232,276,22670,1,8,0:0:0:0:
384,144,23376,6,0,L|364:44,2,99.9999999999999,4|8|2,0:0|0:0|0:1,0:0:0:0:
464,204,24435,1,8,0:0:0:0:
372,240,24788,2,0,P|276:216|176:216,1,200,4|4,0:0|0:0,0:0:0:0:
12,336,26200,6,0,B|-4:236|-4:236|28:140,1,200,4|8,0:0|0:0,0:0:0:0:
108,80,27259,1,4,0:3:0:0:
200,116,27611,2,0,P|252:108|296:84,1,99.9999999999999,4|0,0:0|0:0,0:0:0:0:
380,132,28317,2,0,P|388:184|412:228,1,99.9999999999999,8|0,0:0|0:0,0:0:0:0:
496,276,29023,6,0,L|296:244,1,200,4|8,0:0|0:0,0:0:0:0:
184,340,30259,2,0,P|152:300|148:252,1,99.9999999999999,4|4,0:0|0:0,0:0:0:0:
56,212,30964,2,0,P|74:164|114:136,1,99.9999999999999,4|8,0:0|0:0,0:0:0:0:
172,56,31670,6,0,L|324:72,1,150,4|8,0:0|0:0,0:0:0:0:
412,28,32553,2,0,L|448:124,1,99.9999999999999,2|8,0:1|0:0,0:0:0:0:
480,216,33259,2,0,P|415:290|320:276,1,200,4|2,0:0|0:1,0:0:0:0:
256,204,34317,1,8,0:0:0:0:
196,124,34670,2,0,P|72:112|28:216,1,250,4|4,0:0|0:3,0:0:0:0:
256,192,35906,12,12,37494,0:0:0:0:
504,52,38906,6,0,L|496:204,1,150,4|4,0:0|0:0,0:0:0:0:
340,324,40141,2,0,L|352:124,1,200,4|4,0:0|0:0,0:0:0:0:
288,48,41200,2,0,P|212:36|144:64,1,150,2|4,0:1|0:0,0:0:0:0:
88,144,42082,5,8,0:0:0:0:
144,228,42435,2,0,L|128:328,1,99.9999999999999,2|8,0:1|0:0,0:0:0:0:
224,348,43141,2,0,P|316:312|412:336,1,200,2|2,0:1|0:1,0:0:0:0:
496,280,44200,1,8,0:0:0:0:
444,196,44553,6,0,B|432:96|432:96|452:52,1,150,4|4,0:0|0:0,0:0:0:0:
252,64,45788,2,0,L|52:40,1,200,4|4,0:0|0:0,0:0:0:0:
8,128,46847,2,0,L|163:148,1,150,8|4,0:0|0:0,0:0:0:0:
212,232,47729,5,8,0:0:0:0:
312,216,48082,2,0,P|336:172|340:120,1,99.9999999999999,2|8,0:1|0:0,0:0:0:0:
436,92,48788,2,0,P|462:134|505:164,1,99.9999999999999,8|8,0:0|0:0,0:0:0:0:
480,260,49494,2,0,P|429:261|382:283,1,99.9999999999999,2|8,0:1|0:0,0:0:0:0:
320,360,50200,5,4,0:0:0:0:
28,88,51611,2,0,B|-8:184|56:184|20:284,1,200,4|2,0:0|0:1,0:0:0:0:
212,336,53023,6,0,P|300:292|404:312,2,200,4|0|4,0:0|0:0|0:0,0:0:0:0:
108,164,55141,1,2,0:1:0:0:
280,60,55847,6,0,L|312:260,1,200,4|0,0:0|0:0,0:0:0:0:
384,324,56906,1,8,0:0:0:0:
288,348,57259,2,0,B|192:312|192:376|92:340,1,200,2|0,0:1|0:0,0:0:0:0:
24,268,58317,1,8,0:0:0:0:
52,172,58670,6,0,P|132:156|120:244,2,200,2|8|8,0:1|0:0|0:0,0:0:0:0:
448,120,61494,6,0,P|356:100|280:164,1,200,4|2,0:0|0:1,0:0:0:0:
376,340,62906,2,0,B|420:336|456:356|456:356|432:300|452:240,1,200,4|2,0:1|0:0,0:0:0:0:
488,44,64317,6,0,L|388:60,1,99.9999999999999,4|8,0:0|0:0,0:0:0:0:
328,140,65023,2,0,L|228:124,1,99.9999999999999,2|8,0:1|0:0,0:0:0:0:
160,52,65729,2,0,P|68:72|40:164,1,200,2|2,0:1|0:1,0:0:0:0:
108,240,66788,1,8,0:0:0:0:
200,196,67141,6,0,P|296:176|400:216,2,200,2|2|2,0:1|0:1|0:1,0:0:0:0:
124,264,68906,1,8,0:0:0:0:
32,224,69259,2,0,L|48:124,1,99.9999999999999,2|8,0:1|0:0,0:0:0:0:
124,60,69964,6,0,P|172:56|228:68,1,99.9999999999999,4|8,0:0|0:0,0:0:0:0:
312,20,70670,2,0,P|354:42|394:83,1,99.9999999999999,2|8,0:1|0:0,0:0:0:0:
440,164,71376,2,0,P|488:104|476:36,2,150,2|0|8,0:1|0:0|0:0,0:0:0:0:
340,160,72788,6,0,B|304:256|368:256|332:356,2,200,2|2|2,0:1|0:1|0:1,0:0:0:0:
184,36,74906,2,0,P|192:88|184:136,1,99.9999999999999,8|8,0:0|0:0,0:0:0:0:
100,192,75611,6,0,P|100:284|184:340,1,200,4|8,0:0|0:0,0:0:0:0:
256,268,76670,1,8,0:0:0:0:
328,339,77023,2,0,P|409:288|412:192,1,200,8|8,0:0|0:0,0:0:0:0:
340,124,78082,1,8,0:0:0:0:
248,164,78435,6,0,B|164:164|164:164|136:180|136:180|48:180,2,200,4|8|8,0:0|0:0|0:0,0:0:0:0:
316,92,80200,1,8,0:0:0:0:
412,120,80553,2,0,B|432:168|432:168|432:220,1,99.9999999999999,8|8,0:0|0:0,0:0:0:0:
364,288,81259,6,0,L|264:288,1,99.9999999999999,4|8,0:0|0:0,0:0:0:0:
176,244,81964,1,8,0:0:0:0:
116,324,82317,1,8,0:0:0:0:
24,288,82670,2,0,P|8:240|16:192,1,99.9999999999999,8|8,0:0|0:0,0:0:0:0:
64,104,83376,2,0,P|112:88|160:96,1,99.9999999999999,8|8,0:0|0:0,0:0:0:0:
232,164,84082,6,0,L|432:136,1,200,4|8,0:0|0:0,0:0:0:0:
512,196,85141,1,8,0:0:0:0:
420,232,85494,2,0,B|380:268|376:324|376:324|328:308|280:324,1,200,4|2,0:0|0:1,0:0:0:0:
196,372,86553,1,8,0:0:0:0:
112,320,86906,6,0,L|128:116,1,200,8|8,0:0|0:0,0:0:0:0:
256,44,88141,2,0,L|244:195,1,150,4|8,0:0|0:0,0:0:0:0:
232,292,89023,5,12,0:0:0:0:
