osu file format v14

[General]
AudioFilename: audio.mp3
AudioLeadIn: 0
PreviewTime: 38906
Countdown: 0
SampleSet: Soft
StackLeniency: 0.7
Mode: 0
LetterboxInBreaks: 0
WidescreenStoryboard: 0

[Editor]
DistanceSpacing: 0.8
BeatDivisor: 4
GridSize: 4
TimelineZoom: 1

[Metadata]
Title:Youkoso JAPARI PARK e (TV size ver.)
TitleUnicode:ようこそジャパリパークへ(TVサイズver.)
Artist:Doubutsu Biscuits x PPP
ArtistUnicode:どうぶつビスケッツ×PPP
Creator:alacat
Version:Normal-!
Source:けものフレンズ
Tags:Oishi Masayoshi 大石昌良 オーイシマサヨシ iyasine opening KEMONO FRIENDS サーバル Serval Cat フェネック Fennec アライグマ common raccoon 尾崎由香 Yuka Ozaki 本宮佳奈 Kana Motomiya 小野早稀 Saki Ono ペパプ PENGUINS Performance Project. Royal Emperor Gentoo Rockhopper Humboldt penguin 佐々木未来 Mikoi Sasaki 根本流風 Nemoto Ruka 田村響華 Tamura Kyouka 相羽あいな Aina Aiba 築田行子 Chikuta Ikuko
BeatmapID:1209258
BeatmapSetID:570479

[Difficulty]
HPDrainRate:4.5
CircleSize:3.5
OverallDifficulty:4.5
ApproachRate:5.5
SliderMultiplier:1.2
SliderTickRate:1

[Events]
//Background and Video events
0,0,"BG.jpg",0,0
Video,325,"video.flv"
//Break Periods
//Storyboard Layer 0 (Background)
//Storyboard Layer 1 (Fail)
//Storyboard Layer 2 (Pass)
//Storyboard Layer 3 (Foreground)
//Storyboard Sound Samples

[TimingPoints]
3612,352.941176470588,4,2,1,60,1,0
9259,-100,4,2,1,50,0,0
11729,-100,4,2,1,30,0,0
12082,-100,4,2,1,50,0,0
13494,-100,4,2,1,40,0,0
14200,-100,4,2,1,50,0,0
14906,-100,4,2,1,60,0,0
15611,-100,4,2,1,50,0,0
16141,-100,4,2,1,40,0,0
17023,-100,4,2,1,50,0,0
17729,-100,4,2,1,60,0,0
24788,-100,4,2,1,40,0,0
25141,-100,4,2,1,50,0,0
25494,-100,4,2,1,60,0,0
25847,-100,4,2,1,50,0,0
26200,-100,4,2,1,40,0,0
30259,-100,4,2,1,30,0,0
30611,-100,4,2,1,40,0,0
30964,-100,4,2,1,50,0,0
31317,-100,4,2,1,60,0,0
31670,-100,4,2,1,50,0,0
36788,-100,4,2,1,60,0,0
37494,-100,4,2,1,70,0,0
38906,-100,4,2,1,70,0,1
43141,-100,4,2,1,50,0,1
43847,-100,4,2,1,60,0,1
44553,-100,4,2,1,70,0,1
50200,-100,4,2,1,60,0,0
50729,-100,4,2,1,40,0,0
55494,-100,4,2,1,50,0,0
55847,-100,4,2,1,60,0,0
58670,-100,4,2,1,40,0,0
59376,-100,4,2,1,50,0,0
60082,-100,4,2,1,60,0,0
61141,-100,4,2,1,40,0,0
61494,-100,4,2,1,50,0,0
62906,-100,4,2,1,40,0,0
63611,-100,4,2,1,50,0,0
64317,-100,4,2,1,70,0,0
86906,-100,4,2,1,50,0,0
88141,-100,4,2,1,60,0,0
89023,-100,4,2,1,70,0,0

[Colours]
Combo1 : 255,192,162
Combo2 : 255,255,125
Combo3 : 162,81,81

[HitObjects]
32,40,3612,6,0,P|64:120|48:216,1,180,4|4,0:0|0:0,0:0:0:0:
204,324,4847,2,0,P|172:244|188:148,1,180,4|4,0:0|0:3,0:0:0:0:
212,116,5553,1,4,0:0:0:0:
300,80,5906,2,0,L|420:96,1,120,4|4,0:3|0:3,0:0:0:0:
464,80,6435,6,0,P|448:144|460:204,1,120,4|2,0:0|0:1,0:0:0:0:
364,216,7141,2,0,P|380:280|368:340,1,120,2|2,0:1|0:1,0:0:0:0:
280,368,7847,1,4,0:0:0:0:
216,296,8200,1,2,0:1:0:0:
120,312,8553,1,2,0:1:0:0:
56,240,8906,1,8,0:0:0:0:
104,156,9259,6,0,L|228:164,1,120,4|2,0:0|0:1,0:0:0:0:
276,244,9964,2,0,L|400:236,1,120,2|2,0:1|0:1,0:0:0:0:
476,184,10670,2,0,P|488:120|472:68,1,120,2|2,0:1|0:1,0:0:0:0:
384,36,11376,1,2,0:1:0:0:
320,108,11729,1,2,0:1:0:0:
236,64,12082,6,0,L|116:80,1,120,4|2,0:0|0:1,0:0:0:0:
56,156,12788,1,2,0:1:0:0:
112,232,13141,1,2,0:1:0:0:
204,200,13494,2,0,P|264:192|324:204,2,120,4|0|2,0:1|0:0|0:0,0:0:0:0:
64,332,14906,5,4,0:0:0:0:
64,332,15611,2,0,B|180:364|180:364|240:352,1,180,4|4,0:0|0:0,0:0:0:0:
260,112,17023,2,0,B|200:116|200:116|140:140,1,120,4|4,0:0|0:3,0:0:0:0:
108,228,17729,5,4,0:0:0:0:
180,292,18082,1,2,0:1:0:0:
268,252,18435,2,0,L|388:268,1,120,2|2,0:1|0:1,0:0:0:0:
472,220,19141,2,0,B|484:284|484:284|464:340,2,120,4|2|2,0:0|0:1|0:1,0:0:0:0:
388,172,20200,2,0,L|396:108,1,60,8|8,0:0|0:0,0:0:0:0:
424,72,20553,5,4,0:0:0:0:
236,32,21259,2,0,B|264:152|264:152|248:208,1,180,8|4,0:0|0:0,0:0:0:0:
156,236,22141,2,0,L|36:216,1,120,8|2,0:0|0:1,0:0:0:0:
20,172,22670,2,0,L|40:352,1,180,8|10,0:0|0:0,0:0:0:0:
80,376,23376,5,4,0:0:0:0:
164,332,23729,1,8,0:0:0:0:
256,360,24082,2,0,P|312:360|348:312,1,120,2|8,0:1|0:0,0:0:0:0:
328,220,24788,6,0,L|304:100,2,120,4|4|4,0:0|0:0|0:0,0:0:0:0:
420,248,25847,2,0,L|436:308,1,60,8|2,0:0|0:1,0:0:0:0:
476,328,26200,6,0,P|508:244|484:156,1,180,4|2,0:0|0:1,0:0:0:0:
452,128,26906,2,0,L|332:148,1,120,8|4,0:0|0:3,0:0:0:0:
256,204,27611,1,4,0:0:0:0:
184,140,27964,1,0,0:0:0:0:
236,60,28317,2,0,L|296:68,2,60,8|8|8,0:0|0:0|0:0,0:0:0:0:
152,16,29023,6,0,P|64:28|28:108,1,180,4|2,0:0|0:1,0:0:0:0:
48,148,29729,2,0,L|24:272,1,120,8|4,0:0|0:3,0:0:0:0:
44,308,30259,1,4,0:0:0:0:
136,280,30611,1,4,0:0:0:0:
228,252,30964,1,4,0:0:0:0:
320,228,31317,2,0,L|312:288,1,60,8|2,0:0|0:1,0:0:0:0:
332,332,31670,6,0,P|412:356|472:288,1,180,4|8,0:0|0:0,0:0:0:0:
456,248,32376,1,2,0:1:0:0:
456,248,32553,2,0,L|472:128,1,120,2|8,0:1|0:0,0:0:0:0:
432,44,33259,1,4,0:0:0:0:
340,72,33611,2,0,L|280:60,1,60,8|2,0:0|0:1,0:0:0:0:
248,28,33964,2,0,P|260:88|252:152,1,120,2|8,0:1|0:0,0:0:0:0:
224,184,34494,1,2,0:1:0:0:
180,200,34670,5,4,0:0:0:0:
92,164,35023,1,2,0:1:0:0:
92,164,35200,2,0,L|76:288,1,120,8|4,0:3|0:3,0:0:0:0:
152,340,35906,2,0,P|208:316|268:316,1,120,4|2,0:0|0:1,0:0:0:0:
308,340,36435,2,0,L|320:280,1,60,8|0,0:0|0:0,0:0:0:0:
364,264,36788,2,0,L|352:204,1,60,2|2,0:1|0:1,0:0:0:0:
316,176,37141,2,0,L|328:116,1,60,8|2,0:0|0:1,0:0:0:0:
360,80,37494,5,12,0:0:0:0:
360,80,38906,6,0,P|300:92|240:84,1,120,4|8,0:0|0:0,0:0:0:0:
208,52,39435,2,0,L|192:176,1,120,4|2,0:0|0:1,0:0:0:0:
168,212,39964,1,8,0:0:0:0:
168,212,40141,2,0,P|228:224|276:260,1,120,4|2,0:0|0:1,0:0:0:0:
288,304,40670,1,8,0:0:0:0:
288,304,40847,1,4,0:0:0:0:
204,348,41200,2,0,L|136:344,2,60,2|8|2,0:1|0:0|0:1,0:0:0:0:
240,380,41729,6,0,L|364:372,1,120,4|8,0:0|0:0,0:0:0:0:
404,288,42435,2,0,L|280:280,1,120,2|8,0:1|0:0,0:0:0:0:
204,232,43141,2,0,P|196:200|196:172,1,60,2|8,0:1|0:0,0:0:0:0:
232,140,43494,2,0,P|240:108|240:80,1,60,8|0,0:0|0:0,0:0:0:0:
208,44,43847,2,0,L|148:52,2,60,2|8|8,0:1|0:0|0:0,0:0:0:0:
300,16,44553,6,0,L|420:36,1,120,4|8,0:0|0:0,0:0:0:0:
464,28,45082,2,0,P|440:88|448:144,1,120,4|2,0:0|0:1,0:0:0:0:
472,184,45611,1,8,0:0:0:0:
472,184,45788,2,0,P|412:160|356:168,1,120,4|8,0:0|0:3,0:0:0:0:
324,200,46317,1,8,0:0:0:0:
324,200,46494,1,4,0:0:0:0:
248,144,46847,2,0,L|256:84,2,60,8|8|0,0:0|0:0|0:0,0:0:0:0:
216,180,47376,6,0,L|232:300,1,120,4|8,0:0|0:0,0:0:0:0:
148,344,48082,2,0,L|132:225,1,120,2|8,0:1|0:0,0:0:0:0:
116,132,48788,2,0,P|52:120|-4:144,2,120,8|8|2,0:0|0:0|0:1,0:0:0:0:
212,112,49847,1,8,0:0:0:0:
288,172,50200,6,0,P|368:164|384:76,1,180,4|8,0:0|0:3,0:0:0:0:
304,24,51082,2,0,B|248:40|248:40|188:28,1,120,4|2,0:3|0:0,0:0:0:0:
140,24,51611,2,0,L|120:148,1,120,4|2,0:0|0:1,0:0:0:0:
72,140,52141,2,0,L|92:264,1,120,2|4,0:0|0:3,0:0:0:0:
80,304,52670,1,4,0:3:0:0:
140,380,53023,5,4,0:0:0:0:
228,340,53376,1,2,0:1:0:0:
228,340,53553,2,0,L|356:360,1,120,8|4,0:3|0:3,0:0:0:0:
392,340,54082,1,4,0:3:0:0:
488,328,54435,2,0,P|504:264|488:212,1,120,4|4,0:0|0:3,0:0:0:0:
452,184,54964,1,2,0:0:0:0:
452,184,55141,2,0,L|332:200,1,120,2|8,0:1|0:0,0:0:0:0:
252,252,55847,5,4,0:0:0:0:
172,200,56200,1,8,0:0:0:0:
172,200,56376,2,0,P|164:140|192:88,1,120,2|2,0:1|0:1,0:0:0:0:
236,72,56906,2,0,L|296:80,1,60,8|2,0:0|0:1,0:0:0:0:
324,116,57259,5,2,0:1:0:0:
416,88,57611,1,8,0:0:0:0:
416,88,57788,2,0,L|428:208,1,120,2|2,0:1|0:1,0:0:0:0:
468,236,58317,2,0,L|464:296,1,60,8|2,0:0|0:1,0:0:0:0:
460,344,58670,5,2,0:1:0:0:
368,320,59023,2,0,L|308:320,1,60,2|0,0:1|0:1,0:0:0:0:
273,285,59376,2,0,L|213:285,1,60,8|8,0:0|0:0,0:0:0:0:
178,250,59729,2,0,L|118:250,1,60,2|8,0:1|0:0,0:0:0:0:
83,215,60082,5,8,0:0:0:0:
83,215,60788,2,0,P|72:136|156:112,1,180,0|0,0:0|0:3,0:0:0:0:
256,192,61494,12,2,63611,0:0:0:0:
64,264,64317,6,0,L|48:140,1,120,4|8,0:0|0:0,0:0:0:0:
16,108,64847,1,0,0:0:0:0:
16,108,65023,2,0,B|72:128|72:128|132:124,1,120,2|8,0:1|0:0,0:0:0:0:
228,104,65729,1,2,0:1:0:0:
292,176,66082,2,0,L|280:236,1,60,8|0,0:0|0:0,0:0:0:0:
268,280,66435,2,0,P|324:260|384:260,1,120,2|8,0:1|0:0,0:0:0:0:
468,308,67141,5,2,0:1:0:0:
476,212,67494,1,8,0:0:0:0:
392,164,67847,1,2,0:1:0:0:
400,68,68200,1,8,0:0:0:0:
312,24,68553,2,0,L|252:36,1,60,2|0,0:1|0:0,0:0:0:0:
228,76,68906,2,0,L|168:64,1,60,8|0,0:0|0:0,0:0:0:0:
132,36,69259,2,0,P|104:92|108:152,1,120,2|8,0:1|0:0,0:0:0:0:
168,224,69964,6,0,L|288:208,1,120,4|8,0:0|0:0,0:0:0:0:
320,244,70494,1,0,0:0:0:0:
320,244,70670,1,2,0:1:0:0:
396,188,71023,1,8,0:0:0:0:
488,220,71376,2,0,P|504:284|492:336,1,120,2|8,0:1|0:0,0:0:0:0:
448,356,71906,2,0,L|324:344,1,120,0|0,0:0|0:0,0:0:0:0:
284,364,72435,1,8,0:0:0:0:
220,292,72788,5,2,0:1:0:0:
136,340,73141,1,8,0:0:0:0:
60,280,73494,1,2,0:1:0:0:
96,192,73847,1,8,0:0:0:0:
144,184,74023,1,0,0:0:0:0:
192,176,74200,2,0,L|312:196,1,120,2|8,0:1|0:0,0:0:0:0:
348,228,74729,1,0,0:0:0:0:
348,228,74906,2,0,B|344:160|344:160|372:112,1,120,8|8,0:0|0:0,0:0:0:0:
420,36,75611,5,4,0:0:0:0:
504,84,75964,1,8,0:0:0:0:
452,164,76317,2,0,L|440:224,1,60,8|2,0:0|0:1,0:0:0:0:
464,264,76670,2,0,L|452:328,1,60,8|2,0:0|0:1,0:0:0:0:
412,348,77023,2,0,B|360:320|360:320|300:320,1,120,8|8,0:0|0:0,0:0:0:0:
208,284,77729,2,0,L|148:284,2,60,8|2|8,0:0|0:1|0:0,0:0:0:0:
248,260,78259,1,2,0:1:0:0:
288,236,78435,6,0,L|308:116,1,120,4|8,0:0|0:0,0:0:0:0:
220,76,79141,2,0,L|200:194,1,120,8|8,0:0|0:0,0:0:0:0:
112,232,79847,1,8,0:0:0:0:
36,172,80200,1,8,0:0:0:0:
16,264,80553,2,0,L|24:324,1,60,8|2,0:0|0:1,0:0:0:0:
60,356,80906,2,0,L|120:348,1,60,8|2,0:0|0:1,0:0:0:0:
156,316,81259,6,0,P|216:300|276:300,1,120,4|8,0:0|0:0,0:0:0:0:
356,352,81964,2,0,P|388:352|416:344,1,60,8|2,0:0|0:1,0:0:0:0:
452,316,82317,2,0,P|452:284|440:256,1,60,8|2,0:0|0:1,0:0:0:0:
404,228,82670,1,8,0:0:0:0:
440,140,83023,1,8,0:0:0:0:
364,80,83376,2,0,L|304:88,1,60,8|2,0:0|0:1,0:0:0:0:
272,120,83729,2,0,L|280:180,1,60,8|2,0:0|0:1,0:0:0:0:
256,220,84082,5,4,0:0:0:0:
164,252,84435,1,8,0:0:0:0:
80,204,84788,2,0,B|68:144|68:144|88:88,1,120,8|8,0:0|0:0,0:0:0:0:
108,44,85317,1,2,0:1:0:0:
108,44,85494,2,0,L|228:24,1,120,4|2,0:0|0:1,0:0:0:0:
312,72,86200,2,0,L|320:132,1,60,2|2,0:1|0:1,0:0:0:0:
360,156,86553,2,0,L|352:216,1,60,8|2,0:0|0:1,0:0:0:0:
344,264,86906,5,8,0:0:0:0:
172,344,87611,1,8,0:0:0:0:
72,240,88141,2,0,B|192:240|192:240|240:200,1,180,4|8,0:0|0:0,0:0:0:0:
308,136,89023,5,12,0:0:0:0:
