osu file format v14

[General]
AudioFilename: audio.mp3
AudioLeadIn: 0
PreviewTime: 38906
Countdown: 0
SampleSet: Soft
StackLeniency: 0.7
Mode: 0
LetterboxInBreaks: 0
WidescreenStoryboard: 0

[Editor]
DistanceSpacing: 1.1
BeatDivisor: 4
GridSize: 4
TimelineZoom: 1.9

[Metadata]
Title:Youkoso JAPARI PARK e (TV size ver.)
TitleUnicode:ようこそジャパリパークへ(TVサイズver.)
Artist:Doubutsu Biscuits x PPP
ArtistUnicode:どうぶつビスケッツ×PPP
Creator:alacat
Version:Hard-!
Source:けものフレンズ
Tags:Oishi Masayoshi 大石昌良 オーイシマサヨシ iyasine opening KEMONO FRIENDS サーバル Serval Cat フェネック Fennec アライグマ common raccoon 尾崎由香 Yuka Ozaki 本宮佳奈 Kana Motomiya 小野早稀 Saki Ono ペパプ PENGUINS Performance Project. Royal Emperor Gentoo Rockhopper Humboldt penguin 佐々木未来 Mikoi Sasaki 根本流風 Nemoto Ruka 田村響華 Tamura Kyouka 相羽あいな Aina Aiba 築田行子 Chikuta Ikuko
BeatmapID:1210037
BeatmapSetID:570479

[Difficulty]
HPDrainRate:6
CircleSize:4
OverallDifficulty:6
ApproachRate:7
SliderMultiplier:1.5
SliderTickRate:1

[Events]
//Background and Video events
0,0,"BG.jpg",0,0
Video,325,"video.flv"
//Break Periods
//Storyboard Layer 0 (Background)
//Storyboard Layer 1 (Fail)
//Storyboard Layer 2 (Pass)
//Storyboard Layer 3 (Foreground)
//Storyboard Sound Samples

[TimingPoints]
3612,352.941176470588,4,2,1,60,1,0
9259,-100,4,2,1,50,0,0
11553,-100,4,2,1,30,0,0
12082,-100,4,2,1,50,0,0
13494,-100,4,2,1,40,0,0
14200,-100,4,2,1,50,0,0
14906,-100,4,2,1,60,0,0
15611,-100,4,2,1,50,0,0
16141,-100,4,2,1,40,0,0
17023,-100,4,2,1,50,0,0
17729,-100,4,2,1,60,0,0
24788,-100,4,2,1,40,0,0
25141,-100,4,2,1,50,0,0
25494,-100,4,2,1,60,0,0
25847,-100,4,2,1,50,0,0
26200,-133.333333333333,4,2,1,40,0,0
30259,-133.333333333333,4,2,1,30,0,0
30611,-133.333333333333,4,2,1,40,0,0
30964,-133.333333333333,4,2,1,50,0,0
31317,-133.333333333333,4,2,1,60,0,0
31670,-100,4,2,1,50,0,0
36788,-100,4,2,1,60,0,0
37494,-100,4,2,1,70,0,0
37847,-100,4,2,1,40,0,0
38906,-100,4,2,1,70,0,1
43141,-100,4,2,1,50,0,1
43847,-100,4,2,1,60,0,1
44553,-100,4,2,1,70,0,1
50200,-100,4,2,1,60,0,0
50729,-100,4,2,1,40,0,0
55494,-100,4,2,1,50,0,0
55847,-100,4,2,1,60,0,0
58670,-100,4,2,1,40,0,0
59376,-100,4,2,1,50,0,0
60082,-100,4,2,1,60,0,0
61141,-100,4,2,1,40,0,0
61494,-100,4,2,1,50,0,0
62906,-100,4,2,1,40,0,0
63611,-100,4,2,1,50,0,0
64317,-100,4,2,1,70,0,0
86906,-100,4,2,1,50,0,0
88141,-100,4,2,1,60,0,0
89023,-100,4,2,1,70,0,0

[Colours]
Combo1 : 255,192,162
Combo2 : 255,255,125
Combo3 : 162,81,81

[HitObjects]
384,344,3612,6,0,P|396:308|396:272,1,75,4|0,0:0|0:0,0:0:0:0:
344,208,3964,1,0,0:0:0:0:
264,232,4141,2,0,L|112:220,1,150,4|0,0:0|0:0,0:0:0:0:
60,284,4670,1,0,0:0:0:0:
12,136,4847,6,0,L|161:147,1,150,4|8,0:0|0:3,0:0:0:0:
240,120,5376,1,4,0:3:0:0:
176,68,5553,1,4,0:0:0:0:
176,68,5906,2,0,L|100:60,2,75,4|8|4,0:3|0:0|0:3,0:0:0:0:
256,204,6435,6,0,B|291:195|316:165|316:165|354:185|393:176,1,150,4|2,0:0|0:1,0:0:0:0:
256,204,7141,2,0,B|220:195|195:165|195:165|157:185|118:176,1,150,2|2,0:1|0:1,0:0:0:0:
340,264,7847,6,0,P|380:264|420:272,1,75,4|0,0:0|0:0,0:0:0:0:
376,344,8200,2,0,P|336:344|296:336,1,75,2|0,0:1|0:0,0:0:0:0:
172,264,8553,2,0,P|132:264|92:272,1,75,2|0,0:1|0:0,0:0:0:0:
136,344,8906,2,0,P|176:344|216:336,1,75,8|4,0:0|0:3,0:0:0:0:
256,268,9259,6,0,L|256:116,1,150,4|2,0:0|0:1,0:0:0:0:
196,60,9788,1,0,0:0:0:0:
124,96,9964,2,0,L|112:172,1,75,2|0,0:1|0:0,0:0:0:0:
48,224,10317,2,0,L|56:268,3,37.5,2|0|0|0,0:1|0:0|0:0|0:0,0:0:0:0:
88,284,10670,6,0,P|152:252|232:260,1,150,2|2,0:1|0:1,0:0:0:0:
292,312,11200,1,0,0:0:0:0:
368,284,11376,2,0,P|376:248|376:208,1,75,2|2,0:1|0:1,0:0:0:0:
436,156,11729,2,0,L|428:116,3,37.5,2|2|2|2,0:1|0:1|0:1|0:1,0:0:0:0:
396,92,12082,6,0,P|324:108|256:80,1,150,4|2,0:0|0:1,0:0:0:0:
208,12,12611,1,0,0:0:0:0:
208,12,12788,2,0,L|132:24,1,75,2|0,0:1|0:0,0:0:0:0:
76,80,13141,2,0,L|68:116,3,37.5,2|0|0|0,0:1|0:0|0:0|0:0,0:0:0:0:
60,156,13494,6,0,L|134:144,1,75,4|0,0:1|0:0,0:0:0:0:
204,192,13847,2,0,L|278:180,1,75,0|0,0:0|0:0,0:0:0:0:
352,216,14200,2,0,B|388:292|356:360|356:360|324:336|336:292,1,225,2|0,0:0|0:0,0:0:0:0:
436,204,14906,5,4,0:0:0:0:
436,204,15611,2,0,B|460:56|460:56|420:124,1,225,4|4,0:0|0:0,0:0:0:0:
228,300,17023,2,0,L|216:225,1,75,4|8,0:0|0:3,0:0:0:0:
296,244,17376,2,0,L|307:169,1,75,4|8,0:3|0:3,0:0:0:0:
280,92,17729,5,4,0:0:0:0:
200,68,17906,1,0,0:0:0:0:
124,104,18082,2,0,P|112:144|112:176,1,75,2|0,0:1|0:0,0:0:0:0:
76,252,18435,2,0,P|103:283|130:300,1,75,2|0,0:1|0:0,0:0:0:0:
208,328,18788,2,0,L|244:320,3,37.5,2|0|0|0,0:1|0:0|0:0|0:0,0:0:0:0:
276,292,19141,6,0,P|312:292|348:304,1,75,4|2,0:0|0:0,0:0:0:0:
404,244,19494,2,0,P|386:212|378:175,1,75,2|2,0:1|0:0,0:0:0:0:
296,156,19847,2,0,P|278:187|249:212,1,75,2|2,0:1|0:1,0:0:0:0:
168,228,20200,1,8,0:0:0:0:
168,228,20376,1,8,0:0:0:0:
124,156,20553,6,0,L|144:308,1,150,4|2,0:0|0:0,0:0:0:0:
68,340,21082,1,2,0:1:0:0:
68,340,21259,2,0,L|56:265,1,75,8|2,0:0|0:1,0:0:0:0:
36,104,21788,2,0,P|92:56|168:64,1,150,4|8,0:0|0:0,0:0:0:0:
228,116,22317,2,0,L|224:192,1,75,0|2,0:0|0:1,0:0:0:0:
292,236,22670,2,0,P|352:224|404:244,2,112.5,8|8|10,0:0|0:0|0:0,0:0:0:0:
260,312,23376,6,0,L|184:320,1,75,4|0,0:0|0:0,0:0:0:0:
108,352,23729,1,8,0:0:0:0:
56,288,23906,1,0,0:0:0:0:
108,224,24082,2,0,P|116:184|108:148,1,75,2|8,0:1|0:0,0:0:0:0:
52,92,24435,2,0,L|12:96,2,37.5,8|0|2,0:0|0:0|0:1,0:0:0:0:
96,24,24788,5,4,0:0:0:0:
257,55,25141,1,4,0:0:0:0:
419,86,25494,1,4,0:0:0:0:
419,86,25847,2,0,L|432:160,1,75,8|2,0:0|0:1,0:0:0:0:
384,224,26200,6,0,P|332:228|284:196,1,112.500004291535,4|0,0:0|0:0,0:0:0:0:
248,124,26729,1,2,0:1:0:0:
248,124,26906,2,0,L|192:128,2,56.2500021457673,8|4|4,0:0|0:3|0:3,0:0:0:0:
304,68,27435,1,0,0:0:0:0:
228,44,27611,6,0,L|112:52,1,112.500004291535,4|0,0:0|0:0,0:0:0:0:
40,24,28141,1,2,0:1:0:0:
40,24,28317,2,0,P|28:52|20:84,1,56.2500021457673,8|8,0:0|0:0,0:0:0:0:
36,156,28670,2,0,L|92:152,1,56.2500021457673,0|2,0:0|0:1,0:0:0:0:
160,192,29023,6,0,P|212:176|272:176,1,112.500004291535,4|0,0:0|0:0,0:0:0:0:
324,236,29553,1,2,0:1:0:0:
324,236,29729,2,0,L|320:292,2,56.2500021457673,8|8|4,0:0|0:3|0:3,0:0:0:0:
332,124,30259,5,4,0:0:0:0:
332,124,30611,1,4,0:0:0:0:
444,236,30964,1,4,0:0:0:0:
444,236,31317,2,0,L|500:228,1,56.2500021457673,8|2,0:0|0:1,0:0:0:0:
384,156,31670,6,0,P|344:224|360:292,1,150,4|2,0:0|0:1,0:0:0:0:
312,360,32200,1,8,0:0:0:0:
236,328,32376,1,2,0:1:0:0:
236,328,32553,2,0,L|88:348,1,150,2|8,0:1|0:0,0:0:0:0:
8,204,33259,6,0,L|156:224,1,150,4|8,0:0|0:0,0:0:0:0:
240,236,33788,1,2,0:1:0:0:
240,236,33964,2,0,P|312:208|384:208,1,150,2|8,0:1|0:0,0:0:0:0:
448,260,34494,1,2,0:1:0:0:
512,148,34670,6,0,P|437:147|368:119,1,150,4|2,0:0|0:1,0:0:0:0:
324,48,35200,2,0,L|248:68,1,75,8|2,0:3|0:1,0:0:0:0:
180,28,35553,2,0,L|128:88,1,75,4|0,0:3|0:0,0:0:0:0:
163,203,35906,6,0,P|227:191|200:132,1,150,4|2,0:0|0:1,0:0:0:0:
92,156,36435,1,8,0:0:0:0:
44,224,36611,1,0,0:0:0:0:
44,224,36700,1,0,0:0:0:0:
44,224,36788,2,0,L|56:300,1,75,2|2,0:1|0:1,0:0:0:0:
168,364,37141,2,0,L|179:289,1,75,8|2,0:0|0:1,0:0:0:0:
92,156,37494,5,12,0:0:0:0:
256,256,37847,5,0,0:0:0:0:
408,192,38200,1,0,0:0:0:0:
256,128,38553,1,2,0:0:0:0:
104,192,38906,6,0,L|116:268,1,75,4|2,0:0|0:1,0:0:0:0:
76,340,39259,1,8,0:0:0:0:
196,216,39435,2,0,P|272:228|328:276,1,150,4|2,0:0|0:1,0:0:0:0:
364,348,39964,1,8,0:0:0:0:
508,216,40141,6,0,L|356:192,1,150,4|2,0:0|0:1,0:0:0:0:
308,128,40670,1,8,0:0:0:0:
348,56,40847,1,4,0:0:0:0:
348,56,41200,1,2,0:1:0:0:
280,8,41376,1,8,0:0:0:0:
280,8,41464,1,8,0:0:0:0:
280,8,41553,1,2,0:1:0:0:
208,48,41729,6,0,P|200:88|200:124,1,75,4|0,0:0|0:0,0:0:0:0:
96,80,42082,2,0,P|104:120|104:156,1,75,8|0,0:0|0:0,0:0:0:0:
223,147,42435,2,0,P|215:184|215:222,1,75,2|0,0:1|0:0,0:0:0:0:
76,184,42788,2,0,P|84:224|84:260,1,75,8|0,0:0|0:0,0:0:0:0:
248,328,43141,5,2,0:1:0:0:
328,312,43317,1,8,0:0:0:0:
312,230,43494,1,8,0:0:0:0:
231,246,43670,1,0,0:0:0:0:
328,312,43847,2,0,P|364:308|404:308,1,75,2|8,0:1|0:0,0:0:0:0:
231,246,44200,2,0,P|195:250|155:250,1,75,8|0,0:0|0:0,0:0:0:0:
52,160,44553,6,0,L|126:171,1,75,4|2,0:0|0:1,0:0:0:0:
180,108,44906,1,8,0:0:0:0:
52,160,45082,2,0,P|32:232|48:304,1,150,4|2,0:0|0:1,0:0:0:0:
116,352,45611,1,8,0:0:0:0:
224,228,45788,6,0,B|340:244|340:244|308:260,1,150,4|8,0:0|0:3,0:0:0:0:
168,292,46317,1,8,0:0:0:0:
140,212,46494,1,4,0:0:0:0:
140,212,46847,2,0,L|64:220,2,75,8|8|0,0:0|0:0|0:0,0:0:0:0:
196,152,47376,6,0,P|198:114|186:79,1,75,4|0,0:0|0:0,0:0:0:0:
252,32,47729,2,0,L|328:40,1,75,8|0,0:0|0:0,0:0:0:0:
438,119,48082,2,0,L|364:112,1,75,2|0,0:1|0:0,0:0:0:0:
292,152,48435,2,0,P|280:192|284:227,1,75,8|0,0:0|0:0,0:0:0:0:
240,296,48788,6,0,L|165:288,1,75,8|2,0:0|0:1,0:0:0:0:
96,332,49141,1,8,0:0:0:0:
20,300,49317,1,2,0:1:0:0:
20,300,49494,2,0,L|0:188,1,112.5,2|8,0:1|0:0,0:0:0:0:
16,152,49847,2,0,P|72:148|128:160,1,112.5,8|0,0:0|0:0,0:0:0:0:
160,184,50200,5,4,0:0:0:0:
348,96,50729,2,0,P|272:84|208:116,1,150,8|4,0:3|0:3,0:0:0:0:
160,184,51259,1,4,0:3:0:0:
80,176,51435,5,2,0:0:0:0:
80,176,51523,1,2,0:0:0:0:
80,176,51611,2,0,L|100:324,1,150,4|2,0:0|0:1,0:0:0:0:
176,360,52141,1,2,0:0:0:0:
176,360,52229,1,2,0:0:0:0:
176,360,52317,2,0,P|216:360|252:368,1,75,2|4,0:1|0:3,0:0:0:0:
324,328,52670,1,4,0:3:0:0:
324,328,53023,6,0,B|296:252|348:252|324:180,1,150,4|2,0:0|0:1,0:0:0:0:
248,212,53553,2,0,P|180:212|156:144,1,150,8|4,0:3|0:3,0:0:0:0:
188,68,54082,1,4,0:3:0:0:
272,72,54259,5,2,0:0:0:0:
272,72,54347,1,2,0:0:0:0:
272,72,54435,2,0,B|380:56|380:56|416:80,1,150,4|4,0:0|0:3,0:0:0:0:
476,132,54964,1,2,0:0:0:0:
476,132,55053,1,2,0:0:0:0:
476,132,55141,2,0,L|464:208,1,75,2|2,0:1|0:1,0:0:0:0:
400,256,55494,2,0,L|412:332,1,75,8|8,0:0|0:0,0:0:0:0:
344,376,55847,5,4,0:0:0:0:
276,332,56023,1,2,0:1:0:0:
200,360,56200,1,8,0:0:0:0:
200,360,56376,2,0,P|128:332|52:344,1,150,2|2,0:1|0:1,0:0:0:0:
0,284,56906,2,0,L|12:208,1,75,8|2,0:0|0:1,0:0:0:0:
80,164,57259,5,2,0:1:0:0:
8,128,57435,1,2,0:1:0:0:
76,84,57611,1,8,0:0:0:0:
76,84,57788,2,0,L|224:108,1,150,2|2,0:1|0:1,0:0:0:0:
280,168,58317,2,0,L|356:156,1,75,8|2,0:0|0:1,0:0:0:0:
424,112,58670,6,0,P|452:184|432:252,1,150,2|2,0:1|0:1,0:0:0:0:
356,284,59200,1,0,0:1:0:0:
280,252,59376,2,0,L|204:264,1,75,8|8,0:0|0:0,0:0:0:0:
117,332,59729,2,0,L|192:344,1,75,2|8,0:1|0:0,0:0:0:0:
256,192,60082,12,4,61494,0:0:0:0:
96,112,62906,6,0,P|132:104|172:100,1,75,4|0,0:1|0:0,0:0:0:0:
240,56,63259,2,0,P|276:64|316:68,1,75,0|0,0:0|0:0,0:0:0:0:
384,28,63611,2,0,P|436:28|480:72,1,112.5,2|0,0:0|0:0,0:0:0:0:
488,108,63964,2,0,L|476:152,3,37.5,2|0|0|0,0:0|0:0|0:0|0:0,0:0:0:0:
468,184,64317,6,0,L|480:260,1,75,4|0,0:0|0:0,0:0:0:0:
396,260,64670,2,0,L|384:334,1,75,8|0,0:0|0:0,0:0:0:0:
308,364,65023,1,2,0:1:0:0:
240,316,65200,1,0,0:0:0:0:
156,312,65376,2,0,P|116:316|84:336,1,75,8|0,0:0|0:0,0:0:0:0:
24,280,65729,6,0,P|40:243|39:205,1,75,2|0,0:1|0:0,0:0:0:0:
116,180,66082,2,0,P|139:212|172:230,1,75,8|0,0:0|0:0,0:0:0:0:
252,232,66435,1,2,0:1:0:0:
312,176,66611,1,0,0:0:0:0:
288,96,66788,2,0,L|400:108,1,112.5,8|0,0:0|0:0,0:0:0:0:
424,76,67141,6,0,L|272:60,1,150,2|8,0:1|0:0,0:0:0:0:
172,188,67847,2,0,L|321:203,1,150,2|8,0:1|0:0,0:0:0:0:
372,360,68553,6,0,L|296:352,1,75,2|0,0:1|0:0,0:0:0:0:
240,296,68906,2,0,L|164:288,1,75,8|0,0:0|0:0,0:0:0:0:
116,224,69259,1,2,0:1:0:0:
48,272,69435,1,0,0:0:0:0:
96,336,69611,1,8,0:0:0:0:
100,340,69700,1,8,0:0:0:0:
104,344,69788,1,2,0:1:0:0:
116,224,69964,6,0,L|104:148,1,75,4|0,0:0|0:0,0:0:0:0:
180,116,70317,2,0,L|191:190,1,75,8|0,0:0|0:0,0:0:0:0:
260,236,70670,1,2,0:1:0:0:
260,236,70847,1,0,0:0:0:0:
340,216,71023,1,8,0:0:0:0:
340,216,71200,1,0,0:0:0:0:
240,316,71376,6,0,L|164:308,2,75,2|0|8,0:1|0:0|0:0,0:0:0:0:
308,364,71906,1,0,0:0:0:0:
388,344,72082,2,0,P|400:308|404:272,1,75,2|0,0:1|0:0,0:0:0:0:
476,228,72435,2,0,P|469:190|456:156,1,75,8|0,0:0|0:0,0:0:0:0:
400,92,72788,6,0,B|328:68|328:112|248:92,1,150,2|8,0:1|0:0,0:0:0:0:
88,68,73494,2,0,P|152:56|172:128,1,150,2|8,0:1|0:0,0:0:0:0:
132,196,74023,1,0,0:0:0:0:
52,176,74200,6,0,P|24:200|8:236,2,75,2|2|8,0:1|0:1|0:0,0:0:0:0:
132,196,74729,1,0,0:0:0:0:
276,144,74906,2,0,L|202:133,1,75,8|0,0:0|0:0,0:0:0:0:
202,253,75259,2,0,L|276:241,1,75,8|0,0:0|0:0,0:0:0:0:
364,160,75611,6,0,P|436:160|460:228,1,150,4|8,0:0|0:0,0:0:0:0:
436,304,76141,1,2,0:1:0:0:
364,344,76317,2,0,L|288:332,1,75,8|2,0:0|0:1,0:0:0:0:
436,304,76670,2,0,L|512:292,1,75,8|2,0:0|0:1,0:0:0:0:
376,240,77023,6,0,L|260:220,1,112.5,8|2,0:0|0:1,0:0:0:0:
236,192,77376,2,0,L|244:268,1,75,8|0,0:0|0:0,0:0:0:0:
192,348,77729,1,8,0:0:0:0:
192,348,77906,1,2,0:1:0:0:
112,324,78082,1,8,0:0:0:0:
112,324,78259,1,2,0:1:0:0:
32,300,78435,6,0,L|8:152,1,150,4|8,0:0|0:0,0:0:0:0:
56,84,78964,1,2,0:1:0:0:
56,84,79141,2,0,P|136:92|200:64,1,150,8|8,0:0|0:0,0:0:0:0:
260,8,79670,5,2,0:1:0:0:
260,8,79759,1,2,0:1:0:0:
260,8,79847,2,0,L|336:20,1,75,8|2,0:0|0:1,0:0:0:0:
372,92,80200,2,0,L|448:104,1,75,8|2,0:0|0:1,0:0:0:0:
508,160,80553,1,8,0:0:0:0:
432,188,80729,1,2,0:1:0:0:
432,188,80906,2,0,P|424:226|428:264,1,75,8|2,0:0|0:1,0:0:0:0:
372,324,81259,6,0,L|296:312,1,75,4|2,0:0|0:1,0:0:0:0:
244,252,81611,2,0,L|168:264,1,75,8|2,0:0|0:1,0:0:0:0:
104,316,81964,1,8,0:0:0:0:
104,316,82141,1,2,0:1:0:0:
32,276,82317,2,0,P|23:240|31:203,1,75,8|2,0:0|0:1,0:0:0:0:
84,140,82670,6,0,L|158:147,1,75,8|0,0:0|0:0,0:0:0:0:
224,100,83023,1,8,0:0:0:0:
300,132,83200,2,0,P|324:208|312:284,1,150,2|2,0:1|0:1,0:0:0:0:
248,328,83729,1,8,0:0:0:0:
232,248,83906,1,2,0:1:0:0:
328,360,84082,6,0,L|480:340,1,150,4|8,0:0|0:0,0:0:0:0:
508,176,84788,2,0,L|360:196,1,150,8|8,0:0|0:0,0:0:0:0:
276,204,85317,1,2,0:1:0:0:
204,168,85494,6,0,L|128:180,2,75,4|4|2,0:0|0:3|0:1,0:0:0:0:
276,204,86023,1,8,0:0:0:0:
220,64,86200,2,0,P|184:72|152:96,1,75,2|2,0:1|0:1,0:0:0:0:
296,112,86553,2,0,P|332:104|364:80,1,75,8|2,0:0|0:1,0:0:0:0:
412,16,86906,5,8,0:0:0:0:
256,308,87611,1,8,0:0:0:0:
44,180,88141,2,0,L|196:180,1,150,4|2,0:0|0:1,0:0:0:0:
255,100,88670,2,0,L|180:100,1,75,8|2,0:0|0:1,0:0:0:0:
164,20,89023,5,12,0:0:0:0:
