osu file format v14

[General]
AudioFilename: audio.mp3
AudioLeadIn: 0
PreviewTime: 38906
Countdown: 0
SampleSet: Soft
StackLeniency: 0.7
Mode: 2
LetterboxInBreaks: 0
WidescreenStoryboard: 1

[Editor]
DistanceSpacing: 0.8
BeatDivisor: 4
GridSize: 8
TimelineZoom: 2.4

[Metadata]
Title:Youkoso JAPARI PARK e (TV size ver.)
TitleUnicode:ようこそジャパリパークへ(TVサイズver.)
Artist:Doubutsu Biscuits x PPP
ArtistUnicode:どうぶつビスケッツ×PPP
Creator:Enchant
Version:Welcome to PP Park
Source:けものフレンズ
Tags:Oishi Masayoshi 大石昌良 オーイシマサヨシ iyasine opening KEMONO FRIENDS サーバル Serval Cat フェネック Fennec アライグマ common raccoon 尾崎由香 Yuka Ozaki 本宮佳奈 Kana Motomiya 小野早稀 Saki Ono ペパプ PENGUINS Performance Project. Royal Emperor Gentoo Rockhopper Humboldt penguin 佐々木未来 Mikoi Sasaki 根本流風 Nemoto Ruka 田村響華 Tamura Kyouka 相羽あいな Aina Aiba 築田行子 Chikuta Ikuko
BeatmapID:1283660
BeatmapSetID:607399

[Difficulty]
HPDrainRate:6
CircleSize:4.4
OverallDifficulty:9.4
ApproachRate:9.4
SliderMultiplier:1.92
SliderTickRate:2

[Events]
//Background and Video events
0,0,"thumb-1920-817021.jpg",0,0
//Break Periods
//Storyboard Layer 0 (Background)
//Storyboard Layer 1 (Fail)
//Storyboard Layer 2 (Pass)
//Storyboard Layer 3 (Foreground)
//Storyboard Sound Samples

[TimingPoints]
3612,352.941176470588,4,2,1,60,1,0
5906,-83.3333333333333,4,2,1,60,0,0
6259,-100,4,2,1,60,0,0
9259,-83.3333333333333,4,2,1,50,0,0
11553,-83.3333333333333,4,2,1,30,0,0
12082,-83.3333333333333,4,2,1,50,0,0
13494,-71.4285714285714,4,2,1,40,0,0
14200,-83.3333333333333,4,2,1,50,0,0
14906,-100,4,2,1,60,0,0
15611,-100,4,2,1,50,0,0
16141,-100,4,2,1,40,0,0
17023,-83.3333333333333,4,2,1,50,0,0
17729,-83.3333333333333,4,2,1,60,0,0
22670,-62.5,4,2,1,60,0,0
23200,-83.3333333333333,4,2,1,60,0,0
24788,-71.4285714285714,4,2,1,40,0,0
25141,-83.3333333333333,4,2,1,50,0,0
25494,-71.4285714285714,4,2,1,60,0,0
25847,-83.3333333333333,4,2,1,50,0,0
26200,-100,4,2,1,40,0,0
27435,-83.3333333333333,4,2,1,40,0,0
27964,-100,4,2,1,40,0,0
30259,-133.333333333333,4,2,1,30,0,0
30611,-100,4,2,1,40,0,0
30964,-100,4,2,1,50,0,0
31317,-100,4,2,1,60,0,0
31670,-100,4,2,1,50,0,0
36788,-100,4,2,1,60,0,0
37494,-100,4,2,1,70,0,0
37847,-100,4,2,1,40,0,0
38906,-83.3333333333333,4,2,1,70,0,1
43141,-100,4,2,1,50,0,1
43847,-100,4,2,1,60,0,1
44553,-100,4,2,1,70,0,1
50200,-100,4,2,1,60,0,0
50729,-100,4,2,1,40,0,0
55494,-100,4,2,1,50,0,0
55847,-100,4,2,1,60,0,0
58670,-100,4,2,1,40,0,0
59376,-100,4,2,1,50,0,0
60082,-100,4,2,1,60,0,0
61141,-100,4,2,1,40,0,0
61494,-100,4,2,1,50,0,0
62906,-83.3333333333333,4,2,1,40,0,0
63611,-83.3333333333333,4,2,1,50,0,0
64317,-83.3333333333333,4,2,1,70,0,1
69611,-83.3333333333333,4,2,1,70,0,0
69964,-83.3333333333333,4,2,1,70,0,1
72788,-83.3333333333333,4,2,1,70,0,0
75611,-83.3333333333333,4,2,1,70,0,1
86906,-100,4,2,1,50,0,0
88141,-100,4,2,1,60,0,0
89023,-100,4,2,1,70,0,0
89376,-100,4,2,1,20,0,0

[Colours]
Combo1 : 255,192,162
Combo2 : 255,255,125
Combo3 : 162,81,81

[HitObjects]
184,192,3612,5,4,0:0:0:0:
336,192,3788,1,0,0:0:0:0:
184,112,3964,1,0,0:0:0:0:
336,112,4141,2,0,P|392:152|336:240,1,192,4|0,0:0|0:0,0:0:0:0:
184,112,4670,1,0,0:0:0:0:
448,304,4847,6,0,L|224:304,1,192,4|8,0:0|0:3,0:0:0:0:
392,192,5376,1,4,0:3:0:0:
120,192,5553,1,4,0:0:0:0:
312,192,5906,2,0,L|192:192,2,115.199996484375,4|8|4,0:3|0:0|0:3,0:0:0:0:
496,40,6435,6,0,L|352:40,1,144,4|0,0:0|0:0,0:0:0:0:
200,48,6788,2,0,L|192:80,1,24,2|0,0:1|0:0,0:0:0:0:
16,40,7141,6,0,L|160:40,1,144,2|0,0:1|0:0,0:0:0:0:
312,48,7494,2,0,L|320:80,1,24,2|0,0:1|0:0,0:0:0:0:
112,192,7847,5,4,0:0:0:0:
256,304,8023,1,0,0:0:0:0:
400,192,8200,1,2,0:1:0:0:
256,192,8376,1,0,0:0:0:0:
16,64,8553,6,0,L|144:64,1,96,2|0,0:1|0:0,0:0:0:0:
352,64,8906,2,0,L|256:64,1,96,8|4,0:0|0:3,0:0:0:0:
24,192,9259,6,0,L|160:192,1,115.199996484375,4|0,0:0|0:0,0:0:0:0:
304,192,9523,2,0,L|376:192,1,57.5999982421876,0|2,0:0|0:1,0:0:0:0:
112,272,9788,2,0,L|176:272,1,57.5999982421876,0|0,0:0|0:0,0:0:0:0:
343,272,9964,1,2,0:1:0:0:
216,192,10141,5,0,0:0:0:0:
171,160,10229,1,0,0:0:0:0:
176,105,10317,1,2,0:1:0:0:
226,83,10405,1,0,0:0:0:0:
392,192,10494,2,0,L|480:192,1,57.5999982421876,0|0,0:0|0:0,0:0:0:0:
256,256,10670,6,0,L|112:256,1,115.199996484375,2|0,0:1|0:0,0:0:0:0:
440,40,11023,2,0,L|456:160,1,115.199996484375,2|0,0:1|0:0,0:0:0:0:
200,40,11376,1,2,0:1:0:0:
440,48,11553,5,2,0:1:0:0:
423,102,11641,1,2,0:1:0:0:
380,140,11729,1,2,0:1:0:0:
324,150,11817,1,2,0:1:0:0:
176,192,11906,2,0,L|112:192,1,57.5999982421876,2|0,0:1|0:0,0:0:0:0:
328,224,12082,6,0,L|456:224,1,115.199996484375,4|0,0:0|0:0,0:0:0:0:
184,224,12435,2,0,L|56:224,1,115.199996484375,2|0,0:1|0:0,0:0:0:0:
384,304,12788,1,2,0:1:0:0:
128,112,12964,5,0,0:0:0:0:
83,143,13052,1,0,0:0:0:0:
90,197,13140,1,2,0:1:0:0:
141,215,13228,1,0,0:0:0:0:
384,216,13317,2,0,L|464:216,1,57.5999982421876,0|0,0:0|0:0,0:0:0:0:
144,48,13494,6,0,P|96:64|208:288,1,403.199987695313,4|0,0:1|0:0,0:0:0:0:
456,192,14200,2,0,L|296:192,1,115.199996484375,4|0,0:0|0:0,0:0:0:0:
88,56,14553,5,2,0:0:0:0:
61,66,14597,1,0,0:0:0:0:
44,89,14641,1,0,0:0:0:0:
40,117,14685,1,0,0:0:0:0:
51,143,14729,1,2,0:0:0:0:
74,160,14773,1,0,0:0:0:0:
103,163,14817,1,0,0:0:0:0:
480,56,14906,5,4,0:0:0:0:
32,192,15611,1,4,0:0:0:0:
480,192,16141,1,4,0:0:0:0:
56,192,17023,6,0,L|176:192,1,115.199996484375,4|8,0:0|0:3,0:0:0:0:
224,232,17288,1,8,0:3:0:0:
171,192,17376,2,0,L|51:192,1,115.199996484375,4|8,0:3|0:3,0:0:0:0:
0,232,17641,1,8,0:3:0:0:
55,192,17729,2,0,L|199:192,1,115.199996484375,4|0,0:0|0:0,0:0:0:0:
408,192,18082,5,2,0:1:0:0:
256,192,18259,1,0,0:0:0:0:
104,192,18435,1,2,0:1:0:0:
376,24,18611,1,0,0:0:0:0:
407,69,18699,1,0,0:0:0:0:
389,121,18787,1,2,0:1:0:0:
336,136,18875,1,0,0:0:0:0:
176,112,18964,2,0,L|96:112,1,57.5999982421876,0|0,0:0|0:0,0:0:0:0:
368,288,19141,6,0,L|248:288,2,115.199996484375,4|2|2,0:0|0:0|0:1,0:0:0:0:
504,192,19670,1,2,0:0:0:0:
192,40,19847,2,0,L|176:160,2,115.199996484375,2|2|8,0:1|0:1|0:0,0:0:0:0:
368,40,20376,1,8,0:0:0:0:
88,56,20553,5,4,0:0:0:0:
26,148,20729,1,2,0:0:0:0:
67,250,20905,1,2,0:0:0:0:
175,274,21082,1,2,0:1:0:0:
320,192,21259,6,0,L|192:192,1,115.199996484375,8|2,0:0|0:1,0:0:0:0:
64,192,21611,1,0,0:0:0:0:
208,64,21788,2,0,P|280:88|192:168,1,230.39999296875,4|8,0:0|0:0,0:0:0:0:
64,112,22229,2,0,L|-16:112,1,57.5999982421876,8|0,0:0|0:0,0:0:0:0:
256,240,22494,2,0,L|328:240,1,57.5999982421876,2|0,0:0|0:0,0:0:0:0:
496,48,22670,2,0,P|400:72|344:200,2,230.4,8|8|10,0:0|0:0|0:0,0:0:0:0:
200,88,23376,6,0,L|328:88,1,115.199996484375,4|0,0:0|0:0,0:0:0:0:
32,48,23729,1,8,0:0:0:0:
49,102,23817,1,0,0:0:0:0:
92,140,23905,1,0,0:0:0:0:
148,150,23993,1,0,0:0:0:0:
312,192,24082,6,0,L|384:192,1,57.5999982421876,2|0,0:1|0:0,0:0:0:0:
200,192,24259,2,0,L|128:192,1,57.5999982421876,0|8,0:0|0:0,0:0:0:0:
480,48,24435,1,8,0:0:0:0:
463,102,24523,1,0,0:0:0:0:
420,140,24611,1,2,0:1:0:0:
364,150,24699,1,0,0:0:0:0:
112,56,24788,6,0,P|48:128|152:128,1,201.599993847656,4|0,0:0|0:0,0:0:0:0:
344,256,25141,2,0,L|144:256,1,172.799994726563,4|0,0:0|0:0,0:0:0:0:
400,56,25494,6,0,P|464:128|360:128,1,201.599993847656,4|0,0:0|0:0,0:0:0:0:
168,224,25847,2,0,L|368:224,1,172.799994726563,10|0,0:0|0:0,0:0:0:0:
136,192,26200,6,0,L|124:252,2,48,4|0|0,0:0|0:0|0:0,0:0:0:0:
304,272,26553,2,0,L|176:272,1,96,0|2,0:0|0:1,0:0:0:0:
376,192,26906,2,0,L|384:132,2,48,8|0|4,0:0|0:0|0:3,0:0:0:0:
144,192,27259,1,4,0:3:0:0:
296,272,27435,6,0,L|432:272,3,115.199996484375,0|4|0|0,0:0|0:0|0:0|0:0,0:0:0:0:
256,192,28141,2,0,L|152:192,1,96,2|0,0:1|0:0,0:0:0:0:
328,192,28494,2,0,L|336:240,2,48,8|8|0,0:0|0:0|0:0,0:0:0:0:
160,192,28847,1,2,0:1:0:0:
488,40,29023,6,0,P|456:96|336:128,1,192,4|0,0:0|0:0,0:0:0:0:
173,128,29553,1,2,0:1:0:0:
339,128,29729,2,0,L|467:128,2,96,8|8|4,0:0|0:3|0:3,0:0:0:0:
24,192,30259,5,4,0:0:0:0:
256,192,30611,1,4,0:0:0:0:
488,192,30964,1,4,0:0:0:0:
48,328,31317,6,0,L|32:228,1,96,8|0,0:0|0:0,0:0:0:0:
200,192,31670,2,0,P|240:240|136:304,1,192,4|2,0:0|0:1,0:0:0:0:
32,233,32200,1,8,0:0:0:0:
200,112,32376,1,2,0:1:0:0:
352,224,32553,2,0,L|120:224,1,192,2|8,0:1|0:0,0:0:0:0:
304,296,33082,1,0,0:0:0:0:
32,296,33259,5,4,0:0:0:0:
256,176,33611,2,0,L|152:176,1,96,8|2,0:0|0:1,0:0:0:0:
296,96,33964,2,0,P|368:112|432:240,1,192,2|8,0:1|0:0,0:0:0:0:
256,336,34494,1,2,0:1:0:0:
432,56,34670,2,0,P|472:88|416:208,1,192,4|2,0:0|0:1,0:0:0:0:
160,88,35200,6,0,L|272:88,1,96,8|2,0:3|0:1,0:0:0:0:
104,152,35553,2,0,L|88:256,1,96,4|0,0:3|0:0,0:0:0:0:
344,304,35906,2,0,L|144:304,1,192,4|2,0:0|0:1,0:0:0:0:
304,192,36435,1,8,0:0:0:0:
32,192,36611,2,0,L|24:120,2,48,0|0|2,0:0|0:0|0:1,0:0:0:0:
328,280,36964,5,2,0:1:0:0:
176,280,37141,1,8,0:0:0:0:
424,56,37317,1,2,0:1:0:0:
424,128,37494,1,12,0:0:0:0:
112,192,37847,5,0,0:0:0:0:
400,192,38200,1,0,0:0:0:0:
32,112,38494,2,0,L|24:140,2,16,0|0|0,0:0|0:0|0:0,0:0:0:0:
336,336,38906,5,4,0:0:0:0:
176,264,39082,1,2,0:1:0:0:
336,192,39259,1,8,0:0:0:0:
24,192,39435,2,0,L|256:192,1,230.39999296875,4|2,0:0|0:1,0:0:0:0:
120,248,39964,1,8,0:0:0:0:
376,80,40141,6,0,L|120:80,1,230.39999296875,4|2,0:0|0:1,0:0:0:0:
304,128,40670,1,8,0:0:0:0:
40,168,40847,1,4,0:0:0:0:
288,64,41200,1,2,0:1:0:0:
32,64,41376,2,0,L|16:128,2,57.5999982421876,0|8|2,0:0|0:0|0:1,0:0:0:0:
320,240,41729,6,0,L|160:240,1,115.199996484375,4|0,0:0|0:0,0:0:0:0:
448,80,42082,2,0,L|472:200,1,115.199996484375,8|0,0:0|0:0,0:0:0:0:
204,240,42435,2,0,L|364:240,1,115.199996484375,2|0,0:1|0:0,0:0:0:0:
76,80,42788,2,0,L|52:200,1,115.199996484375,8|0,0:0|0:0,0:0:0:0:
336,192,43141,5,2,0:1:0:0:
176,192,43318,1,8,0:0:0:0:
408,120,43494,1,8,0:0:0:0:
104,120,43671,1,0,0:0:0:0:
408,32,43847,5,2,0:1:0:0:
112,192,44023,1,8,0:0:0:0:
256,192,44200,1,8,0:0:0:0:
16,40,44376,1,0,0:0:0:0:
392,192,44553,5,4,0:0:0:0:
256,192,44729,1,2,0:1:0:0:
496,40,44906,1,8,0:0:0:0:
152,288,45082,2,0,L|360:288,1,192,4|2,0:0|0:1,0:0:0:0:
96,240,45611,1,8,0:0:0:0:
344,192,45788,6,0,L|144:192,1,192,4|8,0:0|0:3,0:0:0:0:
416,240,46317,1,8,0:0:0:0:
96,240,46494,1,4,0:0:0:0:
376,112,46847,5,8,0:0:0:0:
144,112,47023,1,8,0:0:0:0:
376,32,47200,1,0,0:0:0:0:
144,192,47376,6,0,P|64:216|48:296,1,144,4|0,0:0|0:0,0:0:0:0:
304,264,47729,2,0,L|208:264,1,96,8|0,0:0|0:0,0:0:0:0:
368,192,48082,2,0,P|448:216|464:296,1,144,2|0,0:1|0:0,0:0:0:0:
208,264,48435,2,0,L|304:264,1,96,8|0,0:0|0:0,0:0:0:0:
160,192,48788,5,8,0:0:0:0:
488,120,48964,1,2,0:1:0:0:
256,56,49141,2,0,L|192:56,2,48,8|8|2,0:0|0:0|0:1,0:0:0:0:
488,48,49494,1,2,0:1:0:0:
328,192,49670,5,8,0:0:0:0:
256,192,49759,1,0,0:0:0:0:
184,192,49847,1,8,0:0:0:0:
24,192,50023,1,0,0:0:0:0:
488,192,50200,5,4,0:0:0:0:
160,88,50729,2,0,L|368:88,1,192,8|4,0:3|0:3,0:0:0:0:
224,192,51259,1,4,0:3:0:0:
384,192,51435,5,2,0:0:0:0:
424,248,51523,1,0,0:0:0:0:
384,304,51611,2,0,L|160:304,1,192,4|2,0:0|0:1,0:0:0:0:
56,136,52141,5,2,0:0:0:0:
16,192,52229,1,0,0:0:0:0:
56,240,52317,2,0,L|224:240,2,144,2|0|0,0:1|0:0|0:0,0:0:0:0:
376,48,53023,6,0,L|400:152,1,96,4|0,0:0|0:0,0:0:0:0:
256,192,53376,1,2,0:1:0:0:
384,192,53553,2,0,P|400:248|296:320,1,192,8|4,0:3|0:3,0:0:0:0:
176,320,54082,1,4,0:3:0:0:
456,136,54259,5,2,0:0:0:0:
496,192,54347,1,0,0:0:0:0:
456,224,54435,2,0,L|248:224,1,192,4|4,0:0|0:3,0:0:0:0:
96,192,54964,5,2,0:0:0:0:
56,248,55052,1,2,0:0:0:0:
96,296,55141,2,0,L|200:296,1,96,2|0,0:1|0:0,0:0:0:0:
344,192,55494,1,8,0:0:0:0:
192,192,55670,1,0,0:0:0:0:
424,32,55847,6,0,L|392:136,1,96,4|2,0:0|0:1,0:0:0:0:
256,128,56200,1,8,0:0:0:0:
424,224,56376,2,0,P|448:272|352:352,1,192,2|2,0:1|0:1,0:0:0:0:
184,240,56906,6,0,L|296:240,1,96,8|2,0:0|0:1,0:0:0:0:
88,32,57259,2,0,L|120:136,1,96,0|2,0:0|0:1,0:0:0:0:
256,128,57612,1,8,0:0:0:0:
88,224,57788,2,0,P|64:272|160:352,1,192,2|0,0:1|0:0,0:0:0:0:
328,240,58317,2,0,L|216:240,1,96,8|2,0:0|0:1,0:0:0:0:
40,144,58670,5,2,0:1:0:0:
176,192,58847,1,0,0:0:0:0:
336,192,59023,1,2,0:1:0:0:
472,144,59200,1,0,0:1:0:0:
176,120,59376,5,8,0:0:0:0:
336,120,59553,1,8,0:0:0:0:
336,192,59729,1,2,0:1:0:0:
176,192,59906,1,8,0:0:0:0:
336,48,60082,6,0,P|384:80|256:304,1,384,8|0,0:0|0:0,0:0:0:0:
48,48,61141,6,0,P|24:96|64:184,1,144
128,192,61494,1,4,0:0:0:0:
256,192,61670,1,4,0:0:0:0:
496,192,61847,2,0,L|400:192,1,96,2|0,0:1|0:0,0:0:0:0:
256,128,62200,1,2,0:1:0:0:
416,80,62376,5,0,0:0:0:0:
438,121,62464,1,0,0:0:0:0:
438,169,62552,1,2,0:1:0:0:
416,211,62640,1,0,0:0:0:0:
377,238,62728,1,0,0:0:0:0:
330,243,62817,1,0,0:0:0:0:
120,40,62906,6,0,P|64:72|176:256,1,345.599989453125,4|0,0:1|0:0,0:0:0:0:
328,120,63611,2,0,L|184:224,1,172.799994726563,4|0,0:0|0:0,0:0:0:0:
424,328,63964,5,2,0:0:0:0:
451,318,64008,1,0,0:0:0:0:
468,295,64052,1,0,0:0:0:0:
472,267,64096,1,0,0:0:0:0:
461,241,64140,1,0,0:0:0:0:
438,224,64184,1,0,0:0:0:0:
409,221,64228,1,0,0:0:0:0:
256,48,64317,5,4,0:0:0:0:
392,48,64494,1,0,0:0:0:0:
136,120,64670,1,8,0:0:0:0:
392,128,64847,1,0,0:0:0:0:
136,192,65023,2,0,L|264:192,1,115.199996484375,2|0,0:1|0:0,0:0:0:0:
392,192,65376,1,8,0:0:0:0:
24,192,65553,1,0,0:0:0:0:
256,48,65729,5,2,0:1:0:0:
120,48,65906,1,0,0:0:0:0:
376,120,66082,1,8,0:0:0:0:
120,128,66259,1,0,0:0:0:0:
376,192,66435,2,0,L|248:192,1,115.199996484375,0|0,0:0|0:0,0:0:0:0:
120,192,66788,1,8,0:0:0:0:
488,192,66965,1,0,0:0:0:0:
256,96,67141,6,0,L|232:216,1,115.199996484375,2|0,0:1|0:0,0:0:0:0:
488,96,67494,1,8,0:0:0:0:
200,96,67670,6,0,L|224:216,1,115.199996484375,0|2,0:0|0:1,0:0:0:0:
488,24,68023,1,0,0:0:0:0:
144,96,68200,6,0,L|192:208,1,115.199996484375,8|0,0:0|0:0,0:0:0:0:
488,112,68553,5,2,0:1:0:0:
184,88,68729,1,0,0:0:0:0:
328,88,68906,1,8,0:0:0:0:
24,112,69082,1,0,0:0:0:0:
328,192,69259,1,0,0:0:0:0:
184,192,69436,1,0,0:0:0:0:
488,80,69611,1,8,0:0:0:0:
432,80,69700,1,8,0:0:0:0:
376,80,69788,1,2,0:1:0:0:
24,192,69964,5,4,0:0:0:0:
256,192,70141,1,0,0:0:0:0:
488,192,70317,1,8,0:0:0:0:
184,104,70494,1,0,0:0:0:0:
328,104,70670,2,0,L|352:224,1,115.199996484375,2|0,0:1|0:0,0:0:0:0:
72,256,71023,2,0,L|224:256,1,115.199996484375,8|0,0:0|0:0,0:0:0:0:
488,192,71376,5,2,0:1:0:0:
256,192,71553,1,0,0:0:0:0:
24,192,71729,1,8,0:0:0:0:
328,104,71906,1,0,0:0:0:0:
184,104,72082,2,0,L|160:224,1,115.199996484375,2|0,0:1|0:0,0:0:0:0:
472,192,72435,1,8,0:0:0:0:
168,104,72788,6,0,L|144:232,1,115.199996484375,2|0,0:1|0:0,0:0:0:0:
344,104,73141,2,0,L|368:232,1,115.199996484375,8|0,0:0|0:0,0:0:0:0:
24,280,73494,2,0,L|264:280,1,230.39999296875,2|8,0:1|0:0,0:0:0:0:
112,240,74023,1,0,0:0:0:0:
368,80,74200,6,0,L|344:208,1,115.199996484375,2|2,0:1|0:1,0:0:0:0:
176,192,74553,1,8,0:0:0:0:
432,192,74729,2,0,L|496:192,1,57.5999982421876,0|0,0:0|0:0,0:0:0:0:
256,280,74906,2,0,L|192:280,1,57.5999982421876,8|0,0:0|0:0,0:0:0:0:
432,120,75082,2,0,L|496:120,1,57.5999982421876,0|0,0:0|0:0,0:0:0:0:
200,80,75259,2,0,L|328:80,1,115.199996484375,8|0,0:0|0:0,0:0:0:0:
24,192,75611,5,4,0:0:0:0:
256,272,75788,1,2,0:1:0:0:
24,320,75964,1,8,0:0:0:0:
256,192,76141,1,2,0:1:0:0:
24,88,76317,2,0,L|168:88,1,115.199996484375,8|2,0:0|0:1,0:0:0:0:
373,88,76670,1,8,0:0:0:0:
139,88,76847,1,2,0:1:0:0:
488,192,77023,5,8,0:0:0:0:
256,272,77200,1,2,0:1:0:0:
488,320,77376,1,8,0:0:0:0:
256,192,77553,1,0,0:0:0:0:
488,88,77729,2,0,L|344:88,1,115.199996484375,8|2,0:0|0:1,0:0:0:0:
139,88,78082,1,8,0:0:0:0:
373,88,78259,1,2,0:1:0:0:
136,192,78435,6,0,L|-8:192,1,115.199996484375,4|2,0:0|0:1,0:0:0:0:
376,192,78788,2,0,L|520:192,1,115.199996484375,8|2,0:0|0:1,0:0:0:0:
56,280,79141,2,0,L|208:280,1,115.199996484375,8|2,0:0|0:1,0:0:0:0:
344,280,79494,1,8,0:0:0:0:
24,80,79670,1,2,0:1:0:0:
80,80,79759,1,2,0:1:0:0:
136,80,79847,1,8,0:0:0:0:
408,192,80023,5,2,0:1:0:0:
256,224,80200,1,8,0:0:0:0:
104,192,80376,1,2,0:1:0:0:
408,96,80553,1,8,0:0:0:0:
104,96,80729,1,2,0:1:0:0:
256,160,80906,1,8,0:0:0:0:
16,192,81082,1,2,0:1:0:0:
371,248,81259,6,0,L|227:248,1,115.199996484375,4|2,0:0|0:1,0:0:0:0:
496,192,81611,1,8,0:0:0:0:
256,248,81788,1,2,0:1:0:0:
24,64,81964,2,0,L|192:64,2,115.199996484375,8|2|8,0:0|0:1|0:0,0:0:0:0:
372,64,82494,1,2,0:1:0:0:
141,248,82670,6,0,L|285:248,1,115.199996484375,8|0,0:0|0:0,0:0:0:0:
16,192,83022,1,8,0:0:0:0:
256,248,83199,1,2,0:1:0:0:
488,64,83375,2,0,L|320:64,2,115.199996484375,0|2|0,0:0|0:1|0:0,0:0:0:0:
139,64,83905,1,2,0:1:0:0:
288,120,84082,6,0,P|344:176|232:256,1,230.39999296875,4|8,0:0|0:0,0:0:0:0:
72,192,84611,1,2,0:1:0:0:
320,56,84788,2,0,L|176:56,1,115.199996484375,8|2,0:0|0:1,0:0:0:0:
384,192,85141,2,0,L|408:320,1,115.199996484375,8|2,0:0|0:1,0:0:0:0:
128,192,85494,2,0,L|106:305,1,115.199996484375,4|4,0:0|0:3,0:0:0:0:
304,192,85847,2,0,L|312:256,2,57.5999982421876,2|0|0,0:1|0:0|0:0,0:0:0:0:
72,48,86200,6,0,L|8:48,1,57.5999982421876,2|0,0:1|0:1,0:1:0:0:
200,96,86376,2,0,L|264:96,1,57.5999982421876,2|2,0:1|0:1,0:1:0:0:
72,136,86553,2,0,L|0:136,1,57.5999982421876,8|0,0:0|0:0,0:0:0:0:
312,192,86729,1,8,0:0:0:0:
160,280,86906,6,0,L|368:280,1,192,8|0,0:0|0:0,0:0:0:0:
80,72,87611,2,0,P|40:120|136:184,1,192,8|0,0:0|0:0,0:0:0:0:
432,72,88141,2,0,P|472:120|376:184,1,192,4|2,0:0|0:1,0:0:0:0:
256,128,88670,1,8,0:0:0:0:
488,256,88847,1,0,0:0:0:0:
104,56,89023,6,0,P|48:80|96:200,1,192,12|0,0:0|0:0,0:0:0:0:
