osu file format v14

[General]
AudioFilename: audio.mp3
AudioLeadIn: 0
PreviewTime: 37660
Countdown: 0
SampleSet: Soft
StackLeniency: 0.7
Mode: 2
LetterboxInBreaks: 0
WidescreenStoryboard: 1

[Editor]
Bookmarks: 23729,43317
DistanceSpacing: 2
BeatDivisor: 4
GridSize: 16
TimelineZoom: 4.099998

[Metadata]
Title:Youkoso JAPARI PARK e (TV size ver.)
TitleUnicode:ようこそジャパリパークへ(TVサイズver.)
Artist:Doubutsu Biscuits x PPP
ArtistUnicode:どうぶつビスケッツ×PPP
Creator:Enchant
Version:Salad
Source:けものフレンズ
Tags:Oishi Masayoshi 大石昌良 オーイシマサヨシ iyasine opening KEMONO FRIENDS サーバル Serval Cat フェネック Fennec アライグマ common raccoon 尾崎由香 Yuka Ozaki 本宮佳奈 Kana Motomiya 小野早稀 Saki Ono ペパプ PENGUINS Performance Project. Royal Emperor Gentoo Rockhopper Humboldt penguin 佐々木未来 Mikoi Sasaki 根本流風 Nemoto Ruka 田村響華 Tamura Kyouka 相羽あいな Aina Aiba 築田行子 Chikuta Ikuko
BeatmapID:1283659
BeatmapSetID:607399

[Difficulty]
HPDrainRate:3
CircleSize:4
OverallDifficulty:4
ApproachRate:4
SliderMultiplier:1.7
SliderTickRate:2

[Events]
//Background and Video events
0,0,"inwork.png",0,0
//Break Periods
//Storyboard Layer 0 (Background)
//Storyboard Layer 1 (Fail)
//Storyboard Layer 2 (Pass)
//Storyboard Layer 3 (Foreground)
//Storyboard Sound Samples

[TimingPoints]
3612,352.941176470588,4,2,1,60,1,0
9259,-100,4,2,1,50,0,0
11553,-100,4,2,1,30,0,0
12082,-100,4,2,1,50,0,0
13494,-100,4,2,1,40,0,0
14200,-76.9230769230769,4,2,1,50,0,0
14906,-100,4,2,1,60,0,0
15611,-100,4,2,1,50,0,0
16141,-100,4,2,1,40,0,0
17023,-100,4,2,1,50,0,0
17729,-100,4,2,1,60,0,0
24788,-100,4,2,1,40,0,0
25141,-83.3333333333333,4,2,1,50,0,0
25494,-71.4285714285714,4,2,1,60,0,0
25847,-100,4,2,1,50,0,0
26200,-133.333333333333,4,2,1,40,0,0
30259,-133.333333333333,4,2,1,30,0,0
30611,-133.333333333333,4,2,1,40,0,0
30964,-133.333333333333,4,2,1,50,0,0
31317,-133.333333333333,4,2,1,60,0,0
31670,-100,4,2,1,50,0,0
36788,-100,4,2,1,60,0,0
37494,-100,4,2,1,70,0,0
37847,-100,4,2,1,40,0,0
38906,-100,4,2,1,70,0,1
43141,-100,4,2,1,50,0,1
43847,-100,4,2,1,60,0,1
44553,-100,4,2,1,70,0,1
50200,-133.333333333333,4,2,1,60,0,0
50729,-133.333333333333,4,2,1,40,0,0
55494,-133.333333333333,4,2,1,50,0,0
55847,-100,4,2,1,60,0,0
58670,-100,4,2,1,40,0,0
59376,-100,4,2,1,50,0,0
60082,-133.333333333333,4,2,1,60,0,0
61141,-100,4,2,1,40,0,0
61494,-100,4,2,1,50,0,0
62906,-100,4,2,1,40,0,0
63611,-76.9230769230769,4,2,1,50,0,0
64317,-100,4,2,1,70,0,0
86906,-133.333333333333,4,2,1,50,0,0
88141,-100,4,2,1,60,0,0
89023,-100,4,2,1,70,0,0
89376,-100,4,2,1,20,0,0

[HitObjects]
240,208,3612,6,0,P|144:144|208:128,1,255
256,192,4494,5,0,0:0:0:0:
176,192,4670,1,0,0:0:0:0:
256,192,4847,2,0,L|336:112,1,85
320,192,5200,1,0,0:0:0:0:
256,192,5376,1,0,0:0:0:0:
352,192,5553,1,0,0:0:0:0:
208,192,5906,6,0,L|96:64,1,170
256,192,6435,1,0,0:0:0:0:
400,192,6788,1,0,0:0:0:0:
176,192,7141,1,0,0:0:0:0:
336,192,7494,1,0,0:0:0:0:
96,192,7847,1,0,0:0:0:0:
160,208,8200,2,0,L|240:112,1,85
256,240,8553,2,0,L|320:160,1,85
368,256,8906,2,0,L|480:112,1,170
368,208,9611,6,0,L|256:208,2,85
112,208,10317,2,0,L|224:208,2,85
283,208,11023,2,0,L|379:208,2,85
224,208,11553,2,0,B|160:208|160:208|64:128,1,170
48,192,12082,1,0,0:0:0:0:
224,192,12259,2,0,L|320:192,2,85
208,192,12964,2,0,L|96:192,2,85
256,192,13494,6,0,P|160:144|272:96,1,255
208,192,14200,2,0,P|336:176|224:64,1,331.499984825135
352,192,14906,6,0,P|272:128|224:128,1,85
208,192,15259,1,0,0:0:0:0:
288,192,15435,1,0,0:0:0:0:
288,192,15611,2,0,L|128:80,1,170
160,208,16141,2,0,L|320:112,1,170
320,208,16670,1,0,0:0:0:0:
320,208,16847,1,0,0:0:0:0:
320,208,17023,2,0,L|224:128,1,85
320,208,17376,2,0,L|240:144,1,85
224,208,17729,1,0,0:0:0:0:
288,208,17817,1,0,0:0:0:0:
224,208,17994,2,0,B|448:48|256:192,1,255
240,192,19141,5,0,0:0:0:0:
160,192,19229,1,0,0:0:0:0:
224,208,19406,2,0,B|288:192|320:176|336:160|336:144|288:160|256:160|224:160|208:144|192:128|208:112|208:96|192:96|192:80|208:80|240:96|256:96|272:96|288:96|320:96|320:32,1,382.5
128,192,20553,5,0,0:0:0:0:
208,192,20641,2,0,B|272:176|288:160|240:112,1,127.5
208,192,20994,1,0,0:0:0:0:
288,192,21170,2,0,L|304:0,1,170
224,192,21700,2,0,L|208:64,1,127.5
288,192,22053,2,0,L|336:192,2,42.5
192,192,22406,2,0,L|128:192,2,42.5
288,176,22670,2,0,L|208:32,1,127.5
256,208,23023,2,0,L|224:160,1,42.5
256,192,23288,1,0,0:0:0:0:
320,208,23376,2,0,L|416:112,1,127.5
288,208,23729,2,0,P|160:192|304:176,1,425
384,192,24788,6,0,L|432:160,1,42.5
272,192,25141,2,0,L|224:160,1,50.9999984436036
384,192,25494,2,0,L|512:64,1,178.499994552612
80,224,26200,5,0,0:0:0:0:
144,224,26288,1,0,0:0:0:0:
208,224,26376,1,0,0:0:0:0:
272,224,26464,1,0,0:0:0:0:
336,224,26553,2,0,L|416:192,1,63.7500024318696
416,224,26817,1,0,0:0:0:0:
368,224,26906,2,0,L|272:160,1,95.6250036478044
240,208,27259,1,0,0:0:0:0:
368,176,27435,5,0,0:0:0:0:
288,176,27523,2,0,L|224:96,1,95.6250036478044
192,176,27876,1,0,0:0:0:0:
160,208,27964,2,0,L|96:144,1,63.7500024318696
320,208,28317,1,0,0:0:0:0:
352,192,28406,1,0,0:0:0:0:
384,192,28582,2,0,L|320:128,1,63.7500024318696
192,208,29023,6,0,L|272:112,1,95.6250036478044
304,208,29376,2,0,L|256:112,1,95.6250036478044
352,224,29729,2,0,L|272:96,1,127.500004863739
192,192,30259,1,0,0:0:0:0:
336,192,30611,1,0,0:0:0:0:
192,192,30964,1,0,0:0:0:0:
336,192,31317,1,0,0:0:0:0:
192,192,31494,1,0,0:0:0:0:
192,192,31670,6,0,B|288:192|336:192|336:176|336:160|336:144|336:112|336:80|336:48,1,255
336,192,32376,1,0,0:0:0:0:
336,192,32464,2,0,L|208:192,1,127.5
336,192,33259,2,0,P|432:192|432:144,1,127.5
144,192,33700,2,0,P|240:192|240:144,1,127.5
288,192,34317,1,0,0:0:0:0:
368,192,34406,2,0,L|320:144,1,42.5
