osu file format v14

[General]
AudioFilename: audio.mp3
AudioLeadIn: 0
PreviewTime: 37660
Countdown: 0
SampleSet: Soft
StackLeniency: 0.7
Mode: 2
LetterboxInBreaks: 0
WidescreenStoryboard: 1

[Editor]
Bookmarks: 23729,43317
DistanceSpacing: 2
BeatDivisor: 4
GridSize: 16
TimelineZoom: 4.099998

[Metadata]
Title:Youkoso JAPARI PARK e (TV size ver.)
TitleUnicode:ようこそジャパリパークへ(TVサイズver.)
Artist:Doubutsu Biscuits x PPP
ArtistUnicode:どうぶつビスケッツ×PPP
Creator:Enchant
Version:Rain
Source:けものフレンズ
Tags:Oishi Masayoshi 大石昌良 オーイシマサヨシ iyasine opening KEMONO FRIENDS サーバル Serval Cat フェネック Fennec アライグマ common raccoon 尾崎由香 Yuka Ozaki 本宮佳奈 Kana Motomiya 小野早稀 Saki Ono ペパプ PENGUINS Performance Project. Royal Emperor Gentoo Rockhopper Humboldt penguin 佐々木未来 Mikoi Sasaki 根本流風 Nemoto Ruka 田村響華 Tamura Kyouka 相羽あいな Aina Aiba 築田行子 Chikuta Ikuko
BeatmapID:1282930
BeatmapSetID:607399

[Difficulty]
HPDrainRate:6
CircleSize:4.2
OverallDifficulty:9.2
ApproachRate:9.2
SliderMultiplier:1.7
SliderTickRate:2

[Events]
//Background and Video events
0,0,"thumb-1920-817021.jpg",0,0
//Break Periods
//Storyboard Layer 0 (Background)
//Storyboard Layer 1 (Fail)
//Storyboard Layer 2 (Pass)
//Storyboard Layer 3 (Foreground)
//Storyboard Sound Samples

[TimingPoints]
3612,352.941176470588,4,2,1,60,1,0
9259,-100,4,2,1,50,0,0
11553,-100,4,2,1,30,0,0
12082,-100,4,2,1,50,0,0
13494,-100,4,2,1,40,0,0
14200,-76.9230769230769,4,2,1,50,0,0
14906,-100,4,2,1,60,0,0
15611,-100,4,2,1,50,0,0
16141,-100,4,2,1,40,0,0
17023,-100,4,2,1,50,0,0
17729,-100,4,2,1,60,0,0
24788,-100,4,2,1,40,0,0
25141,-83.3333333333333,4,2,1,50,0,0
25494,-71.4285714285714,4,2,1,60,0,0
25847,-100,4,2,1,50,0,0
26200,-133.333333333333,4,2,1,40,0,0
30259,-133.333333333333,4,2,1,30,0,0
30611,-133.333333333333,4,2,1,40,0,0
30964,-133.333333333333,4,2,1,50,0,0
31317,-133.333333333333,4,2,1,60,0,0
31670,-100,4,2,1,50,0,0
36788,-100,4,2,1,60,0,0
37494,-100,4,2,1,70,0,0
37847,-100,4,2,1,40,0,0
38906,-100,4,2,1,70,0,1
43141,-100,4,2,1,50,0,1
43847,-100,4,2,1,60,0,1
44553,-100,4,2,1,70,0,1
50200,-133.333333333333,4,2,1,60,0,0
50729,-133.333333333333,4,2,1,40,0,0
55494,-133.333333333333,4,2,1,50,0,0
55847,-100,4,2,1,60,0,0
58670,-100,4,2,1,40,0,0
59376,-100,4,2,1,50,0,0
60082,-133.333333333333,4,2,1,60,0,0
61141,-100,4,2,1,40,0,0
61494,-100,4,2,1,50,0,0
62906,-100,4,2,1,40,0,0
63611,-76.9230769230769,4,2,1,50,0,0
64317,-100,4,2,1,70,0,0
86906,-133.333333333333,4,2,1,50,0,0
88141,-100,4,2,1,60,0,0
89023,-100,4,2,1,70,0,0
89376,-100,4,2,1,20,0,0

[HitObjects]
240,208,3612,5,4,0:0:0:0:
80,208,3788,5,0,0:0:0:0:
240,208,3964,1,0,0:0:0:0:
80,208,4141,2,0,P|32:144|96:80,1,170,4|0,0:0|0:0,0:0:0:0:
160,80,4670,1,0,0:0:0:0:
432,80,4847,2,0,P|480:142|432:205,1,170,4|8,0:0|0:3,0:0:0:0:
224,96,5376,1,4,0:3:0:0:
96,96,5553,2,0,L|48:96,2,42.5,4|0|0,0:0|0:0|0:0,0:0:0:0:
288,96,5906,2,0,L|384:96,2,85,4|8|4,0:3|0:0|0:3,0:0:0:0:
96,96,6435,1,4,0:0:0:0:
368,96,6788,5,2,0:1:0:0:
112,224,7141,2,0,P|64:144|112:96,1,170,2|2,0:1|0:1,0:0:0:0:
320,224,7670,2,0,L|384:224,1,42.5,0|0,0:0|0:0,0:0:0:0:
416,224,7847,2,0,L|512:224,2,85,4|0|2,0:0|0:0|0:1,0:0:0:0:
256,224,8376,1,0,0:0:0:0:
80,224,8553,1,2,0:1:0:0:
324,243,8729,5,0,0:0:0:0:
390,175,8817,1,0,0:0:0:0:
208,80,8906,2,0,L|160:80,1,42.5,8|8,0:0|0:0,0:0:0:0:
384,80,9082,2,0,L|432:80,1,42.5,4|0,0:3|0:0,0:0:0:0:
272,224,9259,6,0,L|208:128,1,85,4|0,0:0|0:0,0:0:0:0:
128,112,9611,5,2,0:1:0:0:
64,48,9700,1,0,0:0:0:0:
128,0,9788,1,0,0:0:0:0:
368,112,9964,1,2,0:1:0:0:
160,112,10141,2,0,L|80:112,2,42.5,0|0|2,0:0|0:0|0:1,0:0:0:0:
352,112,10406,2,0,L|432:112,2,42.5,0|0|0,0:0|0:0|0:0,0:0:0:0:
160,112,10670,2,0,L|64:112,2,85,2|0|2,0:1|0:0|0:1,0:0:0:0:
352,112,11200,2,0,L|448:112,2,85,0|2|2,0:0|0:1|0:1,0:0:0:0:
384,112,11641,5,2,0:1:0:0:
415,139,11729,1,2,0:1:0:0:
432,178,11817,1,2,0:1:0:0:
431,220,11905,1,2,0:1:0:0:
412,258,11993,1,2,0:1:0:0:
144,288,12082,6,0,L|32:288,2,85,4|0|2,0:0|0:0|0:1,0:0:0:0:
384,288,12611,1,0,0:0:0:0:
128,128,12788,2,0,L|64:128,2,42.5,2|0|0,0:1|0:0|0:0,0:0:0:0:
256,128,13053,1,0,0:0:0:0:
368,128,13141,2,0,L|416:128,2,42.5,2|0|0,0:1|0:0|0:0,0:0:0:0:
128,304,13494,2,0,P|32:144|64:96,1,255,4|0,0:1|0:0,0:0:0:0:
432,256,14200,6,0,P|480:208|416:112,1,165.749992412568,4|0,0:0|0:0,0:0:0:0:
112,128,14553,2,0,L|80:96,6,27.6249987354279,2|0|0|0|2|0|0,0:0|0:0|0:0|0:0|0:0|0:0|0:0,0:0:0:0:
416,128,14906,1,4,0:0:0:0:
64,144,15611,1,4,0:0:0:0:
400,144,16141,1,4,0:0:0:0:
96,240,16847,6,0,L|64:176,1,42.5,0|0,0:0|0:0,0:0:0:0:
368,240,17023,1,4,0:0:0:0:
405,221,17111,1,0,0:0:0:0:
429,186,17199,1,8,0:3:0:0:
432,144,17287,1,8,0:3:0:0:
413,106,17375,1,4,0:3:0:0:
379,83,17464,1,0,0:0:0:0:
144,64,17553,2,0,L|112:64,2,21.25,8|0|8,0:3|0:0|0:3,0:0:0:0:
304,64,17729,6,0,L|352:64,2,42.5,4|0|0,0:0|0:0|0:0,0:0:0:0:
176,64,18082,2,0,L|133:64,2,42.5,2|0|0,0:1|0:0|0:0,0:0:0:0:
352,176,18435,2,0,L|400:176,1,42.5,2|0,0:1|0:0,0:0:0:0:
352,176,18611,2,0,L|288:176,1,42.5,0|0,0:0|0:0,0:0:0:0:
352,176,18788,2,0,L|416:176,2,42.5,2|0|0,0:1|0:0|0:0,0:0:0:0:
384,128,19053,2,0,L|448:128,2,42.5,0|4|0,0:0|0:0|0:0,0:0:0:0:
106,93,19317,2,0,L|63:93,2,42.5,2|0|2,0:0|0:0|0:1,0:0:0:0:
352,96,19670,1,2,0:0:0:0:
80,96,19847,6,0,L|0:96,2,42.5,2|0|2,0:1|0:0|0:1,0:0:0:0:
400,96,20200,2,0,L|496:96,2,85,8|8|4,0:0|0:0|0:0,0:0:0:0:
112,96,20729,1,2,0:0:0:0:
368,96,20906,2,0,L|464:96,2,85,2|2|8,0:0|0:1|0:0,0:0:0:0:
144,96,21435,1,2,0:1:0:0:
288,96,21611,1,0,0:0:0:0:
119,97,21788,1,4,0:0:0:0:
352,96,21964,2,0,L|448:96,2,85,0|8|2,0:0|0:0|0:0,0:0:0:0:
208,96,22494,6,0,L|96:96,2,85,2|8|0,0:1|0:0|0:0,0:0:0:0:
272,96,22935,2,0,L|384:96,1,85,8|0,0:0|0:0,0:0:0:0:
144,96,23200,1,10,0:0:0:0:
64,96,23376,2,0,L|0:96,1,42.5,4|0,0:0|0:0,0:0:0:0:
80,48,23553,2,0,L|160:48,1,42.5,0|0,0:0|0:0,0:0:0:0:
336,256,23729,2,0,L|384:256,1,42.5,8|0,0:0|0:0,0:0:0:0:
336,256,23906,2,0,L|272:256,1,42.5,0|0,0:0|0:0,0:0:0:0:
336,256,24082,2,0,L|384:256,1,42.5,2|0,0:1|0:0,0:0:0:0:
336,256,24259,5,0,0:0:0:0:
300,233,24347,1,8,0:0:0:0:
285,194,24435,1,8,0:0:0:0:
296,153,24523,1,0,0:0:0:0:
416,96,24611,2,0,L|464:96,1,42.5,2|0,0:1|0:0,0:0:0:0:
160,32,24788,2,0,P|128:96|144:160,1,127.5,4|0,0:0|0:0,0:0:0:0:
368,272,25141,2,0,P|400:176|384:128,1,152.999995330811,4|0,0:0|0:0,0:0:0:0:
128,144,25494,2,0,P|128:240|176:304,1,178.499994552612,4|0,0:0|0:0,0:0:0:0:
416,304,25847,6,0,P|448:256|416:240,1,85,10|2,0:0|0:1,0:0:0:0:
176,224,26200,2,0,L|112:224,2,63.7500024318696,4|0|0,0:0|0:0|0:0,0:0:0:0:
288,224,26729,1,2,0:1:0:0:
400,224,26906,2,0,L|480:224,2,63.7500024318696,8|4|4,0:0|0:3|0:3,0:0:0:0:
80,224,27435,2,0,L|48:224,2,31.8750012159348,0|0|4,0:0|0:0|0:0,0:0:0:0:
128,224,27788,2,0,L|192:224,1,63.7500024318696,0|0,0:0|0:0,0:0:0:0:
336,160,28141,2,0,L|384:160,1,31.8750012159348,2|0,0:1|0:0,0:0:0:0:
416,160,28406,1,0,0:0:0:0:
464,160,28494,2,0,L|512:160,2,31.8750012159348,8|8|0,0:0|0:0|0:0,0:0:0:0:
256,160,28847,5,2,0:1:0:0:
144,160,29023,2,0,L|64:160,2,63.7500024318696,4|0|0,0:0|0:0|0:0,0:0:0:0:
336,160,29553,2,0,L|384:160,1,31.8750012159348,2|0,0:1|0:0,0:0:0:0:
192,144,29729,2,0,L|128:144,2,63.7500024318696,8|8|4,0:0|0:3|0:3,0:0:0:0:
144,288,30259,6,0,P|112:256|128:192,1,95.6250036478044,4|0,0:0|0:0,0:0:0:0:
320,288,30611,6,0,P|352:254|349:208,1,95.6250036478044,4|0,0:0|0:0,0:0:0:0:
64,176,30964,6,0,P|31:142|34:96,1,95.6250036478044,4|0,0:0|0:0,0:0:0:0:
400,176,31317,6,0,P|432:142|400:96,1,95.6250036478044,8|0,0:0|0:0,0:0:0:0:
144,96,31670,2,0,P|128:176|144:208,1,85,4|0,0:0|0:0,0:0:0:0:
352,176,32023,2,0,L|400:176,2,42.5,2|0|8,0:1|0:0|0:0,0:0:0:0:
208,176,32376,1,2,0:1:0:0:
96,272,32553,2,0,P|64:176|96:112,1,170,2|8,0:1|0:0,0:0:0:0:
384,272,33259,2,0,P|417:195|384:128,1,127.5,4|0,0:0|0:0,0:0:0:0:
352,112,33611,2,0,L|464:112,2,85,8|2|2,0:0|0:1|0:1,0:0:0:0:
160,112,34317,2,0,L|48:112,2,85,8|2|4,0:0|0:1|0:0,0:0:0:0:
336,112,35023,5,2,0:1:0:0:
480,112,35200,1,8,0:3:0:0:
336,112,35376,1,2,0:1:0:0:
160,112,35553,2,0,L|64:112,1,85,4|0,0:3|0:0,0:0:0:0:
400,96,35906,2,0,P|432:208|400:256,1,170,4|2,0:0|0:1,0:0:0:0:
256,256,36435,5,8,0:0:0:0:
416,256,36611,1,0,0:0:0:0:
240,256,36788,1,2,0:1:0:0:
400,256,36964,1,2,0:1:0:0:
224,256,37141,1,8,0:0:0:0:
384,256,37317,1,2,0:1:0:0:
192,256,37494,1,12,0:0:0:0:
464,256,37847,1,0,0:0:0:0:
48,256,38200,1,0,0:0:0:0:
464,254,38464,2,0,L|496:254,2,21.25,0|0|0,0:0|0:0|0:0,0:0:0:0:
48,256,38906,5,4,0:0:0:0:
192,256,39082,1,2,0:1:0:0:
64,256,39259,1,8,0:0:0:0:
304,256,39435,2,0,P|336:176|304:128,1,127.5,4|0,0:0|0:0,0:0:0:0:
192,112,39788,2,0,L|149:112,2,42.5,2|0|8,0:1|0:0|0:0,0:0:0:0:
416,256,40141,2,0,L|448:160,1,85,4|0,0:0|0:0,0:0:0:0:
288,144,40494,1,2,0:1:0:0:
448,144,40670,1,8,0:0:0:0:
194,144,40847,1,4,0:0:0:0:
352,304,41023,6,0,L|416:304,1,42.5,0|0,0:0|0:0,0:0:0:0:
425,252,41199,1,2,0:1:0:0:
408,213,41287,1,0,0:0:0:0:
372,193,41375,1,0,0:0:0:0:
352,160,41464,2,0,L|304:160,1,42.5,8|2,0:0|0:1,0:0:0:0:
352,160,41641,2,0,L|416:160,1,42.5,0|4,0:0|0:0,0:0:0:0:
50,162,42082,1,8,0:0:0:0:
460,164,42435,1,2,0:1:0:0:
50,162,42788,1,8,0:0:0:0:
210,163,43141,5,2,0:1:0:0:
64,160,43317,1,8,0:0:0:0:
234,223,43494,1,8,0:0:0:0:
53,224,43670,1,0,0:0:0:0:
235,288,43847,1,2,0:1:0:0:
85,290,44023,6,0,L|0:290,2,85,8|8|0,0:0|0:0|0:0,0:0:0:0:
160,288,44553,1,4,0:0:0:0:
344,271,44729,1,2,0:1:0:0:
176,288,44906,1,8,0:0:0:0:
344,271,45082,2,0,P|372:169|360:143,1,127.5,4|0,0:0|0:0,0:0:0:0:
424,95,45435,2,0,L|467:95,2,42.5,2|0|8,0:1|0:0|0:0,0:0:0:0:
112,272,45788,2,0,P|89:191|128:128,1,127.5,4|0,0:0|0:0,0:0:0:0:
144,128,46141,1,8,0:3:0:0:
304,128,46317,1,8,0:0:0:0:
176,128,46494,1,4,0:0:0:0:
320,128,46670,6,0,L|352:96,1,42.5,0|0,0:0|0:0,0:0:0:0:
384,80,46847,1,8,0:0:0:0:
411,112,46935,1,0,0:0:0:0:
384,160,47023,2,0,L|342:160,1,42.5,8|0,0:0|0:0,0:0:0:0:
384,160,47200,2,0,L|427:160,1,42.5,0|0,0:0|0:0,0:0:0:0:
464,272,47376,1,4,0:0:0:0:
48,272,47729,1,8,0:0:0:0:
464,272,48082,1,2,0:1:0:0:
48,272,48435,1,8,0:0:0:0:
32,224,48788,6,0,L|0:128,1,85,8|2,0:0|0:1,0:0:0:0:
303,191,49053,2,0,L|351:191,2,42.5,0|8|8,0:0|0:0|0:0,0:0:0:0:
131,193,49317,1,2,0:1:0:0:
64,113,49494,2,0,L|16:113,2,42.5,2|0|8,0:1|0:0|0:0,0:0:0:0:
217,85,49847,2,0,L|281:85,2,42.5,8|0|0,0:0|0:0|0:0,0:0:0:0:
96,304,50200,2,0,P|64:224|96:112,1,191.250007295609,4|8,0:0|0:3,0:0:0:0:
336,192,50906,2,0,L|400:192,1,63.7500024318696,0|4,0:0|0:3,0:0:0:0:
96,224,51259,2,0,L|80:192,1,31.8750012159348,4|0,0:3|0:0,0:0:0:0:
48,144,51435,2,0,L|48:112,2,21.2500008106232,2|0|0,0:0|0:0|0:0,0:0:0:0:
336,288,51611,6,0,P|384:208|368:160,1,127.500004863739,4|2,0:0|0:1,0:0:0:0:
368,144,52141,2,0,L|368:112,2,21.2500008106232,2|0|0,0:0|0:0|0:0,0:0:0:0:
144,208,52317,2,0,L|80:208,2,63.7500024318696,2|4|4,0:1|0:3|0:3,0:0:0:0:
192,208,52847,1,0,0:0:0:0:
240,176,52935,1,0,0:0:0:0:
416,240,53023,6,0,P|448:144|416:112,1,127.500004863739,4|2,0:0|0:1,0:0:0:0:
176,64,53553,6,0,L|96:64,2,63.7500024318696,8|0|4,0:3|0:0|0:3,0:0:0:0:
336,80,54082,2,0,L|384:80,1,31.8750012159348,4|0,0:3|0:0,0:0:0:0:
448,80,54259,2,0,L|448:48,2,21.2500008106232,2|0|0,0:0|0:0|0:0,0:0:0:0:
128,64,54435,2,0,P|96:128|112:192,1,127.500004863739,4|4,0:0|0:3,0:0:0:0:
384,192,54876,2,0,L|416:192,3,31.8750012159348,0|2|2|2,0:0|0:0|0:0|0:1,0:0:0:0:
464,192,55494,2,0,P|480:128|448:96,1,95.6250036478044,8|0,0:0|0:0,0:0:0:0:
320,96,55847,5,4,0:0:0:0:
128,112,56023,2,0,L|64:112,2,42.5,2|0|8,0:1|0:0|0:0,0:0:0:0:
192,112,56288,1,0,0:0:0:0:
256,112,56376,2,0,L|352:112,1,85,2|0,0:1|0:0,0:0:0:0:
256,112,56729,2,0,L|160:112,1,85,2|8,0:1|0:0,0:0:0:0:
432,80,57082,2,0,P|464:160|432:208,1,127.5,2|0,0:1|0:0,0:0:0:0:
224,112,57435,6,0,L|160:112,2,42.5,2|0|8,0:1|0:0|0:0,0:0:0:0:
272,112,57700,1,0,0:0:0:0:
224,112,57788,2,0,L|112:112,1,85,2|0,0:1|0:0,0:0:0:0:
64,112,58053,2,0,P|48:208|64:240,1,127.5,0|8,0:0|0:0,0:0:0:0:
192,240,58494,1,2,0:1:0:0:
32,192,58670,5,2,0:1:0:0:
208,192,58847,1,0,0:0:0:0:
48,192,59023,1,2,0:1:0:0:
224,192,59200,1,0,0:1:0:0:
464,192,59376,1,8,0:0:0:0:
208,192,59553,1,8,0:0:0:0:
448,192,59729,1,2,0:1:0:0:
176,192,59906,1,8,0:0:0:0:
96,272,60082,6,0,P|64:192|80:80,1,191.250007295609,8|0,0:0|0:0,0:0:0:0:
416,272,60788,2,0,P|449:183|436:89,1,191.250007295609,0|0,0:0|0:0,0:0:0:0:
157,72,61494,5,4,0:0:0:0:
61,129,61670,2,0,L|18:129,2,42.5,0|0|2,0:0|0:0|0:1,0:0:0:0:
185,181,62023,2,0,L|265:182,2,42.5,0|0|2,0:0|0:0|0:1,0:0:0:0:
95,250,62376,2,0,L|52:250,2,42.5,0|0|2,0:0|0:0|0:1,0:0:0:0:
152,252,62641,2,0,L|194:252,2,42.5,0|0|0,0:0|0:0|0:0,0:0:0:0:
320,304,62906,5,4,0:1:0:0:
357,284,62994,1,0,0:0:0:0:
380,249,63082,1,0,0:0:0:0:
382,207,63170,1,0,0:0:0:0:
363,170,63258,1,0,0:0:0:0:
240,96,63347,2,0,L|192:80,1,42.5,0|0,0:0|0:0,0:0:0:0:
416,96,63523,2,0,L|480:80,1,42.5,0|4,0:0|0:0,0:0:0:0:
208,176,63700,5,0,0:0:0:0:
174,224,63787,1,0,0:0:0:0:
229,224,63875,1,0,0:0:0:0:
288,224,63964,1,2,0:0:0:0:
343,224,64052,1,0,0:0:0:0:
398,224,64140,1,0,0:0:0:0:
453,224,64228,1,0,0:0:0:0:
496,176,64317,1,4,0:0:0:0:
368,176,64494,1,0,0:0:0:0:
496,176,64670,1,8,0:0:0:0:
320,176,64847,6,0,L|235:176,2,85,0|2|0,0:0|0:1|0:0,0:0:0:0:
288,128,65376,1,8,0:0:0:0:
32,128,65553,1,0,0:0:0:0:
169,131,65729,1,2,0:1:0:0:
64,128,65906,1,0,0:0:0:0:
201,131,66082,1,8,0:0:0:0:
291,129,66259,6,0,P|354:173|314:239,1,170,0|0,0:0|0:0,0:0:0:0:
64,128,66788,1,8,0:0:0:0:
487,165,67141,1,2,0:1:0:0:
325,169,67317,1,0,0:0:0:0:
487,165,67494,1,8,0:0:0:0:
325,169,67670,1,0,0:0:0:0:
447,170,67847,2,0,L|498:171,2,42.5,2|0|0,0:1|0:0|0:0,0:0:0:0:
263,168,68200,1,8,0:0:0:0:
405,170,68376,6,0,L|489:170,2,85,0|2|0,0:0|0:1|0:0,0:0:0:0:
213,166,68906,1,8,0:0:0:0:
61,62,69082,2,0,P|41:156|72:231,1,170,0|0,0:0|0:0,0:0:0:0:
365,249,69611,1,8,0:0:0:0:
401,229,69699,1,8,0:0:0:0:
422,192,69787,1,2,0:1:0:0:
421,150,69875,1,0,0:0:0:0:
397,116,69963,1,4,0:0:0:0:
67,109,70141,5,0,0:0:0:0:
215,104,70317,1,8,0:0:0:0:
67,109,70494,1,0,0:0:0:0:
215,104,70670,1,2,0:1:0:0:
74,118,70847,6,0,L|-19:118,2,85,0|8|0,0:0|0:0|0:0,0:0:0:0:
226,122,71376,1,2,0:1:0:0:
86,121,71553,1,0,0:0:0:0:
235,125,71729,1,8,0:0:0:0:
349,124,71906,1,0,0:0:0:0:
414,69,71994,1,0,0:0:0:0:
344,20,72082,1,2,0:1:0:0:
92,118,72259,1,0,0:0:0:0:
412,115,72435,2,0,P|438:178|404:292,1,170,8|2,0:0|0:1,0:0:0:0:
336,278,72876,1,0,0:0:0:0:
256,278,72964,2,0,L|200:278,1,42.5,0|0,0:0|0:0,0:0:0:0:
268,278,73141,6,0,L|360:278,2,85,8|0|2,0:0|0:0|0:1,0:0:0:0:
165,277,73670,1,0,0:0:0:0:
98,276,73847,2,0,L|5:275,2,85,8|0|2,0:0|0:0|0:1,0:0:0:0:
288,277,74376,1,2,0:1:0:0:
157,280,74553,1,8,0:0:0:0:
321,275,74729,1,0,0:0:0:0:
382,274,74906,5,8,0:0:0:0:
414,247,74994,1,0,0:0:0:0:
427,207,75082,1,0,0:0:0:0:
418,166,75170,1,0,0:0:0:0:
389,136,75258,1,8,0:0:0:0:
259,65,75347,2,0,L|201:64,1,42.5,0|0,0:0|0:0,0:0:0:0:
423,64,75523,2,0,L|493:61,1,42.5,0|4,0:0|0:0,0:0:0:0:
264,61,75788,1,2,0:1:0:0:
444,67,75964,1,8,0:0:0:0:
204,60,76141,1,2,0:1:0:0:
125,60,76317,6,0,L|22:59,3,85,8|2|8|2,0:0|0:1|0:0|0:1,0:0:0:0:
292,67,77023,1,8,0:0:0:0:
124,70,77200,1,2,0:1:0:0:
316,66,77376,1,8,0:0:0:0:
151,68,77553,1,0,0:0:0:0:
336,61,77729,6,0,L|431:62,3,85,8|2|8|2,0:0|0:1|0:0|0:1,0:0:0:0:
93,220,78436,2,0,L|59:120,1,85,4|2,0:0|0:1,0:0:0:0:
345,217,78788,2,0,L|381:122,1,85,8|2,0:0|0:1,0:0:0:0:
81,217,79141,2,0,L|43:128,1,85,8|2,0:0|0:1,0:0:0:0:
396,228,79494,2,0,L|432:157,1,42.5,8|0,0:0|0:0,0:0:0:0:
240,205,79670,1,2,0:1:0:0:
183,205,79759,1,2,0:1:0:0:
126,204,79847,6,0,L|49:204,2,42.5,8|0|2,0:0|0:0|0:1,0:0:0:0:
193,186,80200,2,0,L|263:183,1,42.5,8|0,0:0|0:0,0:0:0:0:
141,190,80376,2,0,P|101:111|100:106,1,85,2|8,0:1|0:0,0:0:0:0:
282,100,80729,1,2,0:1:0:0:
109,102,80906,1,8,0:0:0:0:
282,100,81082,1,2,0:1:0:0:
129,99,81259,6,0,L|26:98,3,85,4|2|8|2,0:0|0:1|0:0|0:1,0:0:0:0:
430,219,81964,2,0,L|475:145,1,85,8|2,0:0|0:1,0:0:0:0:
126,236,82317,2,0,L|38:234,2,85,8|2|8,0:0|0:1|0:0,0:0:0:0:
293,241,82847,1,0,0:0:0:0:
129,238,83023,1,8,0:0:0:0:
286,240,83200,6,0,P|310:191|286:167,1,85,2|8,0:1|0:0,0:0:0:0:
129,238,83553,2,0,L|32:243,2,85,2|8|2,0:1|0:0|0:1,0:0:0:0:
455,230,84082,1,4,0:0:0:0:
145,195,84435,2,0,L|45:198,2,85,8|2|8,0:0|0:1|0:0,0:0:0:0:
300,195,84964,1,2,0:1:0:0:
158,289,85141,1,8,0:0:0:0:
53,155,85317,1,2,0:1:0:0:
159,21,85494,1,4,0:0:0:0:
284,65,85670,5,4,0:3:0:0:
323,78,85758,1,0,0:0:0:0:
348,110,85846,1,2,0:1:0:0:
352,152,85934,1,0,0:0:0:0:
332,188,86022,1,0,0:0:0:0:
145,242,86200,2,0,L|89:244,2,42.5,2|2|2,0:1|0:1|0:1,0:0:0:0:
355,245,86553,2,0,L|420:241,2,42.5,8|8|2,0:0|0:0|0:1,0:0:0:0:
49,220,86906,1,8,0:0:0:0:
460,223,87611,1,8,0:0:0:0:
47,295,88141,6,0,P|32:174|47:154,1,127.500004863739,4|0,0:0|0:0,0:0:0:0:
312,173,88494,1,2,0:1:0:0:
190,175,88670,1,8,0:0:0:0:
468,171,89023,1,12,0:0:0:0:
