osu file format v14

[General]
AudioFilename: audio.mp3
AudioLeadIn: 0
PreviewTime: 68539
Countdown: 1
SampleSet: Normal
StackLeniency: 0.7
Mode: 1
LetterboxInBreaks: 0
WidescreenStoryboard: 0

[Editor]
Bookmarks: 94168,203968,228654
DistanceSpacing: 0.8
BeatDivisor: 4
GridSize: 4
TimelineZoom: 1.7

[Metadata]
Title:Welcome to Japari Park (nenpulse bootleg remix)
TitleUnicode:ようこそジャパリパークへ (nenpulse bootleg remix)
Artist:Doubutsu Biscuits x PPP
ArtistUnicode:どうぶつビスケッツ×PPP
Creator:lop
Version:Japari Oni
Source:けものフレンズ
Tags:kemono friends
BeatmapID:1281164
BeatmapSetID:606446

[Difficulty]
HPDrainRate:5
CircleSize:2
OverallDifficulty:5
ApproachRate:5
SliderMultiplier:1.40399990653992
SliderTickRate:1

[Events]
//Background and Video events
0,0,"62084987_p0.png",0,0
//Break Periods
2,197997,199511
//Storyboard Layer 0 (Background)
//Storyboard Layer 1 (Fail)
//Storyboard Layer 2 (Pass)
//Storyboard Layer 3 (Foreground)
//Storyboard Sound Samples

[TimingPoints]
997,342.857142857143,4,1,0,100,1,0
997,-100,4,1,0,77,0,0
46254,-125,4,1,0,77,0,0
48911,-100,4,1,0,77,0,0
52254,-125,4,1,0,77,0,0
53282,-116.279069767442,4,1,0,77,0,0
53368,-113.636363636364,4,1,0,77,0,0
53454,-111.111111111111,4,1,0,77,0,0
53625,-108.695652173913,4,1,0,77,0,0
53711,-106.382978723404,4,1,0,77,0,0
53797,-104.166666666667,4,1,0,77,0,0
53968,-102.040816326531,4,1,0,77,0,0
54482,-100,4,1,0,77,0,0
57225,-133.333333333333,4,1,0,77,0,0
61168,-76.9230769230769,4,1,0,77,0,0
62197,-100,4,1,0,77,0,0
69568,-111.111111111111,4,1,0,77,0,0
71797,-100,4,1,0,77,0,1
74711,-100,4,1,0,77,0,0
75054,-111.111111111111,4,1,0,77,0,0
77282,-100,4,1,0,77,0,1
80539,-100,4,1,0,77,0,0
80882,-111.111111111111,4,1,0,77,0,0
84825,-109.89010989011,4,1,0,77,0,0
85168,-108.695652173913,4,1,0,77,0,0
85511,-106.382978723404,4,1,0,77,0,0
85597,-105.263157894737,4,1,0,77,0,0
85682,-104.166666666667,4,1,0,77,0,0
85768,-103.092783505155,4,1,0,77,0,0
85854,-102.040816326531,4,1,0,77,0,0
85939,-101.010101010101,4,1,0,77,0,0
86025,-100,4,1,0,77,0,1
90139,-100,4,1,0,77,0,0
117568,-125,4,1,0,77,0,0
120311,-100,4,1,0,77,0,0
123568,-125,4,1,0,77,0,0
124597,-119.047619047619,4,1,0,77,0,0
124682,-117.647058823529,4,1,0,77,0,0
124768,-116.279069767442,4,1,0,77,0,0
124854,-114.942528735632,4,1,0,77,0,0
124939,-114.942528735632,4,1,0,77,0,0
125111,-111.111111111111,4,1,0,77,0,0
125282,-108.695652173913,4,1,0,77,0,0
125368,-107.52688172043,4,1,0,77,0,0
125454,-106.382978723404,4,1,0,77,0,0
125539,-105.263157894737,4,1,0,77,0,0
125625,-104.166666666667,4,1,0,77,0,0
125711,-103.092783505155,4,1,0,77,0,0
125797,-102.040816326531,4,1,0,77,0,0
125968,-100,4,1,0,77,0,0
128539,-133.333333333333,4,1,0,77,0,0
132482,-76.9230769230769,4,1,0,77,0,0
133425,-100,4,1,0,77,0,0
140882,-111.111111111111,4,1,0,77,0,0
143111,-100,4,1,0,77,0,1
146025,-100,4,1,0,77,0,0
146368,-111.111111111111,4,1,0,77,0,0
148597,-100,4,1,0,77,0,1
151854,-100,4,1,0,77,0,0
152197,-111.111111111111,4,1,0,77,0,0
156139,-109.89010989011,4,1,0,77,0,0
156482,-108.695652173913,4,1,0,77,0,0
156825,-106.382978723404,4,1,0,77,0,0
156911,-105.263157894737,4,1,0,77,0,0
156997,-104.166666666667,4,1,0,77,0,0
157082,-103.092783505155,4,1,0,77,0,0
157168,-102.040816326531,4,1,0,77,0,0
157254,-101.010101010101,4,1,0,77,0,0
157339,-100,4,1,0,77,0,1
161454,-100,4,1,0,77,0,0
165568,-117.647058823529,4,1,0,47,0,0
176539,-111.111111111111,4,1,0,77,0,0
182025,-100,4,1,0,77,0,0
192311,-106.382978723404,4,1,0,77,0,0
192482,-112.359550561798,4,1,0,77,0,0
192654,-117.647058823529,4,1,0,77,0,0
192825,-121.951219512195,4,1,0,77,0,0
192997,-125,4,1,0,77,0,0
195139,-120.481927710843,4,1,0,77,0,0
195568,-114.942528735632,4,1,0,77,0,0
195739,-109.89010989011,4,1,0,77,0,0
195911,-106.382978723404,4,1,0,77,0,0
195997,-104.166666666667,4,1,0,77,0,0
196082,-102.040816326531,4,1,0,77,0,0
196254,-100,4,1,0,77,0,0
200711,-76.9230769230769,4,1,0,77,0,0
203454,-100,4,1,0,77,0,0
203968,-111.111111111111,4,1,0,77,0,0
206197,-100,4,1,0,77,0,1
209111,-100,4,1,0,77,0,0
209454,-111.111111111111,4,1,0,77,0,0
211682,-100,4,1,0,77,0,1
214939,-100,4,1,0,77,0,0
215282,-111.111111111111,4,1,0,77,0,0
219225,-109.89010989011,4,1,0,77,0,0
219568,-108.695652173913,4,1,0,77,0,0
219911,-106.382978723404,4,1,0,77,0,0
219997,-105.263157894737,4,1,0,77,0,0
220082,-104.166666666667,4,1,0,77,0,0
220168,-103.092783505155,4,1,0,77,0,0
220254,-102.040816326531,4,1,0,77,0,0
220339,-101.010101010101,4,1,0,77,0,0
220425,-100,4,1,0,77,0,1
224539,-100,4,1,0,77,0,0
239625,-100,4,1,0,77,0,1
250597,-100,4,1,0,77,0,0

[HitObjects]
260,140,996,5,0,0:0:0:0:
260,140,1168,1,8,0:0:0:0:
260,140,1339,1,0,0:0:0:0:
260,140,1511,1,8,0:0:0:0:
260,140,1682,1,0,0:0:0:0:
260,140,1854,1,8,0:0:0:0:
260,140,2025,1,0,0:0:0:0:
260,140,2197,1,8,0:0:0:0:
260,140,2368,1,0,0:0:0:0:
260,140,2539,1,8,0:0:0:0:
260,140,2711,1,0,0:0:0:0:
260,140,2882,1,8,0:0:0:0:
260,140,3054,1,0,0:0:0:0:
260,140,3225,1,8,0:0:0:0:
260,140,3397,1,0,0:0:0:0:
260,140,3568,1,8,0:0:0:0:
260,140,3739,1,0,0:0:0:0:
260,140,3911,1,8,0:0:0:0:
260,140,4082,1,0,0:0:0:0:
260,140,4254,1,8,0:0:0:0:
260,140,4425,1,0,0:0:0:0:
260,140,4597,1,8,0:0:0:0:
260,140,4768,1,0,0:0:0:0:
260,140,4939,1,8,0:0:0:0:
260,140,5111,1,0,0:0:0:0:
260,140,5282,1,8,0:0:0:0:
260,140,5454,1,0,0:0:0:0:
260,140,5625,1,8,0:0:0:0:
264,140,5797,1,0,0:0:0:0:
264,140,5968,1,8,0:0:0:0:
264,140,6054,1,8,0:0:0:0:
264,140,6139,1,0,0:0:0:0:
264,140,6311,1,8,0:0:0:0:
264,128,6482,1,0,0:0:0:0:
264,128,6654,1,8,0:0:0:0:
264,128,6825,1,0,0:0:0:0:
264,128,6997,1,8,0:0:0:0:
264,128,7168,1,0,0:0:0:0:
264,128,7339,1,8,0:0:0:0:
264,128,7511,1,0,0:0:0:0:
264,128,7682,1,8,0:0:0:0:
264,128,7854,1,0,0:0:0:0:
264,128,8025,1,8,0:0:0:0:
264,128,8197,1,0,0:0:0:0:
264,128,8368,1,8,0:0:0:0:
264,128,8539,1,0,0:0:0:0:
264,128,8711,1,8,0:0:0:0:
264,128,8797,1,0,0:0:0:0:
264,128,8882,1,0,0:0:0:0:
264,128,9054,1,8,0:0:0:0:
264,128,9139,1,8,0:0:0:0:
264,128,9225,1,0,0:0:0:0:
264,128,9397,1,8,0:0:0:0:
264,128,9568,1,0,0:0:0:0:
264,128,9739,1,8,0:0:0:0:
264,128,9911,1,0,0:0:0:0:
264,128,10082,1,8,0:0:0:0:
264,128,10254,1,0,0:0:0:0:
264,128,10425,1,8,0:0:0:0:
264,128,10597,1,0,0:0:0:0:
264,128,10768,1,8,0:0:0:0:
264,128,10939,1,0,0:0:0:0:
264,128,11111,1,8,0:0:0:0:
264,128,11282,1,0,0:0:0:0:
292,120,11454,1,8,0:0:0:0:
264,128,11539,1,0,0:0:0:0:
264,128,11625,1,8,0:0:0:0:
264,128,11797,1,8,0:0:0:0:
280,140,11882,1,8,0:0:0:0:
264,128,11968,1,0,0:0:0:0:
272,120,12139,1,8,0:0:0:0:
272,120,12311,1,0,0:0:0:0:
272,120,12397,1,0,0:0:0:0:
272,120,12482,1,8,0:0:0:0:
272,120,12654,1,0,0:0:0:0:
288,120,12825,1,8,0:0:0:0:
288,120,12997,1,0,0:0:0:0:
272,120,13082,1,0,0:0:0:0:
292,120,13168,1,8,0:0:0:0:
292,120,13339,1,0,0:0:0:0:
292,120,13511,1,8,0:0:0:0:
292,120,13597,1,8,0:0:0:0:
292,120,13682,1,0,0:0:0:0:
312,120,13768,1,0,0:0:0:0:
288,120,13854,1,8,0:0:0:0:
288,120,14025,1,0,0:0:0:0:
292,120,14197,1,8,0:0:0:0:
292,120,14368,1,0,0:0:0:0:
296,140,14454,1,0,0:0:0:0:
292,120,14539,1,8,0:0:0:0:
264,128,14711,1,0,0:0:0:0:
272,120,14882,1,8,0:0:0:0:
272,120,15054,1,8,0:0:0:0:
276,120,15139,1,0,0:0:0:0:
272,120,15225,1,0,0:0:0:0:
272,120,15397,1,0,0:0:0:0:
288,120,15568,1,8,0:0:0:0:
288,120,15739,1,8,0:0:0:0:
300,128,15825,1,0,0:0:0:0:
300,128,15911,1,0,0:0:0:0:
292,120,16082,1,0,0:0:0:0:
292,120,16254,1,8,0:0:0:0:
292,120,16339,1,0,0:0:0:0:
292,120,16425,1,8,0:0:0:0:
300,120,16511,1,8,0:0:0:0:
288,112,16597,1,0,0:0:0:0:
288,120,16768,1,0,0:0:0:0:
292,120,16939,1,0,0:0:0:0:
292,120,17025,1,0,0:0:0:0:
292,120,17111,1,8,0:0:0:0:
292,120,17282,1,8,0:0:0:0:
292,112,17368,1,8,0:0:0:0:
264,128,17454,1,0,0:0:0:0:
272,120,17625,1,8,0:0:0:0:
300,120,17797,1,8,0:0:0:0:
300,120,17882,1,0,0:0:0:0:
300,120,17968,1,0,0:0:0:0:
272,120,18139,1,0,0:0:0:0:
288,120,18311,1,8,0:0:0:0:
288,120,18482,1,8,0:0:0:0:
272,120,18568,1,0,0:0:0:0:
292,120,18654,1,0,0:0:0:0:
292,120,18825,1,0,0:0:0:0:
292,120,18997,1,8,0:0:0:0:
292,120,19082,1,8,0:0:0:0:
292,120,19168,1,8,0:0:0:0:
288,120,19339,1,0,0:0:0:0:
288,120,19511,1,0,0:0:0:0:
292,120,19682,1,8,0:0:0:0:
292,120,19854,1,8,0:0:0:0:
292,120,20025,1,0,0:0:0:0:
292,96,20111,1,0,0:0:0:0:
284,108,20197,1,0,0:0:0:0:
284,108,20368,1,8,0:0:0:0:
284,108,20539,1,8,0:0:0:0:
284,108,20625,1,8,0:0:0:0:
284,108,20711,1,0,0:0:0:0:
284,108,20882,1,0,0:0:0:0:
284,108,20968,1,0,0:0:0:0:
284,108,21054,1,8,0:0:0:0:
284,108,21139,1,0,0:0:0:0:
264,104,21225,1,8,0:0:0:0:
264,104,21282,1,8,0:0:0:0:
264,104,21339,1,8,0:0:0:0:
264,104,21397,1,0,0:0:0:0:
284,108,21482,1,0,0:0:0:0:
284,108,21568,1,8,0:0:0:0:
288,108,22425,1,0,0:0:0:0:
284,108,22511,1,0,0:0:0:0:
284,108,22597,1,8,0:0:0:0:
288,108,22939,1,8,0:0:0:0:
288,108,23111,1,0,0:0:0:0:
288,108,23197,1,0,0:0:0:0:
288,108,23282,1,8,0:0:0:0:
288,108,23454,1,8,0:0:0:0:
288,108,23797,1,8,0:0:0:0:
288,108,23968,1,8,0:0:0:0:
288,108,24139,1,0,0:0:0:0:
288,108,24311,1,8,0:0:0:0:
288,108,24482,1,8,0:0:0:0:
288,108,24568,1,8,0:0:0:0:
288,108,24654,1,0,0:0:0:0:
288,108,24825,1,0,0:0:0:0:
288,108,25168,1,8,0:0:0:0:
308,108,25339,1,0,0:0:0:0:
308,108,25511,1,8,0:0:0:0:
308,108,25682,1,0,0:0:0:0:
308,108,25854,1,0,0:0:0:0:
308,108,25939,1,0,0:0:0:0:
308,108,26025,1,8,0:0:0:0:
308,108,26197,1,0,0:0:0:0:
308,108,26368,1,8,0:0:0:0:
324,124,26454,1,8,0:0:0:0:
324,124,26539,1,0,0:0:0:0:
308,108,26625,1,0,0:0:0:0:
308,108,26711,1,8,0:0:0:0:
308,108,26882,1,0,0:0:0:0:
308,108,27054,1,8,0:0:0:0:
324,124,27225,1,0,0:0:0:0:
324,124,27311,1,0,0:0:0:0:
324,124,27397,1,8,0:0:0:0:
324,124,27568,1,0,0:0:0:0:
336,128,27739,1,8,0:0:0:0:
324,124,27911,1,0,0:0:0:0:
324,124,28082,1,8,0:0:0:0:
336,128,28254,1,0,0:0:0:0:
288,108,28425,1,8,0:0:0:0:
288,108,28597,1,0,0:0:0:0:
288,108,28682,1,0,0:0:0:0:
288,108,28768,1,8,0:0:0:0:
288,108,28939,1,8,0:0:0:0:
288,108,29282,1,8,0:0:0:0:
288,108,29454,1,8,0:0:0:0:
288,108,29625,1,0,0:0:0:0:
288,108,29797,1,0,0:0:0:0:
288,108,29968,1,0,0:0:0:0:
288,108,30054,1,0,0:0:0:0:
288,108,30139,1,8,0:0:0:0:
288,108,30311,1,0,0:0:0:0:
288,108,30654,1,8,0:0:0:0:
308,108,30825,1,8,0:0:0:0:
308,108,30997,1,0,0:0:0:0:
308,108,31168,1,0,0:0:0:0:
308,108,31339,1,0,0:0:0:0:
308,108,31425,1,0,0:0:0:0:
308,108,31511,1,8,0:0:0:0:
308,108,31682,1,0,0:0:0:0:
308,108,31854,1,8,0:0:0:0:
324,124,32025,1,0,0:0:0:0:
308,108,32111,1,0,0:0:0:0:
308,108,32197,1,8,0:0:0:0:
308,108,32368,1,8,0:0:0:0:
308,108,32539,1,0,0:0:0:0:
324,124,32711,1,0,0:0:0:0:
324,124,32797,1,0,0:0:0:0:
324,124,32882,1,8,0:0:0:0:
324,124,33054,1,8,0:0:0:0:
320,116,33139,1,8,0:0:0:0:
320,116,33225,1,0,0:0:0:0:
324,124,33397,1,0,0:0:0:0:
324,124,33568,1,8,0:0:0:0:
312,104,33739,1,0,0:0:0:0:
288,108,33911,1,8,0:0:0:0:
288,104,33997,1,8,0:0:0:0:
288,108,34082,1,0,0:0:0:0:
288,108,34168,1,0,0:0:0:0:
288,108,34254,1,8,0:0:0:0:
288,108,34425,1,8,0:0:0:0:
268,108,34597,1,0,0:0:0:0:
300,112,34682,1,0,0:0:0:0:
288,108,34768,1,8,0:0:0:0:
300,112,34854,1,0,0:0:0:0:
288,108,34939,1,8,0:0:0:0:
288,108,35111,1,0,0:0:0:0:
288,108,35282,1,8,0:0:0:0:
288,108,35368,1,0,0:0:0:0:
288,108,35454,1,8,0:0:0:0:
288,108,35539,1,8,0:0:0:0:
288,108,35625,1,0,0:0:0:0:
288,108,35797,1,8,0:0:0:0:
288,108,35968,1,0,0:0:0:0:
300,112,36054,1,0,0:0:0:0:
288,108,36139,1,8,0:0:0:0:
300,112,36225,1,0,0:0:0:0:
288,108,36311,1,8,0:0:0:0:
288,108,36482,1,0,0:0:0:0:
308,108,36654,1,0,0:0:0:0:
308,108,36825,1,0,0:0:0:0:
308,108,36911,1,0,0:0:0:0:
308,108,36997,1,8,0:0:0:0:
308,108,37168,1,0,0:0:0:0:
308,108,37339,1,8,0:0:0:0:
324,124,37425,1,8,0:0:0:0:
324,124,37511,1,0,0:0:0:0:
308,108,37597,1,0,0:0:0:0:
308,108,37682,1,8,0:0:0:0:
308,108,37854,1,0,0:0:0:0:
308,108,38025,1,8,0:0:0:0:
300,112,38111,1,8,0:0:0:0:
324,124,38197,1,0,0:0:0:0:
324,124,38282,1,0,0:0:0:0:
324,124,38368,1,8,0:0:0:0:
324,124,38539,1,0,0:0:0:0:
336,128,38711,1,8,0:0:0:0:
324,124,38882,1,8,0:0:0:0:
324,124,39054,1,0,0:0:0:0:
336,128,39225,1,0,0:0:0:0:
288,108,39397,1,8,0:0:0:0:
300,120,39482,1,8,0:0:0:0:
288,108,39568,1,0,0:0:0:0:
288,108,39654,1,0,0:0:0:0:
288,108,39739,1,8,0:0:0:0:
288,108,39911,1,8,0:0:0:0:
300,120,40082,1,0,0:0:0:0:
300,112,40168,1,0,0:0:0:0:
300,120,40254,1,8,0:0:0:0:
300,112,40339,1,0,0:0:0:0:
300,120,40425,1,8,0:0:0:0:
300,120,40597,1,0,0:0:0:0:
300,120,40768,1,8,0:0:0:0:
300,120,40854,1,0,0:0:0:0:
300,120,40939,1,8,0:0:0:0:
300,120,41025,1,8,0:0:0:0:
300,120,41111,1,0,0:0:0:0:
300,120,41282,1,8,0:0:0:0:
336,100,41454,1,0,0:0:0:0:
300,120,41625,1,8,0:0:0:0:
300,112,41711,1,0,0:0:0:0:
300,120,41797,1,8,0:0:0:0:
300,120,41968,1,0,0:0:0:0:
300,120,42139,1,8,0:0:0:0:
300,120,42225,1,8,0:0:0:0:
300,120,42311,1,0,0:0:0:0:
300,120,42397,1,0,0:0:0:0:
300,120,42482,1,8,0:0:0:0:
300,120,42568,1,0,0:0:0:0:
300,120,42654,1,0,0:0:0:0:
300,120,42739,1,0,0:0:0:0:
300,120,42825,1,8,0:0:0:0:
300,120,42911,1,8,0:0:0:0:
300,120,42997,1,0,0:0:0:0:
300,120,43168,1,8,0:0:0:0:
300,120,43254,1,0,0:0:0:0:
300,120,43339,1,8,0:0:0:0:
300,120,43425,1,8,0:0:0:0:
300,120,43511,1,0,0:0:0:0:
328,120,43597,1,0,0:0:0:0:
328,120,43682,1,0,0:0:0:0:
328,120,43768,1,0,0:0:0:0:
328,120,43854,1,8,0:0:0:0:
328,120,43939,1,8,0:0:0:0:
328,120,44025,1,0,0:0:0:0:
328,120,44111,1,0,0:0:0:0:
328,120,44197,1,8,0:0:0:0:
328,120,44282,1,8,0:0:0:0:
328,120,44368,1,0,0:0:0:0:
328,120,44454,1,0,0:0:0:0:
292,120,44539,1,8,0:0:0:0:
292,120,44597,1,8,0:0:0:0:
292,120,44654,1,8,0:0:0:0:
300,120,44711,1,0,0:0:0:0:
300,120,44797,1,0,0:0:0:0:
300,120,44882,1,8,0:0:0:0:
300,120,45739,1,0,0:0:0:0:
300,120,45825,1,0,0:0:0:0:
300,120,45911,1,8,0:0:0:0:
312,120,46254,1,4,0:0:0:0:
300,120,46597,1,8,0:0:0:0:
312,120,46939,1,4,0:0:0:0:
328,136,47197,1,8,0:0:0:0:
296,116,47454,1,4,0:0:0:0:
296,116,47797,1,8,0:0:0:0:
300,120,47968,1,8,0:0:0:0:
296,116,48311,1,4,0:0:0:0:
296,116,48654,1,4,0:0:0:0:
300,120,48997,1,8,0:0:0:0:
300,120,49168,1,0,0:0:0:0:
300,120,49254,1,0,0:0:0:0:
300,120,49339,1,8,0:0:0:0:
300,120,49511,1,0,0:0:0:0:
300,120,49682,1,8,0:0:0:0:
300,120,49768,1,8,0:0:0:0:
300,120,49854,1,0,0:0:0:0:
300,120,49939,1,0,0:0:0:0:
300,120,50025,1,8,0:0:0:0:
300,120,50197,1,0,0:0:0:0:
300,120,50368,1,0,0:0:0:0:
300,120,50539,1,8,0:0:0:0:
300,120,50711,1,0,0:0:0:0:
300,120,50797,1,0,0:0:0:0:
300,120,50882,1,8,0:0:0:0:
300,120,51054,1,0,0:0:0:0:
300,120,51139,1,8,0:0:0:0:
300,120,51225,1,0,0:0:0:0:
300,120,51311,1,0,0:0:0:0:
300,120,51397,1,8,0:0:0:0:
300,120,51568,1,8,0:0:0:0:
300,120,51654,1,8,0:0:0:0:
300,120,51739,1,0,0:0:0:0:
300,120,52254,1,8,0:0:0:0:
300,120,52425,1,4,0:0:0:0:
300,120,52682,1,0,0:0:0:0:
300,120,52768,1,8,0:0:0:0:
300,120,52939,1,4,0:0:0:0:
300,120,53282,1,8,0:0:0:0:
300,120,53368,1,8,0:0:0:0:
300,120,53454,1,0,0:0:0:0:
300,120,53625,1,8,0:0:0:0:
300,120,53711,1,0,0:0:0:0:
300,120,53797,1,8,0:0:0:0:
300,120,53968,1,0,0:0:0:0:
300,120,54054,1,8,0:0:0:0:
300,120,54225,1,8,0:0:0:0:
300,120,54311,1,8,0:0:0:0:
300,120,54482,1,0,0:0:0:0:
308,124,54654,1,8,0:0:0:0:
308,124,54825,1,0,0:0:0:0:
308,124,54911,1,0,0:0:0:0:
308,124,54997,1,8,0:0:0:0:
308,124,55082,1,8,0:0:0:0:
308,124,55168,1,0,0:0:0:0:
308,124,55254,1,0,0:0:0:0:
308,124,55339,1,8,0:0:0:0:
308,124,55425,1,0,0:0:0:0:
308,124,55511,1,0,0:0:0:0:
308,124,55597,1,8,0:0:0:0:
320,128,55682,1,0,0:0:0:0:
320,128,55854,1,12,0:0:0:0:
320,128,56197,1,12,0:0:0:0:
320,128,56539,1,4,0:0:0:0:
320,128,56711,1,0,0:0:0:0:
320,128,56797,1,0,0:0:0:0:
320,128,56882,1,8,0:0:0:0:
320,128,57225,1,8,0:0:0:0:
316,116,57397,1,0,0:0:0:0:
320,128,57568,1,8,0:0:0:0:
320,128,57739,1,8,0:0:0:0:
320,128,57911,1,0,0:0:0:0:
320,128,58082,1,8,0:0:0:0:
320,128,58254,1,8,0:0:0:0:
316,116,58425,1,0,0:0:0:0:
320,128,58597,1,0,0:0:0:0:
320,128,58768,1,0,0:0:0:0:
320,128,58939,1,8,0:0:0:0:
320,128,59111,1,8,0:0:0:0:
320,128,59282,1,0,0:0:0:0:
320,128,59454,1,8,0:0:0:0:
320,128,59625,1,8,0:0:0:0:
320,128,59797,1,0,0:0:0:0:
316,116,59968,1,0,0:0:0:0:
312,128,60311,1,8,0:0:0:0:
304,120,60482,1,0,0:0:0:0:
304,120,60654,1,8,0:0:0:0:
308,112,60825,1,8,0:0:0:0:
304,120,60997,1,0,0:0:0:0:
304,120,61168,1,4,0:0:0:0:
304,120,61511,1,4,0:0:0:0:
304,120,61854,1,4,0:0:0:0:
316,144,62197,1,0,0:0:0:0:
312,124,62282,1,0,0:0:0:0:
312,124,62368,1,8,0:0:0:0:
312,124,62539,1,0,0:0:0:0:
312,124,62711,1,8,0:0:0:0:
308,112,62882,1,0,0:0:0:0:
308,112,62968,1,0,0:0:0:0:
308,112,63054,1,8,0:0:0:0:
308,112,63225,1,0,0:0:0:0:
308,112,63311,1,0,0:0:0:0:
308,112,63397,1,0,0:0:0:0:
308,112,63568,1,0,0:0:0:0:
308,112,63739,1,8,0:0:0:0:
308,112,63911,1,0,0:0:0:0:
308,112,64082,1,8,0:0:0:0:
308,112,64254,1,0,0:0:0:0:
308,112,64339,1,0,0:0:0:0:
308,112,64425,1,8,0:0:0:0:
308,112,64597,1,8,0:0:0:0:
308,112,64682,1,8,0:0:0:0:
308,112,64768,1,0,0:0:0:0:
308,112,64939,1,0,0:0:0:0:
308,112,65111,1,8,0:0:0:0:
308,112,65282,1,0,0:0:0:0:
308,112,65454,1,8,0:0:0:0:
308,112,65625,1,0,0:0:0:0:
308,112,65711,1,0,0:0:0:0:
308,112,65797,1,8,0:0:0:0:
308,112,65968,1,0,0:0:0:0:
331,137,66054,1,0,0:0:0:0:
308,112,66139,1,8,0:0:0:0:
352,112,66225,1,0,0:0:0:0:
308,112,66311,1,8,0:0:0:0:
308,112,66482,1,0,0:0:0:0:
328,112,66654,1,4,0:0:0:0:
308,96,66997,1,0,0:0:0:0:
308,92,67168,1,0,0:0:0:0:
320,68,67254,1,0,0:0:0:0:
308,84,67339,1,0,0:0:0:0:
312,68,67397,1,0,0:0:0:0:
312,68,67454,1,0,0:0:0:0:
304,80,67511,1,8,0:0:0:0:
300,72,67682,1,0,0:0:0:0:
300,72,67854,1,8,0:0:0:0:
312,68,67911,1,8,0:0:0:0:
320,64,67968,1,8,0:0:0:0:
320,64,68025,1,0,0:0:0:0:
320,56,68111,1,0,0:0:0:0:
320,56,68197,1,8,0:0:0:0:
300,72,68539,1,0,0:0:0:0:
296,76,68882,1,0,0:0:0:0:
296,72,69054,1,0,0:0:0:0:
296,72,69139,1,0,0:0:0:0:
296,72,69225,1,8,0:0:0:0:
320,128,69568,1,0,0:0:0:0:
320,128,69911,1,8,0:0:0:0:
320,128,70082,1,0,0:0:0:0:
320,128,70425,1,0,0:0:0:0:
320,128,70597,1,8,0:0:0:0:
320,128,70768,1,0,0:0:0:0:
300,120,71111,1,8,0:0:0:0:
288,132,71282,1,8,0:0:0:0:
300,120,71454,1,0,0:0:0:0:
300,120,71797,1,8,0:0:0:0:
300,120,71968,1,8,0:0:0:0:
300,120,72139,1,0,0:0:0:0:
300,120,72225,1,0,0:0:0:0:
300,120,72311,1,8,0:0:0:0:
300,120,72482,1,0,0:0:0:0:
300,120,72654,1,8,0:0:0:0:
300,120,72739,1,8,0:0:0:0:
300,120,72825,1,0,0:0:0:0:
300,120,72911,1,0,0:0:0:0:
300,120,72997,1,8,0:0:0:0:
300,120,73168,1,0,0:0:0:0:
300,120,73254,1,0,0:0:0:0:
300,120,73339,1,8,0:0:0:0:
300,120,73511,1,0,0:0:0:0:
300,120,73682,1,0,0:0:0:0:
300,120,73854,1,0,0:0:0:0:
300,120,73939,1,0,0:0:0:0:
300,120,74025,1,8,0:0:0:0:
320,116,74111,1,0,0:0:0:0:
312,108,74197,1,8,0:0:0:0:
312,112,74282,1,8,0:0:0:0:
308,108,74368,1,0,0:0:0:0:
312,108,74539,1,0,0:0:0:0:
312,112,74711,1,8,0:0:0:0:
312,108,75054,1,0,0:0:0:0:
312,108,75225,1,0,0:0:0:0:
312,112,75397,1,8,0:0:0:0:
304,112,75568,1,0,0:0:0:0:
304,104,75911,1,0,0:0:0:0:
304,104,76082,1,8,0:0:0:0:
304,104,76254,1,0,0:0:0:0:
304,112,76597,1,0,0:0:0:0:
292,100,76768,1,8,0:0:0:0:
288,104,76939,1,8,0:0:0:0:
288,104,77282,1,8,0:0:0:0:
288,104,77454,1,8,0:0:0:0:
288,104,77539,1,8,0:0:0:0:
288,104,77625,1,0,0:0:0:0:
284,100,77797,1,8,0:0:0:0:
288,104,77968,1,0,0:0:0:0:
288,104,78054,1,0,0:0:0:0:
288,104,78139,1,8,0:0:0:0:
288,104,78311,1,0,0:0:0:0:
288,104,78482,1,8,0:0:0:0:
288,104,78568,1,8,0:0:0:0:
288,104,78654,1,0,0:0:0:0:
320,112,78739,1,0,0:0:0:0:
284,100,78825,1,8,0:0:0:0:
288,104,78997,1,0,0:0:0:0:
288,104,79168,1,8,0:0:0:0:
288,104,79339,1,0,0:0:0:0:
288,104,79425,1,0,0:0:0:0:
288,104,79511,1,8,0:0:0:0:
288,104,79597,1,0,0:0:0:0:
288,104,79682,1,8,0:0:0:0:
288,104,79854,1,0,0:0:0:0:
288,104,80025,1,8,0:0:0:0:
288,104,80111,1,8,0:0:0:0:
288,104,80197,1,0,0:0:0:0:
288,104,80368,1,8,0:0:0:0:
288,104,80539,1,0,0:0:0:0:
288,104,80882,1,8,0:0:0:0:
288,104,81054,1,8,0:0:0:0:
288,104,81225,1,0,0:0:0:0:
288,104,81568,1,8,0:0:0:0:
292,108,81911,1,0,0:0:0:0:
292,108,82254,1,0,0:0:0:0:
292,108,82425,1,0,0:0:0:0:
292,108,82597,1,0,0:0:0:0:
292,108,82939,1,8,0:0:0:0:
292,108,83282,1,0,0:0:0:0:
292,108,83539,1,8,0:0:0:0:
292,108,83797,1,0,0:0:0:0:
292,108,83968,1,0,0:0:0:0:
272,92,84225,1,0,0:0:0:0:
292,108,84311,1,8,0:0:0:0:
280,88,84482,1,0,0:0:0:0:
280,88,84654,1,8,0:0:0:0:
280,88,84825,1,0,0:0:0:0:
280,88,84911,1,0,0:0:0:0:
280,88,84997,1,8,0:0:0:0:
280,88,85168,1,8,0:0:0:0:
280,88,85254,1,8,0:0:0:0:
280,88,85339,1,0,0:0:0:0:
284,88,85511,1,0,0:0:0:0:
284,88,85597,1,0,0:0:0:0:
284,88,85682,1,8,0:0:0:0:
284,88,85768,1,8,0:0:0:0:
284,88,85854,1,8,0:0:0:0:
284,88,85939,1,8,0:0:0:0:
284,88,86025,1,0,0:0:0:0:
292,80,86197,1,0,0:0:0:0:
292,80,86282,1,0,0:0:0:0:
292,80,86368,1,8,0:0:0:0:
280,64,86539,1,0,0:0:0:0:
280,64,86711,1,8,0:0:0:0:
280,64,86882,1,0,0:0:0:0:
280,64,86968,1,0,0:0:0:0:
280,64,87054,1,8,0:0:0:0:
280,64,87225,1,0,0:0:0:0:
280,64,87397,1,8,0:0:0:0:
272,64,87482,1,8,0:0:0:0:
272,64,87568,1,0,0:0:0:0:
272,64,87739,1,8,0:0:0:0:
272,64,87911,1,0,0:0:0:0:
272,64,88082,1,8,0:0:0:0:
272,64,88168,1,8,0:0:0:0:
272,64,88254,1,0,0:0:0:0:
272,64,88339,1,0,0:0:0:0:
272,64,88425,1,8,0:0:0:0:
272,64,88597,1,0,0:0:0:0:
280,64,88768,1,8,0:0:0:0:
272,64,88939,1,8,0:0:0:0:
272,64,89111,1,0,0:0:0:0:
272,64,89282,1,0,0:0:0:0:
272,64,89454,1,0,0:0:0:0:
272,64,89539,1,0,0:0:0:0:
272,64,89625,1,0,0:0:0:0:
272,64,89711,1,0,0:0:0:0:
272,64,89797,1,8,0:0:0:0:
272,64,89882,1,8,0:0:0:0:
272,64,89968,1,0,0:0:0:0:
308,56,90025,1,0,0:0:0:0:
308,56,90082,1,0,0:0:0:0:
272,64,90139,1,8,0:0:0:0:
272,64,90482,1,0,0:0:0:0:
272,64,90568,1,0,0:0:0:0:
272,64,90654,1,0,0:0:0:0:
272,64,90739,1,0,0:0:0:0:
272,64,90825,1,8,0:0:0:0:
272,64,90911,1,8,0:0:0:0:
272,64,90997,1,0,0:0:0:0:
272,64,91082,1,0,0:0:0:0:
272,64,91168,1,8,0:0:0:0:
272,64,91511,1,0,0:0:0:0:
272,64,91682,1,8,0:0:0:0:
272,64,91854,1,0,0:0:0:0:
272,64,92025,1,8,0:0:0:0:
272,64,92197,1,0,0:0:0:0:
272,64,92368,1,8,0:0:0:0:
272,64,92539,1,0,0:0:0:0:
272,64,92711,1,8,0:0:0:0:
256,56,92882,1,0,0:0:0:0:
256,60,93054,1,0,0:0:0:0:
256,60,93225,1,0,0:0:0:0:
256,60,93311,1,0,0:0:0:0:
256,60,93397,1,0,0:0:0:0:
256,60,93482,1,0,0:0:0:0:
256,60,93568,1,8,0:0:0:0:
256,60,93739,1,8,0:0:0:0:
256,56,93825,1,8,0:0:0:0:
256,56,93911,1,8,0:0:0:0:
256,60,94082,1,8,0:0:0:0:
256,60,94168,1,8,0:0:0:0:
288,108,94254,1,0,0:0:0:0:
288,108,94425,1,0,0:0:0:0:
288,108,94511,1,0,0:0:0:0:
288,108,94597,1,8,0:0:0:0:
288,108,94768,1,8,0:0:0:0:
288,108,95111,1,8,0:0:0:0:
288,108,95282,1,8,0:0:0:0:
288,108,95454,1,0,0:0:0:0:
288,108,95625,1,8,0:0:0:0:
288,108,95797,1,8,0:0:0:0:
288,108,95882,1,8,0:0:0:0:
288,108,95968,1,0,0:0:0:0:
288,108,96139,1,0,0:0:0:0:
288,108,96482,1,8,0:0:0:0:
308,108,96654,1,0,0:0:0:0:
308,108,96825,1,8,0:0:0:0:
308,108,96997,1,0,0:0:0:0:
308,108,97168,1,0,0:0:0:0:
308,108,97254,1,0,0:0:0:0:
308,108,97339,1,8,0:0:0:0:
308,108,97511,1,0,0:0:0:0:
308,108,97682,1,8,0:0:0:0:
324,124,97768,1,8,0:0:0:0:
324,124,97854,1,0,0:0:0:0:
308,108,97939,1,0,0:0:0:0:
308,108,98025,1,8,0:0:0:0:
308,108,98197,1,0,0:0:0:0:
308,108,98368,1,8,0:0:0:0:
324,124,98539,1,0,0:0:0:0:
324,124,98625,1,0,0:0:0:0:
324,124,98711,1,8,0:0:0:0:
324,124,98882,1,0,0:0:0:0:
336,128,99054,1,8,0:0:0:0:
324,124,99225,1,0,0:0:0:0:
324,124,99397,1,8,0:0:0:0:
336,128,99568,1,0,0:0:0:0:
288,108,99739,1,8,0:0:0:0:
288,108,99911,1,0,0:0:0:0:
288,108,99997,1,0,0:0:0:0:
288,108,100082,1,8,0:0:0:0:
288,108,100254,1,8,0:0:0:0:
288,108,100597,1,8,0:0:0:0:
288,108,100768,1,8,0:0:0:0:
288,108,100939,1,0,0:0:0:0:
288,108,101111,1,0,0:0:0:0:
288,108,101282,1,0,0:0:0:0:
288,108,101368,1,0,0:0:0:0:
288,108,101454,1,8,0:0:0:0:
288,108,101625,1,0,0:0:0:0:
288,108,101968,1,8,0:0:0:0:
308,108,102139,1,8,0:0:0:0:
308,108,102311,1,0,0:0:0:0:
308,108,102482,1,0,0:0:0:0:
308,108,102654,1,0,0:0:0:0:
308,108,102739,1,0,0:0:0:0:
308,108,102825,1,8,0:0:0:0:
308,108,102997,1,0,0:0:0:0:
308,108,103168,1,8,0:0:0:0:
324,124,103339,1,0,0:0:0:0:
308,108,103425,1,0,0:0:0:0:
308,108,103511,1,8,0:0:0:0:
308,108,103682,1,8,0:0:0:0:
308,108,103854,1,0,0:0:0:0:
324,124,104025,1,0,0:0:0:0:
324,124,104111,1,0,0:0:0:0:
324,124,104197,1,8,0:0:0:0:
324,124,104368,1,8,0:0:0:0:
320,116,104454,1,8,0:0:0:0:
320,116,104539,1,0,0:0:0:0:
324,124,104711,1,0,0:0:0:0:
324,124,104882,1,8,0:0:0:0:
312,104,105054,1,0,0:0:0:0:
288,108,105225,1,8,0:0:0:0:
288,104,105311,1,8,0:0:0:0:
288,108,105397,1,0,0:0:0:0:
288,108,105482,1,0,0:0:0:0:
288,108,105568,1,8,0:0:0:0:
288,108,105739,1,8,0:0:0:0:
268,108,105911,1,0,0:0:0:0:
300,112,105997,1,0,0:0:0:0:
288,108,106082,1,8,0:0:0:0:
300,112,106168,1,0,0:0:0:0:
288,108,106254,1,8,0:0:0:0:
288,108,106425,1,0,0:0:0:0:
288,108,106597,1,8,0:0:0:0:
288,108,106682,1,0,0:0:0:0:
288,108,106768,1,8,0:0:0:0:
288,108,106854,1,8,0:0:0:0:
288,108,106939,1,0,0:0:0:0:
288,108,107111,1,8,0:0:0:0:
288,108,107282,1,0,0:0:0:0:
300,112,107368,1,0,0:0:0:0:
288,108,107454,1,8,0:0:0:0:
300,112,107539,1,0,0:0:0:0:
288,108,107625,1,8,0:0:0:0:
308,108,107797,1,8,0:0:0:0:
308,108,107968,1,0,0:0:0:0:
308,108,108139,1,0,0:0:0:0:
308,108,108225,1,0,0:0:0:0:
308,108,108311,1,8,0:0:0:0:
308,108,108482,1,0,0:0:0:0:
308,108,108654,1,8,0:0:0:0:
324,124,108739,1,8,0:0:0:0:
324,124,108825,1,0,0:0:0:0:
308,108,108911,1,0,0:0:0:0:
308,108,108997,1,8,0:0:0:0:
308,108,109168,1,0,0:0:0:0:
308,108,109339,1,8,0:0:0:0:
300,112,109425,1,8,0:0:0:0:
324,124,109511,1,0,0:0:0:0:
324,124,109597,1,0,0:0:0:0:
324,124,109682,1,8,0:0:0:0:
324,124,109854,1,0,0:0:0:0:
336,128,110025,1,8,0:0:0:0:
324,124,110197,1,8,0:0:0:0:
324,124,110368,1,0,0:0:0:0:
336,128,110539,1,0,0:0:0:0:
288,108,110711,1,8,0:0:0:0:
300,120,110797,1,8,0:0:0:0:
288,108,110882,1,0,0:0:0:0:
288,108,110968,1,0,0:0:0:0:
288,108,111054,1,8,0:0:0:0:
288,108,111225,1,8,0:0:0:0:
300,120,111397,1,0,0:0:0:0:
300,112,111482,1,0,0:0:0:0:
300,120,111568,1,8,0:0:0:0:
300,112,111654,1,0,0:0:0:0:
300,120,111739,1,8,0:0:0:0:
300,120,111911,1,0,0:0:0:0:
300,120,112082,1,8,0:0:0:0:
300,120,112168,1,0,0:0:0:0:
300,120,112254,1,8,0:0:0:0:
300,120,112339,1,8,0:0:0:0:
300,120,112425,1,0,0:0:0:0:
300,120,112597,1,8,0:0:0:0:
336,100,112768,1,0,0:0:0:0:
300,120,112939,1,8,0:0:0:0:
300,112,113025,1,0,0:0:0:0:
300,120,113111,1,8,0:0:0:0:
300,120,113282,1,0,0:0:0:0:
300,120,113454,1,8,0:0:0:0:
300,120,113539,1,0,0:0:0:0:
300,120,113625,1,0,0:0:0:0:
300,120,113711,1,0,0:0:0:0:
300,120,113797,1,8,0:0:0:0:
300,120,113882,1,8,0:0:0:0:
300,120,113968,1,8,0:0:0:0:
300,120,114054,1,8,0:0:0:0:
300,120,114139,1,0,0:0:0:0:
300,120,114225,1,0,0:0:0:0:
300,120,114311,1,0,0:0:0:0:
316,108,114397,1,0,0:0:0:0:
300,120,114482,1,8,0:0:0:0:
300,120,114654,1,8,0:0:0:0:
300,120,114739,1,8,0:0:0:0:
300,120,114825,1,0,0:0:0:0:
328,120,114911,1,0,0:0:0:0:
328,120,114997,1,0,0:0:0:0:
328,120,115082,1,0,0:0:0:0:
328,120,115168,1,8,0:0:0:0:
328,120,115339,1,0,0:0:0:0:
328,120,115425,1,0,0:0:0:0:
328,120,115511,1,8,0:0:0:0:
328,120,115597,1,0,0:0:0:0:
328,120,115682,1,8,0:0:0:0:
328,120,115768,1,8,0:0:0:0:
292,120,115854,1,0,0:0:0:0:
292,120,115911,1,0,0:0:0:0:
292,120,115968,1,0,0:0:0:0:
300,120,116025,1,8,0:0:0:0:
300,120,116111,1,8,0:0:0:0:
300,120,116197,1,0,0:0:0:0:
316,128,116368,1,0,0:0:0:0:
316,120,116454,1,8,0:0:0:0:
316,120,116625,1,0,0:0:0:0:
316,120,116711,1,8,0:0:0:0:
316,120,116882,1,8,0:0:0:0:
300,120,117054,1,0,0:0:0:0:
300,120,117139,1,0,0:0:0:0:
300,120,117225,1,8,0:0:0:0:
312,120,117568,1,4,0:0:0:0:
300,120,117911,1,8,0:0:0:0:
312,120,118254,1,4,0:0:0:0:
328,136,118511,1,8,0:0:0:0:
296,116,118768,1,4,0:0:0:0:
296,116,119111,1,8,0:0:0:0:
300,120,119282,1,8,0:0:0:0:
296,116,119625,1,4,0:0:0:0:
296,116,119968,1,4,0:0:0:0:
300,120,120311,1,8,0:0:0:0:
300,120,120482,1,0,0:0:0:0:
300,120,120568,1,0,0:0:0:0:
300,120,120654,1,8,0:0:0:0:
300,120,120825,1,0,0:0:0:0:
300,120,120997,1,8,0:0:0:0:
300,120,121082,1,8,0:0:0:0:
300,120,121168,1,0,0:0:0:0:
300,120,121254,1,0,0:0:0:0:
300,120,121339,1,8,0:0:0:0:
300,120,121511,1,0,0:0:0:0:
300,120,121682,1,0,0:0:0:0:
300,120,121854,1,8,0:0:0:0:
300,120,122025,1,0,0:0:0:0:
300,120,122111,1,0,0:0:0:0:
300,120,122197,1,8,0:0:0:0:
300,120,122368,1,0,0:0:0:0:
300,120,122454,1,8,0:0:0:0:
300,120,122539,1,0,0:0:0:0:
300,120,122625,1,0,0:0:0:0:
300,120,122711,1,8,0:0:0:0:
300,120,122882,1,8,0:0:0:0:
300,120,122968,1,8,0:0:0:0:
300,120,123054,1,0,0:0:0:0:
300,120,123568,1,8,0:0:0:0:
300,120,123739,1,4,0:0:0:0:
300,120,123997,1,0,0:0:0:0:
300,120,124082,1,8,0:0:0:0:
300,120,124254,1,4,0:0:0:0:
300,120,124597,1,8,0:0:0:0:
300,120,124682,1,8,0:0:0:0:
300,120,124768,1,0,0:0:0:0:
308,132,124854,1,0,0:0:0:0:
300,120,124939,1,8,0:0:0:0:
300,120,125111,1,8,0:0:0:0:
300,120,125282,1,0,0:0:0:0:
298,134,125368,1,0,0:0:0:0:
288,112,125454,1,8,0:0:0:0:
308,124,125539,1,0,0:0:0:0:
300,120,125625,1,8,0:0:0:0:
320,124,125711,1,8,0:0:0:0:
300,120,125797,1,0,0:0:0:0:
308,124,125968,1,8,0:0:0:0:
308,124,126139,1,0,0:0:0:0:
308,124,126225,1,0,0:0:0:0:
308,124,126311,1,8,0:0:0:0:
308,124,126397,1,8,0:0:0:0:
308,124,126482,1,0,0:0:0:0:
308,124,126568,1,0,0:0:0:0:
308,124,126654,1,8,0:0:0:0:
308,124,126739,1,0,0:0:0:0:
308,124,126825,1,0,0:0:0:0:
308,124,126911,1,8,0:0:0:0:
320,128,126997,1,0,0:0:0:0:
320,128,127168,1,4,0:0:0:0:
320,128,127511,1,4,0:0:0:0:
320,128,127854,1,12,0:0:0:0:
320,128,128025,1,0,0:0:0:0:
320,128,128111,1,0,0:0:0:0:
320,128,128197,1,8,0:0:0:0:
320,128,128539,1,0,0:0:0:0:
316,116,128711,1,0,0:0:0:0:
320,128,128882,1,8,0:0:0:0:
320,128,129054,1,0,0:0:0:0:
320,128,129225,1,8,0:0:0:0:
320,128,129397,1,0,0:0:0:0:
320,128,129568,1,0,0:0:0:0:
316,116,129739,1,8,0:0:0:0:
320,128,129911,1,0,0:0:0:0:
320,128,130082,1,0,0:0:0:0:
320,128,130254,1,8,0:0:0:0:
320,128,130425,1,0,0:0:0:0:
320,128,130597,1,8,0:0:0:0:
320,128,130768,1,0,0:0:0:0:
320,128,130939,1,8,0:0:0:0:
320,128,131111,1,0,0:0:0:0:
316,116,131282,1,0,0:0:0:0:
312,128,131625,1,8,0:0:0:0:
304,120,131797,1,0,0:0:0:0:
304,120,131968,1,8,0:0:0:0:
308,112,132139,1,8,0:0:0:0:
304,120,132311,1,0,0:0:0:0:
304,120,132482,1,4,0:0:0:0:
304,120,132825,1,4,0:0:0:0:
304,120,133168,1,4,0:0:0:0:
316,144,133511,1,0,0:0:0:0:
312,124,133597,1,0,0:0:0:0:
312,124,133682,1,8,0:0:0:0:
312,124,133854,1,0,0:0:0:0:
312,124,134025,1,8,0:0:0:0:
308,112,134197,1,0,0:0:0:0:
308,112,134282,1,0,0:0:0:0:
308,112,134368,1,8,0:0:0:0:
308,112,134539,1,0,0:0:0:0:
308,112,134625,1,0,0:0:0:0:
308,112,134711,1,0,0:0:0:0:
308,112,134882,1,0,0:0:0:0:
308,112,135054,1,8,0:0:0:0:
308,112,135225,1,0,0:0:0:0:
308,112,135397,1,8,0:0:0:0:
308,112,135568,1,0,0:0:0:0:
308,112,135654,1,0,0:0:0:0:
308,112,135739,1,8,0:0:0:0:
308,112,135911,1,8,0:0:0:0:
308,112,135997,1,8,0:0:0:0:
308,112,136082,1,0,0:0:0:0:
308,112,136254,1,0,0:0:0:0:
308,112,136425,1,8,0:0:0:0:
308,112,136597,1,0,0:0:0:0:
308,112,136768,1,8,0:0:0:0:
308,112,136939,1,8,0:0:0:0:
308,112,137025,1,8,0:0:0:0:
308,112,137111,1,0,0:0:0:0:
308,112,137282,1,8,0:0:0:0:
308,112,137368,1,8,0:0:0:0:
308,112,137454,1,0,0:0:0:0:
352,112,137539,1,8,0:0:0:0:
308,112,137625,1,0,0:0:0:0:
185,100,137797,1,0,0:0:0:0:
328,112,137968,1,12,0:0:0:0:
200,104,138311,1,8,0:0:0:0:
200,104,138482,1,8,0:0:0:0:
192,104,138654,1,0,0:0:0:0:
304,80,138825,1,8,0:0:0:0:
192,104,138911,1,8,0:0:0:0:
300,72,138997,1,0,0:0:0:0:
192,104,139082,1,0,0:0:0:0:
300,72,139168,1,8,0:0:0:0:
312,68,139225,1,8,0:0:0:0:
320,64,139282,1,8,0:0:0:0:
320,64,139339,1,0,0:0:0:0:
320,56,139425,1,0,0:0:0:0:
320,56,139511,1,8,0:0:0:0:
300,72,139854,1,0,0:0:0:0:
296,76,140197,1,0,0:0:0:0:
296,72,140368,1,0,0:0:0:0:
296,72,140454,1,0,0:0:0:0:
296,72,140539,1,8,0:0:0:0:
320,128,140882,1,0,0:0:0:0:
320,128,141225,1,8,0:0:0:0:
320,128,141397,1,0,0:0:0:0:
320,128,141739,1,0,0:0:0:0:
320,128,141911,1,8,0:0:0:0:
320,128,142082,1,0,0:0:0:0:
300,120,142425,1,8,0:0:0:0:
288,132,142597,1,8,0:0:0:0:
300,120,142768,1,0,0:0:0:0:
300,120,143111,1,8,0:0:0:0:
300,120,143282,1,8,0:0:0:0:
300,120,143454,1,0,0:0:0:0:
300,120,143539,1,0,0:0:0:0:
300,120,143625,1,8,0:0:0:0:
300,120,143797,1,0,0:0:0:0:
300,120,143968,1,8,0:0:0:0:
300,120,144054,1,8,0:0:0:0:
300,120,144139,1,0,0:0:0:0:
300,120,144225,1,0,0:0:0:0:
300,120,144311,1,8,0:0:0:0:
300,120,144482,1,0,0:0:0:0:
300,120,144568,1,0,0:0:0:0:
300,120,144654,1,8,0:0:0:0:
300,120,144825,1,0,0:0:0:0:
300,120,144997,1,0,0:0:0:0:
300,120,145168,1,0,0:0:0:0:
300,120,145254,1,0,0:0:0:0:
300,120,145339,1,8,0:0:0:0:
312,108,145511,1,8,0:0:0:0:
312,112,145597,1,8,0:0:0:0:
308,108,145682,1,0,0:0:0:0:
312,108,145854,1,0,0:0:0:0:
312,112,146025,1,8,0:0:0:0:
312,108,146368,1,0,0:0:0:0:
312,108,146539,1,0,0:0:0:0:
312,112,146711,1,8,0:0:0:0:
304,112,146882,1,0,0:0:0:0:
304,104,147225,1,0,0:0:0:0:
304,104,147397,1,8,0:0:0:0:
304,104,147568,1,0,0:0:0:0:
304,112,147911,1,0,0:0:0:0:
292,100,148082,1,8,0:0:0:0:
288,104,148254,1,8,0:0:0:0:
288,104,148597,1,8,0:0:0:0:
288,104,148768,1,8,0:0:0:0:
288,104,148854,1,8,0:0:0:0:
288,104,148939,1,0,0:0:0:0:
284,100,149111,1,8,0:0:0:0:
288,104,149282,1,0,0:0:0:0:
288,104,149368,1,0,0:0:0:0:
288,104,149454,1,8,0:0:0:0:
288,104,149625,1,0,0:0:0:0:
288,104,149797,1,8,0:0:0:0:
288,104,149882,1,8,0:0:0:0:
288,104,149968,1,0,0:0:0:0:
320,112,150054,1,0,0:0:0:0:
284,100,150139,1,8,0:0:0:0:
288,104,150311,1,0,0:0:0:0:
288,104,150482,1,8,0:0:0:0:
288,104,150654,1,0,0:0:0:0:
288,104,150739,1,0,0:0:0:0:
288,104,150825,1,8,0:0:0:0:
288,104,150911,1,0,0:0:0:0:
288,104,150997,1,8,0:0:0:0:
326,94,151082,1,8,0:0:0:0:
288,104,151168,1,0,0:0:0:0:
288,104,151339,1,8,0:0:0:0:
288,104,151425,1,8,0:0:0:0:
288,104,151511,1,0,0:0:0:0:
288,104,151682,1,8,0:0:0:0:
288,104,151854,1,0,0:0:0:0:
288,104,152197,1,8,0:0:0:0:
288,104,152368,1,8,0:0:0:0:
288,104,152539,1,0,0:0:0:0:
288,104,152882,1,8,0:0:0:0:
292,108,153225,1,0,0:0:0:0:
292,108,153568,1,0,0:0:0:0:
292,108,153739,1,0,0:0:0:0:
292,108,153911,1,0,0:0:0:0:
292,108,154254,1,8,0:0:0:0:
292,108,154597,1,0,0:0:0:0:
292,108,154854,1,8,0:0:0:0:
292,108,155111,1,0,0:0:0:0:
292,108,155282,1,0,0:0:0:0:
272,92,155539,1,0,0:0:0:0:
292,108,155625,1,8,0:0:0:0:
280,88,155797,1,0,0:0:0:0:
280,88,155968,1,8,0:0:0:0:
280,88,156139,1,0,0:0:0:0:
280,88,156225,1,0,0:0:0:0:
280,88,156311,1,8,0:0:0:0:
280,88,156482,1,8,0:0:0:0:
280,88,156568,1,0,0:0:0:0:
280,88,156654,1,8,0:0:0:0:
284,88,156825,1,0,0:0:0:0:
284,88,156911,1,0,0:0:0:0:
284,88,156997,1,8,0:0:0:0:
284,88,157082,1,0,0:0:0:0:
284,88,157168,1,8,0:0:0:0:
284,88,157254,1,8,0:0:0:0:
284,88,157339,1,0,0:0:0:0:
292,80,157511,1,0,0:0:0:0:
292,80,157597,1,0,0:0:0:0:
292,80,157682,1,8,0:0:0:0:
280,64,157854,1,0,0:0:0:0:
280,64,158025,1,8,0:0:0:0:
280,64,158197,1,0,0:0:0:0:
280,64,158282,1,0,0:0:0:0:
280,64,158368,1,8,0:0:0:0:
280,64,158539,1,0,0:0:0:0:
280,64,158711,1,8,0:0:0:0:
272,64,158797,1,0,0:0:0:0:
272,64,158882,1,0,0:0:0:0:
272,64,159054,1,8,0:0:0:0:
272,64,159225,1,0,0:0:0:0:
272,64,159397,1,8,0:0:0:0:
272,64,159482,1,8,0:0:0:0:
272,64,159568,1,0,0:0:0:0:
272,64,159654,1,0,0:0:0:0:
272,64,159739,1,8,0:0:0:0:
272,64,159911,1,0,0:0:0:0:
280,64,160082,1,8,0:0:0:0:
272,64,160254,1,8,0:0:0:0:
272,64,160425,1,8,0:0:0:0:
272,64,160597,1,8,0:0:0:0:
272,64,160768,1,0,0:0:0:0:
272,64,160854,1,0,0:0:0:0:
272,64,160939,1,0,0:0:0:0:
272,64,161025,1,0,0:0:0:0:
272,64,161111,1,8,0:0:0:0:
272,64,161197,1,8,0:0:0:0:
272,64,161282,1,8,0:0:0:0:
308,56,161339,1,8,0:0:0:0:
308,56,161397,1,8,0:0:0:0:
272,64,161454,1,0,0:0:0:0:
272,64,161797,1,0,0:0:0:0:
272,64,161882,1,0,0:0:0:0:
272,64,161968,1,0,0:0:0:0:
272,64,162054,1,0,0:0:0:0:
272,64,162139,1,8,0:0:0:0:
272,64,162225,1,8,0:0:0:0:
272,64,162311,1,0,0:0:0:0:
272,64,162397,1,0,0:0:0:0:
272,64,162482,1,8,0:0:0:0:
272,64,162825,1,0,0:0:0:0:
272,64,162997,1,8,0:0:0:0:
272,64,163168,1,0,0:0:0:0:
272,64,163339,1,8,0:0:0:0:
272,64,163511,1,0,0:0:0:0:
272,64,163682,1,8,0:0:0:0:
272,64,163854,1,0,0:0:0:0:
272,64,164025,1,8,0:0:0:0:
256,56,164197,1,0,0:0:0:0:
256,60,164368,1,0,0:0:0:0:
256,60,164539,1,0,0:0:0:0:
256,60,164711,1,0,0:0:0:0:
256,60,164882,1,0,0:0:0:0:
256,64,164968,1,0,0:0:0:0:
256,64,165054,1,0,0:0:0:0:
256,64,165139,1,0,0:0:0:0:
256,56,165225,1,8,0:0:0:0:
256,60,165568,1,8,0:0:0:0:
256,60,165739,1,0,0:0:0:0:
256,60,165825,1,0,0:0:0:0:
256,60,165911,1,8,0:0:0:0:
256,64,166082,1,0,0:0:0:0:
240,72,166254,1,0,0:0:0:0:
241,71,166425,1,0,0:0:0:0:
241,71,166511,1,0,0:0:0:0:
241,71,166597,1,8,0:0:0:0:
241,71,166768,1,0,0:0:0:0:
261,64,166939,1,0,0:0:0:0:
234,82,167111,1,0,0:0:0:0:
234,81,167282,1,8,0:0:0:0:
234,81,167454,1,0,0:0:0:0:
241,71,167625,1,0,0:0:0:0:
241,71,167711,1,0,0:0:0:0:
241,71,167797,1,0,0:0:0:0:
241,71,167882,1,0,0:0:0:0:
241,71,167968,1,8,0:0:0:0:
241,71,168139,1,0,0:0:0:0:
240,72,168311,1,0,0:0:0:0:
241,71,168482,1,0,0:0:0:0:
241,71,168568,1,0,0:0:0:0:
241,71,168654,1,8,0:0:0:0:
241,71,168825,1,0,0:0:0:0:
241,71,168997,1,0,0:0:0:0:
241,71,169082,1,0,0:0:0:0:
241,71,169168,1,8,0:0:0:0:
240,72,169254,1,0,0:0:0:0:
240,72,169339,1,8,0:0:0:0:
241,71,169511,1,0,0:0:0:0:
241,71,169682,1,0,0:0:0:0:
241,71,169854,1,0,0:0:0:0:
241,71,169939,1,0,0:0:0:0:
241,71,170025,1,8,0:0:0:0:
241,71,170197,1,0,0:0:0:0:
241,71,170539,1,0,0:0:0:0:
241,71,170711,1,8,0:0:0:0:
241,71,170882,1,0,0:0:0:0:
246,67,171054,1,8,0:0:0:0:
241,71,171225,1,0,0:0:0:0:
240,52,171311,1,0,0:0:0:0:
241,71,171397,1,8,0:0:0:0:
241,71,171568,1,0,0:0:0:0:
241,71,171739,1,0,0:0:0:0:
241,71,171911,1,0,0:0:0:0:
241,71,171997,1,0,0:0:0:0:
241,71,172082,1,8,0:0:0:0:
241,71,172254,1,0,0:0:0:0:
234,81,172425,1,0,0:0:0:0:
234,81,172597,1,0,0:0:0:0:
234,81,172768,1,8,0:0:0:0:
234,81,172939,1,0,0:0:0:0:
234,81,173111,1,0,0:0:0:0:
234,81,173197,1,0,0:0:0:0:
234,81,173282,1,0,0:0:0:0:
234,81,173368,1,0,0:0:0:0:
234,81,173454,1,8,0:0:0:0:
234,81,173625,1,0,0:0:0:0:
234,81,173797,1,0,0:0:0:0:
234,81,173968,1,0,0:0:0:0:
234,81,174054,1,0,0:0:0:0:
234,81,174139,1,8,0:0:0:0:
234,81,174311,1,0,0:0:0:0:
234,81,174482,1,0,0:0:0:0:
234,81,174568,1,0,0:0:0:0:
234,81,174654,1,8,0:0:0:0:
234,81,174739,1,0,0:0:0:0:
234,81,174825,1,8,0:0:0:0:
234,81,174997,1,0,0:0:0:0:
234,81,175168,1,0,0:0:0:0:
234,81,175339,1,0,0:0:0:0:
234,81,175511,1,8,0:0:0:0:
234,81,175682,1,0,0:0:0:0:
234,81,175768,1,0,0:0:0:0:
234,81,175854,1,0,0:0:0:0:
234,81,176025,1,0,0:0:0:0:
234,81,176197,1,8,0:0:0:0:
234,81,176368,1,0,0:0:0:0:
234,81,176539,1,8,0:0:0:0:
234,81,176711,1,0,0:0:0:0:
234,81,176882,1,8,0:0:0:0:
241,85,177054,1,0,0:0:0:0:
241,85,177397,1,8,0:0:0:0:
241,85,177568,1,0,0:0:0:0:
241,85,177739,1,8,0:0:0:0:
241,85,177911,1,0,0:0:0:0:
241,85,178082,1,8,0:0:0:0:
241,85,178254,1,0,0:0:0:0:
241,85,178425,1,8,0:0:0:0:
241,85,178768,1,8,0:0:0:0:
236,68,178939,1,0,0:0:0:0:
238,74,179111,1,8,0:0:0:0:
238,74,179282,1,0,0:0:0:0:
238,74,179454,1,8,0:0:0:0:
238,74,179625,1,0,0:0:0:0:
238,74,179968,1,8,0:0:0:0:
238,74,180139,1,0,0:0:0:0:
238,74,180311,1,8,0:0:0:0:
238,74,180654,1,8,0:0:0:0:
238,74,180825,1,8,0:0:0:0:
238,74,180997,1,0,0:0:0:0:
238,74,181168,1,8,0:0:0:0:
238,74,181511,1,8,0:0:0:0:
238,74,181682,1,0,0:0:0:0:
238,74,181854,1,8,0:0:0:0:
238,74,182025,1,0,0:0:0:0:
238,74,182197,1,8,0:0:0:0:
238,74,182368,1,0,0:0:0:0:
238,74,182539,1,8,0:0:0:0:
238,74,182882,1,8,0:0:0:0:
238,74,183054,1,0,0:0:0:0:
238,74,183225,1,8,0:0:0:0:
238,74,183397,1,0,0:0:0:0:
238,74,183568,1,8,0:0:0:0:
238,74,183739,1,0,0:0:0:0:
238,74,183911,1,8,0:0:0:0:
238,74,184254,1,8,0:0:0:0:
238,74,184425,1,0,0:0:0:0:
238,74,184597,1,8,0:0:0:0:
238,74,184768,1,0,0:0:0:0:
238,74,184854,1,0,0:0:0:0:
238,74,184939,1,0,0:0:0:0:
238,74,185025,1,0,0:0:0:0:
238,74,185111,1,8,0:0:0:0:
238,74,185197,1,8,0:0:0:0:
238,74,185282,1,8,0:0:0:0:
238,74,185368,1,8,0:0:0:0:
238,74,185454,1,0,0:0:0:0:
238,74,185539,1,0,0:0:0:0:
238,74,185625,1,8,0:0:0:0:
238,74,185711,1,8,0:0:0:0:
238,74,185797,1,0,0:0:0:0:
238,74,185882,1,0,0:0:0:0:
244,89,185968,1,8,0:0:0:0:
244,59,186025,1,8,0:0:0:0:
244,59,186082,1,8,0:0:0:0:
238,74,186139,1,0,0:0:0:0:
244,74,186997,1,0,0:0:0:0:
244,74,187082,1,0,0:0:0:0:
238,74,187168,1,8,0:0:0:0:
246,65,187339,1,0,0:0:0:0:
246,65,187511,1,12,0:0:0:0:
246,65,187854,1,8,0:0:0:0:
246,65,187939,1,8,0:0:0:0:
246,65,188025,1,0,0:0:0:0:
246,65,188197,1,8,0:0:0:0:
267,42,188368,1,8,0:0:0:0:
257,65,188539,1,0,0:0:0:0:
246,65,188711,1,0,0:0:0:0:
257,65,188882,1,8,0:0:0:0:
268,60,189054,1,0,0:0:0:0:
268,60,189225,1,8,0:0:0:0:
268,60,189311,1,8,0:0:0:0:
268,60,189397,1,0,0:0:0:0:
257,65,189568,1,0,0:0:0:0:
257,65,189739,1,8,0:0:0:0:
257,65,189911,1,8,0:0:0:0:
257,65,190082,1,0,0:0:0:0:
257,65,190254,1,4,0:0:0:0:
257,65,190597,1,8,0:0:0:0:
257,65,190682,1,8,0:0:0:0:
257,65,190768,1,0,0:0:0:0:
257,65,190939,1,8,0:0:0:0:
257,65,191111,1,0,0:0:0:0:
257,65,191197,1,0,0:0:0:0:
257,65,191282,1,8,0:0:0:0:
257,65,191454,1,0,0:0:0:0:
257,65,191625,1,0,0:0:0:0:
257,65,191711,1,0,0:0:0:0:
257,65,191797,1,8,0:0:0:0:
257,65,191882,1,0,0:0:0:0:
257,65,191968,1,8,0:0:0:0:
257,65,192139,1,0,0:0:0:0:
257,65,192311,1,0,0:0:0:0:
257,65,192482,1,8,0:0:0:0:
257,65,192654,1,8,0:0:0:0:
257,65,192825,1,0,0:0:0:0:
257,65,192997,1,4,0:0:0:0:
257,65,193339,1,8,0:0:0:0:
257,65,193511,1,0,0:0:0:0:
257,65,193682,1,0,0:0:0:0:
257,65,194025,1,8,0:0:0:0:
257,65,194197,1,8,0:0:0:0:
257,65,194368,1,4,0:0:0:0:
257,65,194711,1,8,0:0:0:0:
257,65,194882,1,0,0:0:0:0:
244,53,195054,1,8,0:0:0:0:
244,53,195225,1,0,0:0:0:0:
244,53,195311,1,0,0:0:0:0:
244,53,195397,1,8,0:0:0:0:
244,53,195568,1,0,0:0:0:0:
244,53,195739,1,8,0:0:0:0:
244,53,195911,1,0,0:0:0:0:
244,53,195997,1,0,0:0:0:0:
244,53,196082,1,8,0:0:0:0:
244,53,196254,1,0,0:0:0:0:
244,53,196339,1,0,0:0:0:0:
244,53,196425,1,8,0:0:0:0:
244,53,196511,1,0,0:0:0:0:
244,53,196597,1,8,0:0:0:0:
244,53,196682,1,8,0:0:0:0:
244,53,196768,1,0,0:0:0:0:
244,53,196939,1,8,0:0:0:0:
244,53,197025,1,8,0:0:0:0:
244,53,197111,1,0,0:0:0:0:
244,53,197625,1,8,0:0:0:0:
244,53,197711,1,8,0:0:0:0:
244,53,197797,1,0,0:0:0:0:
244,56,200711,5,12,0:0:0:0:
244,56,200882,1,12,0:0:0:0:
248,62,201225,1,4,0:0:0:0:
248,62,201568,1,4,0:0:0:0:
248,62,201739,1,4,0:0:0:0:
248,62,202082,1,4,0:0:0:0:
248,62,202425,1,4,0:0:0:0:
248,62,202768,1,4,0:0:0:0:
255,76,202939,1,0,0:0:0:0:
248,62,203111,1,4,0:0:0:0:
248,62,203454,1,0,0:0:0:0:
248,62,203539,1,0,0:0:0:0:
248,62,203625,1,8,0:0:0:0:
320,128,203968,1,0,0:0:0:0:
304,145,204139,1,0,0:0:0:0:
320,128,204311,1,0,0:0:0:0:
320,128,204482,1,8,0:0:0:0:
320,128,204825,1,0,0:0:0:0:
320,128,204997,1,0,0:0:0:0:
320,128,205168,1,8,0:0:0:0:
300,120,205511,1,8,0:0:0:0:
288,132,205682,1,0,0:0:0:0:
300,120,205854,1,8,0:0:0:0:
300,120,206197,1,0,0:0:0:0:
286,128,206282,1,0,0:0:0:0:
300,120,206368,1,8,0:0:0:0:
300,120,206539,1,0,0:0:0:0:
300,120,206711,1,8,0:0:0:0:
300,120,206882,1,0,0:0:0:0:
300,120,206968,1,0,0:0:0:0:
300,120,207054,1,8,0:0:0:0:
300,120,207225,1,0,0:0:0:0:
300,120,207397,1,8,0:0:0:0:
300,120,207482,1,8,0:0:0:0:
300,120,207568,1,0,0:0:0:0:
300,120,207654,1,0,0:0:0:0:
300,120,207739,1,8,0:0:0:0:
300,120,207911,1,0,0:0:0:0:
300,120,208082,1,8,0:0:0:0:
300,120,208254,1,0,0:0:0:0:
300,120,208339,1,0,0:0:0:0:
300,120,208425,1,8,0:0:0:0:
320,116,208511,1,0,0:0:0:0:
312,108,208597,1,8,0:0:0:0:
312,112,208682,1,8,0:0:0:0:
308,108,208768,1,0,0:0:0:0:
312,108,208939,1,0,0:0:0:0:
312,112,209111,1,8,0:0:0:0:
312,108,209454,1,0,0:0:0:0:
312,108,209625,1,0,0:0:0:0:
312,112,209797,1,8,0:0:0:0:
304,112,209968,1,0,0:0:0:0:
304,104,210311,1,0,0:0:0:0:
304,104,210482,1,8,0:0:0:0:
304,104,210654,1,0,0:0:0:0:
304,112,210997,1,0,0:0:0:0:
292,100,211168,1,8,0:0:0:0:
288,104,211339,1,8,0:0:0:0:
288,104,211682,1,8,0:0:0:0:
288,104,211854,1,8,0:0:0:0:
288,104,211939,1,8,0:0:0:0:
288,104,212025,1,0,0:0:0:0:
284,100,212197,1,8,0:0:0:0:
288,104,212368,1,0,0:0:0:0:
288,104,212454,1,0,0:0:0:0:
288,104,212539,1,8,0:0:0:0:
288,104,212711,1,0,0:0:0:0:
288,104,212882,1,8,0:0:0:0:
288,104,212968,1,8,0:0:0:0:
288,104,213054,1,0,0:0:0:0:
320,112,213139,1,0,0:0:0:0:
284,100,213225,1,8,0:0:0:0:
288,104,213397,1,0,0:0:0:0:
288,104,213568,1,8,0:0:0:0:
288,104,213739,1,0,0:0:0:0:
288,104,213825,1,0,0:0:0:0:
288,104,213911,1,8,0:0:0:0:
288,104,213997,1,0,0:0:0:0:
288,104,214082,1,8,0:0:0:0:
288,104,214254,1,0,0:0:0:0:
288,104,214425,1,8,0:0:0:0:
288,104,214511,1,8,0:0:0:0:
288,104,214597,1,0,0:0:0:0:
288,104,214768,1,8,0:0:0:0:
288,104,214939,1,0,0:0:0:0:
288,104,215282,1,8,0:0:0:0:
288,104,215454,1,8,0:0:0:0:
288,104,215625,1,0,0:0:0:0:
288,104,215968,1,8,0:0:0:0:
292,108,216311,1,0,0:0:0:0:
292,108,216654,1,0,0:0:0:0:
292,108,216825,1,0,0:0:0:0:
292,108,216997,1,0,0:0:0:0:
292,108,217339,1,8,0:0:0:0:
292,108,217682,1,0,0:0:0:0:
292,108,217939,1,8,0:0:0:0:
292,108,218197,1,0,0:0:0:0:
292,108,218368,1,0,0:0:0:0:
272,92,218625,1,0,0:0:0:0:
292,108,218711,1,8,0:0:0:0:
280,88,218882,1,0,0:0:0:0:
280,88,219054,1,8,0:0:0:0:
280,88,219225,1,0,0:0:0:0:
280,88,219311,1,0,0:0:0:0:
280,88,219397,1,8,0:0:0:0:
280,88,219568,1,8,0:0:0:0:
280,88,219654,1,8,0:0:0:0:
280,88,219739,1,0,0:0:0:0:
284,88,219911,1,0,0:0:0:0:
284,88,219997,1,0,0:0:0:0:
284,88,220082,1,8,0:0:0:0:
284,88,220168,1,8,0:0:0:0:
284,88,220254,1,8,0:0:0:0:
284,88,220339,1,8,0:0:0:0:
284,88,220425,1,0,0:0:0:0:
292,80,220597,1,0,0:0:0:0:
292,80,220682,1,0,0:0:0:0:
292,80,220768,1,8,0:0:0:0:
280,64,220939,1,0,0:0:0:0:
280,64,221111,1,8,0:0:0:0:
280,64,221282,1,0,0:0:0:0:
280,64,221368,1,0,0:0:0:0:
280,64,221454,1,8,0:0:0:0:
280,64,221625,1,0,0:0:0:0:
280,64,221797,1,8,0:0:0:0:
272,64,221882,1,8,0:0:0:0:
272,64,221968,1,0,0:0:0:0:
272,64,222139,1,8,0:0:0:0:
272,64,222311,1,0,0:0:0:0:
272,64,222482,1,8,0:0:0:0:
272,64,222568,1,8,0:0:0:0:
272,64,222654,1,0,0:0:0:0:
272,64,222739,1,0,0:0:0:0:
272,64,222825,1,8,0:0:0:0:
272,64,222997,1,0,0:0:0:0:
280,64,223168,1,8,0:0:0:0:
272,64,223339,1,8,0:0:0:0:
272,64,223511,1,0,0:0:0:0:
272,64,223682,1,0,0:0:0:0:
272,64,223854,1,0,0:0:0:0:
272,64,223939,1,0,0:0:0:0:
272,64,224025,1,0,0:0:0:0:
272,64,224111,1,0,0:0:0:0:
272,64,224197,1,8,0:0:0:0:
272,64,224282,1,8,0:0:0:0:
272,64,224368,1,0,0:0:0:0:
308,56,224425,1,0,0:0:0:0:
308,56,224482,1,0,0:0:0:0:
272,64,224539,1,8,0:0:0:0:
272,64,224882,1,0,0:0:0:0:
272,64,224968,1,0,0:0:0:0:
272,64,225054,1,0,0:0:0:0:
272,64,225139,1,0,0:0:0:0:
272,64,225225,1,8,0:0:0:0:
272,64,225311,1,8,0:0:0:0:
272,64,225397,1,0,0:0:0:0:
272,64,225482,1,0,0:0:0:0:
272,64,225568,1,8,0:0:0:0:
272,64,225911,1,0,0:0:0:0:
272,64,226082,1,8,0:0:0:0:
272,64,226254,1,0,0:0:0:0:
272,64,226425,1,8,0:0:0:0:
272,64,226597,1,0,0:0:0:0:
272,64,226768,1,8,0:0:0:0:
272,64,226939,1,0,0:0:0:0:
272,64,227111,1,8,0:0:0:0:
256,56,227282,1,0,0:0:0:0:
256,60,227454,1,0,0:0:0:0:
256,60,227625,1,0,0:0:0:0:
256,60,227711,1,0,0:0:0:0:
256,60,227797,1,0,0:0:0:0:
256,60,227882,1,0,0:0:0:0:
256,60,227968,1,8,0:0:0:0:
256,60,228139,1,8,0:0:0:0:
256,56,228225,1,8,0:0:0:0:
256,56,228311,1,8,0:0:0:0:
256,60,228482,1,8,0:0:0:0:
256,60,228568,1,8,0:0:0:0:
288,108,228654,1,0,0:0:0:0:
288,108,228825,1,0,0:0:0:0:
288,108,228997,1,8,0:0:0:0:
288,108,229168,1,8,0:0:0:0:
288,108,229511,1,8,0:0:0:0:
288,108,229682,1,8,0:0:0:0:
288,108,229854,1,0,0:0:0:0:
288,108,230025,1,0,0:0:0:0:
288,108,230197,1,0,0:0:0:0:
288,108,230368,1,8,0:0:0:0:
288,108,230539,1,0,0:0:0:0:
288,108,230882,1,8,0:0:0:0:
308,108,231054,1,0,0:0:0:0:
308,108,231225,1,8,0:0:0:0:
308,108,231397,1,0,0:0:0:0:
308,108,231568,1,0,0:0:0:0:
308,108,231654,1,0,0:0:0:0:
308,108,231739,1,8,0:0:0:0:
308,108,231911,1,0,0:0:0:0:
308,108,232082,1,8,0:0:0:0:
324,124,232168,1,8,0:0:0:0:
324,124,232254,1,0,0:0:0:0:
308,108,232339,1,0,0:0:0:0:
308,108,232425,1,8,0:0:0:0:
308,108,232597,1,0,0:0:0:0:
308,108,232768,1,8,0:0:0:0:
324,124,232939,1,0,0:0:0:0:
324,124,233025,1,0,0:0:0:0:
324,124,233111,1,8,0:0:0:0:
324,124,233282,1,0,0:0:0:0:
336,128,233454,1,8,0:0:0:0:
324,124,233625,1,0,0:0:0:0:
324,124,233797,1,8,0:0:0:0:
336,128,233968,1,0,0:0:0:0:
288,108,234139,1,8,0:0:0:0:
288,108,234311,1,0,0:0:0:0:
288,108,234482,1,8,0:0:0:0:
288,108,234654,1,8,0:0:0:0:
305,122,234997,1,0,0:0:0:0:
288,108,235168,1,8,0:0:0:0:
305,122,235339,1,8,0:0:0:0:
288,108,235511,1,0,0:0:0:0:
288,108,235682,1,0,0:0:0:0:
288,108,235854,1,8,0:0:0:0:
288,108,236025,1,0,0:0:0:0:
288,108,236368,1,8,0:0:0:0:
308,108,236539,1,8,0:0:0:0:
308,108,236711,1,0,0:0:0:0:
308,108,236882,1,0,0:0:0:0:
308,108,237054,1,0,0:0:0:0:
308,108,237139,1,0,0:0:0:0:
308,108,237225,1,8,0:0:0:0:
308,108,237397,1,0,0:0:0:0:
308,108,237568,1,8,0:0:0:0:
324,124,237739,1,0,0:0:0:0:
308,108,237825,1,0,0:0:0:0:
308,108,237911,1,8,0:0:0:0:
305,122,237997,1,0,0:0:0:0:
308,108,238082,1,8,0:0:0:0:
308,108,238254,1,0,0:0:0:0:
324,124,238425,1,0,0:0:0:0:
324,124,238511,1,0,0:0:0:0:
324,124,238597,1,8,0:0:0:0:
324,124,238768,1,8,0:0:0:0:
320,116,238854,1,8,0:0:0:0:
320,116,238939,1,0,0:0:0:0:
324,124,239111,1,0,0:0:0:0:
324,124,239282,1,8,0:0:0:0:
312,104,239454,1,0,0:0:0:0:
288,108,239625,1,8,0:0:0:0:
288,104,239711,1,8,0:0:0:0:
288,108,239797,1,0,0:0:0:0:
288,108,239882,1,0,0:0:0:0:
288,108,239968,1,8,0:0:0:0:
248,113,240054,1,0,0:0:0:0:
288,108,240139,1,8,0:0:0:0:
268,108,240311,1,0,0:0:0:0:
288,108,240482,1,8,0:0:0:0:
300,112,240568,1,8,0:0:0:0:
288,108,240654,1,8,0:0:0:0:
288,108,240825,1,0,0:0:0:0:
288,108,240997,1,8,0:0:0:0:
288,108,241082,1,0,0:0:0:0:
288,108,241168,1,8,0:0:0:0:
288,108,241254,1,8,0:0:0:0:
288,108,241339,1,0,0:0:0:0:
274,120,241425,1,0,0:0:0:0:
288,108,241511,1,8,0:0:0:0:
288,108,241682,1,0,0:0:0:0:
288,108,241854,1,0,0:0:0:0:
300,112,241939,1,0,0:0:0:0:
288,108,242025,1,8,0:0:0:0:
308,108,242197,1,0,0:0:0:0:
308,108,242368,1,8,0:0:0:0:
308,108,242539,1,0,0:0:0:0:
308,108,242625,1,0,0:0:0:0:
308,108,242711,1,8,0:0:0:0:
308,108,242882,1,0,0:0:0:0:
308,108,243054,1,8,0:0:0:0:
324,124,243139,1,8,0:0:0:0:
324,124,243225,1,0,0:0:0:0:
308,108,243311,1,0,0:0:0:0:
308,108,243397,1,8,0:0:0:0:
308,108,243568,1,0,0:0:0:0:
308,108,243739,1,8,0:0:0:0:
324,124,243911,1,0,0:0:0:0:
324,124,243997,1,0,0:0:0:0:
324,124,244082,1,8,0:0:0:0:
324,124,244254,1,0,0:0:0:0:
336,128,244425,1,8,0:0:0:0:
290,136,244511,1,8,0:0:0:0:
324,124,244597,1,0,0:0:0:0:
323,121,244682,1,0,0:0:0:0:
322,121,244768,1,8,0:0:0:0:
324,124,244854,1,0,0:0:0:0:
324,124,244939,1,8,0:0:0:0:
288,108,245111,1,8,0:0:0:0:
288,108,245282,1,0,0:0:0:0:
288,108,245368,1,0,0:0:0:0:
288,108,245454,1,8,0:0:0:0:
301,138,245539,1,0,0:0:0:0:
288,108,245625,1,8,0:0:0:0:
300,120,245797,1,0,0:0:0:0:
300,120,245968,1,8,0:0:0:0:
300,112,246054,1,0,0:0:0:0:
300,120,246139,1,8,0:0:0:0:
300,120,246311,1,0,0:0:0:0:
300,120,246482,1,8,0:0:0:0:
300,120,246568,1,0,0:0:0:0:
300,120,246654,1,8,0:0:0:0:
300,120,246739,1,8,0:0:0:0:
300,120,246825,1,0,0:0:0:0:
300,120,246911,1,0,0:0:0:0:
300,120,246997,1,8,0:0:0:0:
336,100,247168,1,0,0:0:0:0:
300,120,247339,1,8,0:0:0:0:
300,112,247425,1,8,0:0:0:0:
300,120,247511,1,8,0:0:0:0:
300,120,247682,1,0,0:0:0:0:
300,120,247854,1,8,0:0:0:0:
300,120,247939,1,8,0:0:0:0:
300,120,248025,1,8,0:0:0:0:
300,120,248111,1,8,0:0:0:0:
300,120,248197,1,0,0:0:0:0:
300,120,248282,1,0,0:0:0:0:
300,120,248368,1,0,0:0:0:0:
300,120,248454,1,0,0:0:0:0:
300,120,248539,1,8,0:0:0:0:
300,120,248625,1,8,0:0:0:0:
300,120,248711,1,8,0:0:0:0:
316,108,248797,1,8,0:0:0:0:
300,120,248882,1,0,0:0:0:0:
310,108,248968,1,8,0:0:0:0:
300,120,249054,1,0,0:0:0:0:
300,120,249139,1,0,0:0:0:0:
300,120,249225,1,8,0:0:0:0:
314,115,249568,1,8,0:0:0:0:
314,115,249654,1,0,0:0:0:0:
328,120,249739,1,0,0:0:0:0:
314,115,249825,1,0,0:0:0:0:
328,120,249911,1,8,0:0:0:0:
314,115,249997,1,8,0:0:0:0:
328,120,250082,1,8,0:0:0:0:
328,120,250168,1,8,0:0:0:0:
292,120,250254,1,0,0:0:0:0:
292,120,250311,1,0,0:0:0:0:
292,120,250368,1,0,0:0:0:0:
300,120,250425,1,8,0:0:0:0:
300,120,250511,1,8,0:0:0:0:
300,120,250597,1,0,0:0:0:0:
270,123,250939,1,8,0:0:0:0:
270,123,251282,1,4,0:0:0:0:
270,123,251625,1,8,0:0:0:0:
270,123,251797,1,4,0:0:0:0:
270,123,252139,1,8,0:0:0:0:
270,123,252311,1,4,0:0:0:0:
270,123,252654,1,4,0:0:0:0:
270,123,252825,1,0,0:0:0:0:
270,123,252911,1,0,0:0:0:0:
270,123,252997,1,8,0:0:0:0:
270,123,253168,1,8,0:0:0:0:
270,123,253254,1,8,0:0:0:0:
270,123,253339,1,0,0:0:0:0:
