osu file format v14

[General]
AudioFilename: audio.mp3
AudioLeadIn: 0
PreviewTime: 37917
Countdown: 0
SampleSet: Soft
StackLeniency: 0.7
Mode: 0
LetterboxInBreaks: 0
WidescreenStoryboard: 1

[Editor]
DistanceSpacing: 1.5
BeatDivisor: 4
GridSize: 8
TimelineZoom: 1.6

[Metadata]
Title:Ke-Mo-No-Da-Mo-No
TitleUnicode:け・も・の・だ・も・の
Artist:Doubutsu Biscuits x PPP
ArtistUnicode:どうぶつビスケッツ×PPP
Creator:rosario wknd
Version:Hard
Source:けものフレンズ3
Tags:kemono friends 3 op opening japanese j-pop video game sega サーバル Serval フェネック Fennec アライグマ common raccoon 尾崎由香 Yuka Ozaki 小野早稀 Akane Misaka 小野早稀 Saki Ono ペパプ PENGUINS Performance Project. Royal Emperor Gentoo Rockhopper Humboldt penguin 佐々木未来 Mikoi Sasaki 根本流風 Nemoto Ruka 田村響華 Tamura Kyouka 相羽あいな Aina Aiba 築田行子 Chikuta Ikuko
BeatmapID:2157718
BeatmapSetID:1029394

[Difficulty]
HPDrainRate:5
CircleSize:3.8
OverallDifficulty:6
ApproachRate:8
SliderMultiplier:1.3
SliderTickRate:1

[Events]
//Background and Video events
Video,0,"animals.avi"
0,0,"dhole.jpg",0,0
//Break Periods
//Storyboard Layer 0 (Background)
//Storyboard Layer 1 (Fail)
//Storyboard Layer 2 (Pass)
//Storyboard Layer 3 (Foreground)
//Storyboard Layer 4 (Overlay)
//Storyboard Sound Samples

[TimingPoints]
233,370.37037037037,4,2,1,40,1,0
1714,-100,4,2,1,50,0,0
6899,370.37037037037,4,2,1,40,1,0
6899,-100,4,2,1,40,0,0
8288,-100,4,2,1,40,0,0
8380,-100,4,2,1,50,0,0
17269,-100,4,2,1,35,0,0
17270,-100,4,2,1,35,0,0
20232,-100,4,2,1,50,0,0
35047,-100,4,2,1,55,0,0
36898,-100,4,2,1,50,0,0
38010,-100,4,2,1,65,0,1
49861,-100,4,2,1,50,0,0
61713,-100,4,2,1,55,0,0
61714,-100,4,2,1,55,0,0
63195,-100,4,2,1,60,0,0
74861,-100,4,2,1,65,0,1
88195,-100,4,2,1,60,0,0

[Colours]
Combo1 : 220,180,41
Combo2 : 226,100,82
Combo3 : 228,218,221
Combo4 : 200,163,140

[HitObjects]
256,192,233,12,0,1344,0:0:0:0:
0,92,1714,6,0,P|-14:128|66:145,1,130,6|0,0:0|0:0,0:0:0:0:
166,38,2455,2,0,P|137:11|90:74,1,130,6|0,0:0|0:0,0:0:0:0:
157,141,3196,6,0,B|283:131|205:182|349:167,1,195,6|0,0:0|0:0,0:0:0:0:
427,150,3936,1,6,0:0:0:0:
407,227,4121,1,2,0:0:0:0:
345,167,4307,1,2,0:0:0:0:
368,85,4492,1,2,0:0:0:0:
345,167,4677,6,0,L|185:157,1,130,6|0,0:0|0:0,0:0:0:0:
166,76,5232,1,0,0:0:0:0:
95,126,5418,2,0,L|101:211,1,65,6|0,0:0|0:0,0:0:0:0:
103,224,5695,1,2,0:0:0:0:
103,224,5788,1,2,0:0:0:0:
188,182,5973,1,2,0:0:0:0:
181,270,6159,6,0,P|131:309|65:298,2,130,12|8|12,0:0|0:0|0:0,0:0:0:0:
188,182,7084,1,8,3:0:0:0:
231,109,7270,2,0,L|301:116,1,65,8|0,3:0|0:0,0:0:0:0:
331,143,7547,2,0,L|401:139,1,65,8|8,3:0|3:0,0:0:0:0:
492,53,7918,1,8,3:0:0:0:
492,53,8010,2,0,L|497:132,1,65,10|10,3:0|3:0,0:0:0:0:
378,31,8381,6,0,P|344:20|303:33,1,65,6|2,0:0|0:0,0:0:0:0:
388,172,8751,2,0,P|409:143|412:108,1,65,2|2,0:0|0:0,0:0:0:0:
304,114,9121,2,0,L|233:117,1,65,2|2,0:0|0:0,0:0:0:0:
203,145,9399,2,0,L|124:141,1,65,2|0,0:0|0:0,0:0:0:0:
89,147,9677,1,10,0:0:0:0:
89,147,9770,1,2,0:0:0:0:
89,147,9862,6,0,P|80:114|96:76,1,65,6|2,0:0|0:0,0:0:0:0:
119,240,10232,2,0,P|85:249|46:233,1,65,2|2,0:0|0:0,0:0:0:0:
203,145,10603,2,0,L|211:217,1,65,2|2,0:0|0:0,0:0:0:0:
189,253,10881,2,0,L|182:337,1,65,2|0,0:0|0:0,0:0:0:0:
198,363,11158,1,8,0:0:0:0:
198,363,11251,1,2,0:0:0:0:
198,363,11344,6,0,P|232:369|284:352,1,65,6|2,0:0|0:0,0:0:0:0:
324,292,11714,2,0,P|360:286|399:299,1,65,2|0,0:0|0:0,0:0:0:0:
458,247,12084,2,0,L|464:171,1,65,2|2,0:0|0:0,0:0:0:0:
492,147,12362,2,0,L|486:72,1,65,2|0,0:0|0:0,0:0:0:0:
462,39,12640,1,10,0:0:0:0:
462,39,12732,1,2,0:0:0:0:
462,39,12825,6,0,L|390:42,1,65,6|0,0:0|0:0,0:0:0:0:
224,110,13195,2,0,L|301:116,1,65,2|0,0:0|0:0,0:0:0:0:
336,202,13566,1,2,0:0:0:0:
381,130,13751,1,0,0:0:0:0:
336,202,13936,1,2,0:0:0:0:
394,262,14121,1,0,0:0:0:0:
332,320,14307,6,0,B|255:301|289:343|205:326,1,130,6|0,0:0|0:0,0:0:0:0:
153,237,14862,1,2,0:0:0:0:
153,237,15047,2,0,L|163:128,2,97.5,10|10|14,3:0|3:0|0:0,0:0:0:0:
2,313,15973,5,2,0:0:0:0:
2,313,16158,2,0,L|70:304,1,65,8|2,0:0|0:0,0:0:0:0:
170,290,16529,2,0,P|152:332|182:392,2,97.5,10|10|10,3:0|3:0|3:0,0:0:0:0:
253,333,17270,6,0,L|341:340,1,65,12|8,0:0|3:0,0:0:0:0:
377,269,17640,1,8,3:0:0:0:
433,340,17825,1,10,3:0:0:0:
433,340,17918,2,0,L|519:340,1,65,8|8,3:0|3:0,0:0:0:0:
377,269,18288,1,8,3:0:0:0:
377,269,18381,2,0,P|368:237|388:199,1,65,0|10,3:0|3:0,0:0:0:0:
448,138,18751,6,0,P|460:103|450:71,1,65,12|8,3:0|3:0,0:0:0:0:
381,12,19121,1,8,3:0:0:0:
321,90,19307,1,10,3:0:0:0:
321,90,19399,2,0,L|254:94,1,65,8|8,3:0|3:0,0:0:0:0:
137,29,19770,1,8,3:0:0:0:
137,29,19862,2,0,L|223:34,1,65,10|10,3:0|3:0,0:0:0:0:
52,157,20232,6,0,B|44:25,1,130,6|0,0:0|0:0,0:0:0:0:
149,130,20788,1,2,0:0:0:0:
149,130,20973,2,0,P|194:147|242:127,2,97.5,10|10|14,3:0|3:0|0:0,0:0:0:0:
202,39,21899,5,2,0:0:0:0:
202,39,21992,1,0,0:0:0:0:
202,39,22084,1,8,0:0:0:0:
299,65,22270,1,2,0:0:0:0:
299,65,22455,6,0,L|406:56,2,97.5,10|10|10,3:0|3:0|3:0,0:0:0:0:
235,147,23195,1,10,0:0:0:0:
301,210,23381,5,0,0:0:0:0:
301,210,23473,1,2,0:0:0:0:
301,210,23566,2,0,P|266:236|193:214,1,97.5,2|0,3:2|0:0,0:0:0:0:
176,218,23937,2,0,L|182:327,2,97.5,10|10|14,3:0|3:0|3:0,0:0:0:0:
170,101,24862,5,2,0:0:0:0:
170,101,24955,1,2,0:0:0:0:
170,101,25047,1,2,0:0:0:0:
96,151,25232,1,2,0:0:0:0:
22,97,25418,1,8,3:0:0:0:
96,151,25603,1,2,0:0:0:0:
33,217,25788,1,8,3:0:0:0:
81,294,25973,1,2,0:0:0:0:
81,294,26158,6,0,B|170:280|110:334|220:313,1,130,6|0,0:0|3:0,0:0:0:0:
309,360,26714,2,0,P|285:322|338:273,1,130,8|0,3:0|1:0,0:0:0:0:
415,322,27270,1,2,0:0:0:0:
482,261,27455,1,2,0:0:0:0:
482,261,27640,6,0,L|473:109,1,130,6|0,0:0|3:0,0:0:0:0:
384,171,28195,2,0,P|332:185|302:120,1,130,8|0,3:0|1:0,0:0:0:0:
380,57,28751,2,0,P|413:49|453:66,1,65,2|0,0:0|0:0,0:0:0:0:
384,171,29121,6,0,B|370:248|418:208|396:319,1,130,6|0,0:0|3:0,0:0:0:0:
241,282,29677,2,0,P|241:243|321:244,1,130,8|0,3:0|0:0,0:0:0:0:
313,360,30232,1,2,0:0:0:0:
313,360,30418,6,0,L|164:363,1,130,4|0,0:0|1:0,0:0:0:0:
49,272,30973,1,8,3:0:0:0:
49,272,31158,2,0,L|179:282,1,130,6|0,0:0|0:0,0:0:0:0:
245,225,31714,2,0,L|239:182,3,32.5,8|8|8|8,0:0|0:0|0:0|0:0,0:0:0:0:
253,264,32084,6,0,P|290:275|327:260,1,65,6|0,0:0|0:0,0:0:0:0:
361,117,32455,2,0,P|332:132|317:171,1,65,8|0,0:0|0:0,0:0:0:0:
436,272,32825,2,0,P|416:234|388:220,1,65,2|2,0:0|0:0,0:0:0:0:
314,268,33195,1,10,0:0:0:0:
247,338,33381,1,2,0:0:0:0:
247,338,33566,6,0,P|212:345|171:331,1,65,6|0,0:0|0:0,0:0:0:0:
105,209,33936,2,0,P|137:223|161:263,1,65,8|0,0:0|0:0,0:0:0:0:
52,360,34307,2,0,P|70:322|98:303,1,65,2|2,0:0|0:0,0:0:0:0:
183,338,34677,1,10,0:0:0:0:
239,265,34862,1,2,0:0:0:0:
239,265,35047,6,0,L|327:276,1,65,6|0,0:0|0:0,0:0:0:0:
414,189,35418,2,0,L|335:196,1,65,10|0,0:0|0:0,0:0:0:0:
447,289,35788,1,10,0:0:0:0:
512,217,35973,1,2,0:0:0:0:
447,289,36158,1,10,0:0:0:0:
414,189,36344,2,0,B|337:175|364:221|269:198,1,130,4|0,0:0|0:0,0:0:0:0:
131,161,36899,6,0,L|139:44,1,97.5,2|0,0:0|0:0,0:0:0:0:
155,17,37270,2,0,P|127:34|83:32,1,65,2|0,0:0|3:0,0:0:0:0:
14,11,37640,1,10,0:0:0:0:
14,11,38010,6,0,P|1:41|10:80,1,65,6|0,0:0|0:0,0:0:0:0:
173,140,38381,2,0,P|150:105|115:96,1,65,8|0,0:0|0:0,0:0:0:0:
12,207,38751,2,0,P|44:196|62:169,1,65,2|0,0:0|0:0,0:0:0:0:
129,96,39121,1,8,0:0:0:0:
203,178,39307,1,2,0:0:0:0:
203,178,39399,1,2,0:0:0:0:
203,178,39492,6,0,B|293:167|237:213|344:194,1,130,6|8,0:0|0:0,0:0:0:0:
343,346,40047,1,2,0:0:0:0:
343,346,40232,2,0,P|294:345|301:272,1,130,2|8,0:0|0:0,0:0:0:0:
411,242,40788,1,2,0:0:0:0:
411,242,40881,1,2,0:0:0:0:
411,242,40973,6,0,L|419:104,1,130,6|8,0:0|0:0,0:0:0:0:
425,14,41529,1,2,0:0:0:0:
343,63,41714,2,0,P|308:71|277:63,1,65,2|0,0:0|0:0,0:0:0:0:
242,45,41992,1,2,0:0:0:0:
242,45,42084,2,0,P|211:35|179:41,1,65,8|2,0:0|0:0,0:0:0:0:
105,144,42455,6,0,L|94:1,2,130,6|8|6,0:0|0:0|0:0,0:0:0:0:
114,273,43381,1,2,0:0:0:0:
57,207,43566,1,8,0:0:0:0:
170,205,43751,1,2,0:0:0:0:
170,205,43844,1,2,0:0:0:0:
170,205,43936,6,0,L|244:207,1,65,6|0,0:0|0:0,0:0:0:0:
337,285,44307,2,0,L|243:292,1,65,8|0,0:0|0:0,0:0:0:0:
338,195,44677,2,0,L|417:200,1,65,2|0,0:0|0:0,0:0:0:0:
484,155,45047,1,8,0:0:0:0:
407,121,45232,1,2,0:0:0:0:
407,121,45325,1,2,0:0:0:0:
407,121,45418,6,0,P|467:74|528:84,1,130,6|8,0:0|0:0,0:0:0:0:
476,231,45973,1,2,0:0:0:0:
476,231,46158,2,0,B|389:219|428:263|333:241,1,130,2|8,0:0|0:0,0:0:0:0:
261,157,46714,1,2,0:0:0:0:
261,157,46807,1,2,0:0:0:0:
261,157,46899,6,0,P|203:176|240:234,1,130,6|8,0:0|0:0,0:0:0:0:
348,360,47455,1,2,0:0:0:0:
348,360,47640,2,0,P|348:310|275:307,1,130,2|8,0:0|0:0,0:0:0:0:
196,346,48195,1,2,0:0:0:0:
93,278,48381,5,8,0:0:0:0:
183,261,48566,1,0,3:0:0:0:
104,360,48751,1,8,0:0:0:0:
14,337,48936,1,0,3:0:0:0:
14,337,49121,2,0,L|8:271,1,65,8|0,0:0|0:0,0:0:0:0:
93,278,49492,2,0,L|87:212,1,65,14|0,0:0|0:0,0:0:0:0:
79,129,49862,6,0,L|216:136,1,130,6|0,0:0|0:0,0:0:0:0:
300,237,50418,2,0,P|271:186|326:138,1,130,8|0,3:0|0:0,0:0:0:0:
386,208,50973,1,8,3:0:0:0:
383,306,51158,1,0,0:0:0:0:
383,306,51344,6,0,B|291:304|346:346|233:321,1,130,6|0,0:0|0:0,0:0:0:0:
168,349,51899,2,0,P|162:311|178:274,1,65,8|0,3:0|0:0,0:0:0:0:
286,206,52270,1,0,3:0:0:0:
286,206,52455,2,0,P|273:238|240:257,1,65,8|0,3:0|0:0,0:0:0:0:
183,183,52825,6,0,P|130:155|64:186,1,130,6|8,0:0|3:0,0:0:0:0:
4,257,53381,2,0,L|150:263,1,130,8|0,3:0|0:0,0:0:0:0:
210,323,53936,1,10,3:0:0:0:
282,257,54121,1,2,0:0:0:0:
282,257,54307,6,0,P|315:247|348:260,1,65,6|0,0:0|0:0,0:0:0:0:
413,351,54677,2,0,P|383:361|349:351,1,65,8|0,0:0|0:0,0:0:0:0:
446,272,55047,1,10,3:0:0:0:
396,195,55232,1,2,0:0:0:0:
461,130,55418,1,10,3:0:0:0:
461,130,55788,6,0,L|449:-2,2,130,6|2|6,0:0|0:0|0:0,0:0:0:0:
306,173,56899,1,2,0:0:0:0:
306,173,57270,6,0,L|288:327,2,130,6|2|6,0:0|0:0|0:0,0:0:0:0:
319,64,58381,1,10,0:0:0:0:
319,64,58751,6,0,P|282:51|238:70,1,65,12|2,0:0|0:0,0:0:0:0:
190,118,59121,1,2,0:0:0:0:
190,118,59492,6,0,L|73:128,2,97.5,10|8|10,0:0|0:0|0:0,0:0:0:0:
271,175,60356,2,0,L|391:184,2,108.333333333333,10|8|10,0:0|0:0|0:0,0:0:0:0:
185,242,61158,1,2,0:0:0:0:
185,242,61251,1,2,0:0:0:0:
185,242,61344,1,8,0:0:0:0:
185,242,61714,6,0,P|173:275|184:310,1,65,14|0,3:0|0:0,0:0:0:0:
321,351,62084,2,0,P|333:315|321:286,1,65,8|10,3:0|3:0,0:0:0:0:
305,258,62362,2,0,L|395:269,2,65,8|8|0,3:0|3:0|0:0,0:0:0:0:
256,250,62825,1,10,3:0:0:0:
192,176,63010,1,10,3:0:0:0:
254,101,63195,6,0,L|335:107,1,65,10|0,3:0|3:0,0:0:0:0:
356,142,63473,1,0,3:0:0:0:
356,142,63566,2,0,L|441:138,1,65,8|0,3:0|0:0,0:0:0:0:
479,216,63936,1,2,3:0:0:0:
413,288,64121,2,0,P|381:299|350:289,1,65,2|8,0:0|3:0,0:0:0:0:
246,208,64492,6,0,P|279:199|319:214,1,65,6|0,0:0|0:0,0:0:0:0:
244,318,64862,1,0,3:0:0:0:
160,234,65047,1,8,3:0:0:0:
160,234,65140,1,0,3:0:0:0:
160,234,65232,1,0,3:0:0:0:
160,320,65418,1,0,3:0:0:0:
246,207,65603,2,0,L|242:128,1,65,2|8,0:0|3:0,0:0:0:0:
206,52,65973,6,0,B|300:37|260:88|360:52,1,130,6|2,0:0|0:0,0:0:0:0:
463,158,66529,2,0,P|429:166|392:154,1,65,10|0,3:0|0:0,0:0:0:0:
423,16,66899,2,0,P|431:50|424:78,2,65,2|0|10,0:0|0:0|3:0,0:0:0:0:
320,67,67455,6,0,L|310:212,1,130,6|0,0:0|0:0,0:0:0:0:
319,293,68010,1,8,3:0:0:0:
231,336,68195,1,0,3:0:0:0:
231,336,68288,1,0,3:0:0:0:
231,336,68381,1,2,0:0:0:0:
166,245,68566,2,0,L|93:248,1,65,0|8,0:0|3:0,0:0:0:0:
32,308,68936,6,0,P|8:277|35:189,1,130,6|0,0:0|3:0,0:0:0:0:
109,140,69492,1,8,3:0:0:0:
109,140,69584,2,0,L|109:66,1,65,0|0,3:0|3:0,0:0:0:0:
111,29,69862,1,2,0:0:0:0:
259,108,70047,2,0,P|228:119|193:106,1,65,2|8,0:0|3:0,0:0:0:0:
277,18,70418,6,0,L|365:25,1,65,6|0,0:0|3:0,0:0:0:0:
381,111,70788,1,0,3:0:0:0:
486,42,70973,1,8,3:0:0:0:
486,42,71066,2,0,L|471:127,1,65,0|0,3:0|0:0,0:0:0:0:
466,151,71344,1,2,0:0:0:0:
386,272,71529,2,0,L|377:192,1,65,2|8,0:0|3:0,0:0:0:0:
381,111,71899,6,0,B|294:107|329:143|238:124,1,130,6|2,0:0|0:0,0:0:0:0:
131,43,72455,2,0,P|165:35|199:44,1,65,10|0,3:0|0:0,0:0:0:0:
117,187,72825,2,0,P|108:150|125:117,2,65,2|0|10,0:0|0:0|3:0,0:0:0:0:
199,229,73381,2,0,P|182:258|81:271,1,130,6|0,0:0|0:0,0:0:0:0:
4,202,73936,2,0,L|10:292,1,65,8|0,3:0|0:0,0:0:0:0:
82,119,74307,5,2,0:0:0:0:
91,203,74492,1,0,0:0:0:0:
0,92,74677,1,8,3:0:0:0:
91,203,74862,6,0,L|242:189,1,130,6|0,0:0|0:0,0:0:0:0:
320,37,75418,2,0,L|312:117,1,65,10|0,0:0|0:0,0:0:0:0:
409,188,75788,2,0,L|399:112,1,65,2|2,0:0|0:0,0:0:0:0:
320,188,76158,1,10,0:0:0:0:
392,268,76344,6,0,P|445:265|491:200,1,130,6|0,0:0|0:0,0:0:0:0:
413,123,76899,2,0,L|408:188,1,65,10|0,0:0|0:0,0:0:0:0:
341,70,77270,2,0,P|365:41|405:35,1,65,2|2,0:0|0:0,0:0:0:0:
322,158,77640,1,10,0:0:0:0:
244,86,77825,6,0,B|166:80|207:122|103:103,1,130,6|0,0:0|0:0,0:0:0:0:
44,195,78381,2,0,P|77:205|111:193,1,65,10|0,0:0|0:0,0:0:0:0:
118,105,78751,1,2,0:0:0:0:
196,164,78936,1,2,0:0:0:0:
118,105,79122,1,8,0:0:0:0:
198,49,79307,6,0,L|344:52,1,130,6|0,0:0|0:0,0:0:0:0:
442,126,79862,2,0,L|366:133,1,65,10|0,0:0|0:0,0:0:0:0:
308,210,80232,1,0,3:0:0:0:
308,210,80325,1,0,3:0:0:0:
308,210,80418,1,0,3:0:0:0:
277,123,80603,1,10,0:0:0:0:
387,217,80788,6,0,P|369:268|287:288,1,130,6|0,0:0|0:0,0:0:0:0:
210,249,81344,2,0,P|197:291|213:322,1,65,10|0,0:0|0:0,0:0:0:0:
308,210,81714,2,0,P|296:180|268:156,1,65,2|2,0:0|0:0,0:0:0:0:
179,171,82084,1,10,0:0:0:0:
85,123,82270,6,0,L|97:257,1,130,6|0,0:0|0:0,0:0:0:0:
192,344,82825,2,0,P|161:366|115:358,1,65,10|0,0:0|0:0,0:0:0:0:
258,267,83196,2,0,P|283:295|288:333,1,65,2|2,0:0|0:0,0:0:0:0:
172,261,83566,1,10,0:0:0:0:
238,183,83751,6,0,P|298:186|352:264,1,130,6|0,0:0|0:0,0:0:0:0:
412,352,84307,2,0,L|419:272,1,65,10|0,0:0|0:0,0:0:0:0:
430,190,84677,1,2,0:0:0:0:
344,225,84862,1,2,0:0:0:0:
417,287,85047,1,10,0:0:0:0:
344,225,85232,6,0,B|256:226|291:262|202:242,1,130,6|0,0:0|0:0,0:0:0:0:
124,175,85788,2,0,L|209:165,1,65,10|0,0:0|0:0,0:0:0:0:
264,82,86158,1,2,0:0:0:0:
264,82,86344,2,0,L|189:76,1,65,2|10,0:0|0:0,0:0:0:0:
339,146,86714,6,0,P|370:107|344:22,1,130,6|0,0:0|0:0,0:0:0:0:
199,76,87270,2,0,P|236:85|274:71,1,65,10|0,0:0|0:0,0:0:0:0:
355,32,87640,1,2,0:0:0:0:
444,180,87825,1,2,0:0:0:0:
461,59,88010,1,10,0:0:0:0:
339,146,88195,1,6,0:0:0:0:
256,192,88381,12,2,89584,0:0:0:0:
