osu file format v14

[General]
AudioFilename: audio.mp3
AudioLeadIn: 0
PreviewTime: 37913
Countdown: 0
SampleSet: Soft
StackLeniency: 0.7
Mode: 2
LetterboxInBreaks: 0
WidescreenStoryboard: 1

[Editor]
Bookmarks: 12728,14209,31987,63098
DistanceSpacing: 0.5
BeatDivisor: 6
GridSize: 8
TimelineZoom: 1.5

[Metadata]
Title:Ke-Mo-No-Da-Mo-No
TitleUnicode:け・も・の・だ・も・の
Artist:Doubutsu Biscuits x PPP
ArtistUnicode:どうぶつビスケッツ×PPP
Creator:My Angel RangE
Version:Stardust Prism's S-A-L-A-D
Source:けものフレンズ3
Tags:Stardust Prism WEI_0921 kemono friends 3 op opening japanese video game jpop j-pop pop sega サーバル serval フェネック fennec アライグマ araiguma common raccoon 尾崎由香 yuka ozaki 小野早稀 akane misaka 小野早稀 saki ono ペパプ pepapu penguins performance project. ロイヤルペンギン コウテイペンギン ジェンツーペンギン イワトビペンギン フンボルトペンギン royal koutei emperor jentsuu gentoo iwatobi rockhopper funboruto humboldt penguin 佐々木未来 mikoi sasaki 根本流風 nemoto ruka 田村響華 tamura kyouka 相羽あいな aina aiba 築田行子 chikuta ikuko female vocals idol vtuber virtual youtuber けもV kemov 大石昌良 Oishi Masayoshi
BeatmapID:4446203
BeatmapSetID:2116935

[Difficulty]
HPDrainRate:3
CircleSize:3.3
OverallDifficulty:7
ApproachRate:7
SliderMultiplier:1.5
SliderTickRate:1

[Events]
//Background and Video events
0,0,"4.jpg",0,0
//Break Periods
//Storyboard Layer 0 (Background)
//Storyboard Layer 1 (Fail)
//Storyboard Layer 2 (Pass)
//Storyboard Layer 3 (Foreground)
//Storyboard Layer 4 (Overlay)
//Storyboard Sound Samples

[TimingPoints]
136,370.37037037037,4,2,1,60,1,0
8284,370.37037037037,4,2,1,60,1,0
26061,-100,4,2,1,50,0,0
34950,-100,4,2,1,60,0,0
36802,-100,4,2,1,50,0,0
37543,-100,4,2,1,70,0,0
37913,-100,4,2,1,75,0,1
49765,-100,4,2,1,60,0,0
74765,-100,4,2,1,70,0,0
88098,-100,4,2,1,50,0,0

[Colours]
Combo1 : 153,208,230
Combo2 : 216,159,90

[HitObjects]
256,192,136,12,0,1247,0:0:0:0:
133,231,1617,6,0,L|297:218,1,150,6|0,1:2|0:0,0:0:0:0:
283,240,2358,2,0,L|123:231,1,150,6|0,1:2|0:0,0:0:0:0:
402,307,3098,5,6,1:2:0:0:
402,307,3469,1,2,0:0:0:0:
328,303,3654,1,2,0:0:0:0:
238,301,3839,1,6,1:2:0:0:
388,251,4210,1,0,0:0:0:0:
117,258,4580,6,0,P|73:222|138:173,1,150,6|0,1:2|0:0,0:0:0:0:
199,147,5135,1,0,0:0:0:0:
289,146,5321,1,6,1:2:0:0:
439,174,5691,1,2,0:0:0:0:
169,125,6061,5,10,0:0:0:0:
334,253,6432,1,10,0:0:0:0:
169,355,6802,2,0,P|115:345|193:82,1,450,10|4,0:3|0:3,0:0:0:0:
452,244,8284,6,0,P|466:187|383:138,1,150,10|2,0:0|0:0,0:0:0:0:
244,143,9024,1,2,0:0:0:0:
133,116,9302,1,2,0:0:0:0:
244,143,9580,1,10,0:0:0:0:
420,268,9765,6,0,P|434:224|353:178,1,150,10|2,0:0|0:0,0:0:0:0:
208,235,10506,1,2,0:0:0:0:
228,128,10783,1,2,0:0:0:0:
353,110,11061,1,10,0:0:0:0:
179,165,11246,6,0,L|19:166,1,150,10|2,0:0|0:0,0:0:0:0:
167,282,11987,1,2,0:0:0:0:
261,133,12265,1,2,0:0:0:0:
236,70,12543,1,2,0:0:0:0:
56,184,12728,5,10,0:0:0:0:
310,230,14209,5,6,1:2:0:0:
309,223,14580,1,0,0:0:0:0:
40,143,14950,1,6,1:2:0:0:
154,132,15228,1,6,1:2:0:0:
268,257,15506,6,0,P|268:204|179:166,1,150,6|2,1:2|1:2,0:0:0:0:
111,157,16061,1,10,0:0:0:0:
379,279,16432,6,0,L|496:271,2,112.5,14|14|14,0:0|0:0|0:0,0:0:0:0:
201,241,17172,6,0,P|159:186|223:137,1,150,10|6,0:3|0:3,0:0:0:0:
360,211,17913,2,0,L|379:57,1,150,0|6,0:0|0:3,0:0:0:0:
228,264,18654,6,0,L|203:102,1,150,10|6,0:3|0:3,0:0:0:0:
48,194,19395,2,0,L|16:24,1,150,0|6,0:0|0:3,0:0:0:0:
335,273,20135,6,0,L|493:263,1,150,6|0,1:2|0:0,0:0:0:0:
409,225,20691,1,2,1:2:0:0:
231,228,20876,1,10,0:0:0:0:
119,205,21154,1,6,0:3:0:0:
254,241,21432,6,0,P|300:195|234:142,1,150,6|2,1:2|1:2,0:0:0:0:
179,134,21987,1,10,0:0:0:0:
103,135,22172,1,2,1:2:0:0:
284,268,22358,2,0,L|408:278,2,112.5,10|10|10,0:0|0:0|0:0,0:0:0:0:
191,286,23098,6,0,P|158:275|208:203,1,150,14|4,0:0|0:3,0:0:0:0:
465,287,23839,1,10,0:0:0:0:
343,280,24117,1,10,0:0:0:0:
465,287,24395,1,10,0:0:0:0:
297,255,25506,5,6,0:3:0:0:
321,188,25691,1,10,0:0:0:0:
267,142,25876,1,2,0:0:0:0:
88,213,26061,6,0,P|69:174|146:114,1,150,6|2,1:2|0:0,0:0:0:0:
215,211,26617,2,0,P|212:146|127:120,1,150,10|4,0:3|0:3,0:0:0:0:
51,156,27172,1,6,0:3:0:0:
322,265,27543,6,0,P|369:212|304:172,1,150,6|8,1:2|0:3,0:0:0:0:
172,150,28283,1,0,0:0:0:0:
158,67,28468,1,6,0:3:0:0:
227,50,28654,1,6,0:3:0:0:
491,252,29024,6,0,P|499:197|406:153,1,150,6|2,1:2|0:0,0:0:0:0:
351,174,29580,2,0,P|331:126|400:66,1,150,10|6,0:3|0:3,0:0:0:0:
487,77,30135,1,6,0:3:0:0:
306,285,30321,6,0,P|220:190|284:124,1,225,6|8,1:2|0:0,0:0:0:0:
346,231,31061,2,0,P|419:215|435:127,1,150,6|2,1:2|1:2,0:0:0:0:
371,126,31617,1,10,0:0:0:0:
99,301,31987,6,0,P|96:238|183:192,1,150,6|2,1:2|1:2,0:0:0:0:
313,226,32728,2,0,P|360:179|289:141,1,150,0|2,1:0|1:2,0:0:0:0:
54,164,33469,6,0,L|236:147,1,150,6|2,1:2|1:2,0:0:0:0:
352,172,34209,1,0,1:0:0:0:
200,252,34580,1,2,1:2:0:0:
454,265,34950,5,14,0:0:0:0:
465,191,35135,1,10,0:0:0:0:
426,129,35320,1,10,0:0:0:0:
355,117,35505,1,2,0:0:0:0:
265,153,35691,2,0,P|242:108|324:47,1,150,10|10,0:0|0:0,0:0:0:0:
482,173,36246,1,2,0:0:0:0:
262,305,37913,6,0,L|85:296,1,150,14|10,0:0|0:0,0:0:0:0:
276,259,38654,2,0,L|445:246,1,150,10|10,0:0|0:0,0:0:0:0:
140,248,39395,6,0,P|123:173|192:140,1,150,14|10,0:0|0:0,0:0:0:0:
252,139,39950,1,2,1:2:0:0:
343,94,40135,2,0,L|176:96,1,150,10|8,0:0|0:0,0:0:0:0:
473,226,40876,6,0,P|476:172|390:129,1,150,14|10,0:0|0:0,0:0:0:0:
326,132,41432,1,2,1:2:0:0:
249,134,41617,2,0,P|241:74|325:37,1,150,10|10,0:0|0:0,0:0:0:0:
386,49,42172,1,6,0:3:0:0:
204,197,42358,6,0,L|39:198,2,150,14|10|10,0:0|0:0|0:0,0:0:0:0:
336,211,43469,1,4,0:3:0:0:
67,282,43839,6,0,P|48:234|124:186,1,150,14|10,0:0|0:0,0:0:0:0:
269,258,44580,2,0,P|283:219|195:165,1,150,10|10,0:0|0:0,0:0:0:0:
480,248,45321,6,0,L|306:239,1,150,14|10,0:0|0:0,0:0:0:0:
281,194,45876,1,0,1:0:0:0:
337,188,46061,2,0,P|387:159|341:73,1,150,10|8,0:0|0:0,0:0:0:0:
98,241,46802,6,0,P|89:179|169:145,1,150,6|10,1:2|0:3,0:0:0:0:
235,138,47358,1,10,0:3:0:0:
309,94,47543,2,0,L|154:85,1,150,6|6,1:2|0:3,0:0:0:0:
236,87,48098,1,6,0:3:0:0:
417,228,48283,5,14,0:0:0:0:
428,155,48468,1,10,0:0:0:0:
386,96,48653,1,10,0:0:0:0:
314,83,48838,1,10,0:0:0:0:
227,158,49024,2,0,L|51:202,1,150,10|6,0:0|0:3,0:0:0:0:
353,283,49765,6,0,P|396:264|332:211,1,150,6|10,1:2|0:3,0:0:0:0:
273,212,50321,2,0,L|97:202,1,150,10|0,0:3|1:0,0:0:0:0:
204,173,50876,1,8,0:0:0:0:
459,273,51246,6,0,P|454:194|376:179,1,150,6|6,1:2|0:3,0:0:0:0:
315,306,51802,2,0,L|466:303,1,150,6|0,0:3|1:0,0:0:0:0:
381,292,52358,1,8,0:0:0:0:
120,330,52728,6,0,P|78:271|141:230,1,150,6|10,1:2|0:3,0:0:0:0:
201,202,53283,2,0,L|45:194,1,150,10|2,0:3|1:2,0:0:0:0:
133,228,53839,1,10,0:0:0:0:
388,244,54209,6,0,P|411:191|343:140,1,150,6|10,1:2|0:3,0:0:0:0:
197,232,54950,1,6,0:3:0:0:
201,148,55135,1,2,0:0:0:0:
282,155,55320,1,14,0:3:0:0:
16,282,55691,5,14,0:3:0:0:
16,282,56061,1,4,0:3:0:0:
168,200,56432,1,6,0:3:0:0:
16,282,56802,1,6,0:3:0:0:
285,260,57172,5,10,0:3:0:0:
285,260,57543,1,6,0:3:0:0:
133,205,57913,1,10,0:3:0:0:
133,205,58283,1,4,0:3:0:0:
404,235,58654,6,0,P|447:200|379:142,1,150,10|4,0:0|0:3,0:0:0:0:
129,128,59395,1,10,0:0:0:0:
249,168,59672,1,10,0:0:0:0:
374,130,59950,1,10,0:0:0:0:
227,140,60259,5,10,0:0:0:0:
88,125,60567,1,10,0:0:0:0:
227,140,60876,1,10,0:0:0:0:
483,237,61246,5,6,1:2:0:0:
119,177,63098,5,6,1:2:0:0:
351,172,64024,1,6,0:3:0:0:
79,234,64395,1,14,0:0:0:0:
113,167,65506,1,14,0:0:0:0:
382,294,65876,6,0,P|414:275|366:192,1,150,14|6,0:0|0:3,0:0:0:0:
296,229,66432,1,10,0:3:0:0:
144,215,66802,1,6,0:3:0:0:
82,173,66987,1,6,0:3:0:0:
156,213,67172,1,6,0:3:0:0:
337,192,67358,5,14,0:0:0:0:
393,177,68839,5,14,0:0:0:0:
161,172,69950,1,10,0:0:0:0:
433,234,70321,1,14,0:0:0:0:
399,167,71432,1,14,0:0:0:0:
130,294,71802,6,0,P|98:275|146:192,1,150,14|10,0:0|0:3,0:0:0:0:
216,229,72358,1,10,0:3:0:0:
359,167,72728,1,2,1:2:0:0:
285,160,72913,1,6,0:3:0:0:
210,154,73098,1,6,0:3:0:0:
391,289,73283,6,0,P|430:268|359:206,1,150,14|2,0:0|1:2,0:0:0:0:
235,141,74024,1,8,3:0:0:0:
385,127,74394,1,8,3:0:0:0:
106,294,74765,6,0,P|104:241|206:192,1,150,6|0,1:2|1:0,0:0:0:0:
258,241,75321,2,0,L|414:227,1,150,8|8,0:0|0:0,0:0:0:0:
331,186,75876,1,2,1:2:0:0:
63,246,76246,6,0,P|47:176|136:135,1,150,6|0,1:2|1:0,0:0:0:0:
192,207,76802,2,0,L|37:194,1,150,8|8,0:0|0:0,0:0:0:0:
119,173,77358,1,2,1:2:0:0:
388,255,77728,6,0,P|399:207|296:168,1,150,6|2,1:2|1:2,0:0:0:0:
240,234,78283,2,0,L|236:152,1,75,10|2,0:0|1:2,0:0:0:0:
314,193,78654,1,10,0:0:0:0:
343,130,78839,1,2,1:2:0:0:
286,91,79024,1,10,0:0:0:0:
111,253,79209,6,0,P|87:212|209:123,1,225,6|8,1:2|0:0,0:0:0:0:
351,223,80135,1,8,0:0:0:0:
277,218,80320,1,0,1:0:0:0:
202,213,80505,1,8,0:0:0:0:
382,292,80691,6,0,P|425:247|355:201,1,150,6|0,1:2|1:0,0:0:0:0:
293,208,81247,2,0,L|137:194,1,150,8|8,0:0|0:0,0:0:0:0:
219,216,81802,1,2,1:2:0:0:
473,261,82172,6,0,P|472:194|395:167,1,150,6|0,1:2|1:0,0:0:0:0:
318,241,82728,2,0,L|473:228,1,150,8|8,0:0|0:0,0:0:0:0:
383,220,83284,1,2,1:2:0:0:
113,248,83654,6,0,P|83:202|160:169,1,150,6|2,1:2|1:2,0:0:0:0:
225,233,84209,2,0,L|304:226,1,75,10|2,0:0|1:2,0:0:0:0:
214,231,84580,1,10,0:0:0:0:
138,234,84765,1,2,1:2:0:0:
214,231,84950,1,10,0:0:0:0:
394,269,85135,6,0,P|418:228|296:139,1,225,6|10,1:2|0:0,0:0:0:0:
139,231,86061,1,8,0:0:0:0:
214,226,86246,1,10,0:0:0:0:
485,292,86617,6,0,P|496:235|415:203,1,150,6|2,1:2|1:2,0:0:0:0:
325,150,87172,2,0,L|219:146,1,75,10|2,0:0|1:2,0:0:0:0:
325,150,87543,2,0,L|400:146,1,75,10|10,0:0|0:0,0:0:0:0:
325,150,87913,1,10,0:0:0:0:
145,309,88098,6,0,L|139:78,1,225,14|0,0:0|0:0,0:0:0:0:
