osu file format v14

[General]
AudioFilename: audio.mp3
AudioLeadIn: 0
PreviewTime: 40897
Countdown: 0
SampleSet: Soft
StackLeniency: 0.7
Mode: 0
LetterboxInBreaks: 0
WidescreenStoryboard: 1

[Editor]
DistanceSpacing: 1.1
BeatDivisor: 2
GridSize: 32
TimelineZoom: 2.999999

[Metadata]
Title:Fure! Fure! Best Friends
TitleUnicode:フレ!フレ!ベストフレンズ
Artist:Doubutsu Biscuits x PPP
ArtistUnicode:どうぶつビスケッツ×PPP
Creator:rosario wknd
Version:Normal!
Source:けものフレンズぱびりおん
Tags:kemono friends pavilion video game opening japanese pop jpop j-pop サーバル Serval Cat フェネック Fennec アライグマ common raccoon 尾崎由香 Yuka Ozaki 本宮佳奈 Kana Motomiya 小野早稀 Saki Ono ペパプ PENGUINS Performance Project. Royal Emperor Gentoo Rockhopper Humboldt penguin 佐々木未来 Mikoi Sasaki 根本流風 Nemoto Ruka 田村響華 Tamura Kyouka 相羽あいな Aina Aiba 築田行子 Chikuta Ikuko
BeatmapID:2778121
BeatmapSetID:1338646

[Difficulty]
HPDrainRate:4
CircleSize:3.7
OverallDifficulty:4.5
ApproachRate:5.5
SliderMultiplier:1
SliderTickRate:1

[Events]
//Background and Video events
0,0,"bestfriends.jpg",0,0
//Break Periods
//Storyboard Layer 0 (Background)
//Storyboard Layer 1 (Fail)
//Storyboard Layer 2 (Pass)
//Storyboard Layer 3 (Foreground)
//Storyboard Layer 4 (Overlay)
//Storyboard Sound Samples

[TimingPoints]
2630,361.44578313253,4,2,1,60,1,0
2991,-100,4,2,2,40,0,0
3352,361.44578313253,4,2,2,40,1,0
6243,-100,4,2,2,50,0,0
9135,-100,4,2,2,60,0,0
17809,-100,4,2,2,55,0,0
20701,-100,4,2,2,50,0,0
23592,-100,4,2,2,55,0,0
26484,-100,4,2,2,45,0,0
29376,-100,4,2,1,45,0,0
30641,-100,4,2,2,45,0,0
30821,-100,4,2,1,50,0,0
31725,-100,4,2,2,50,0,0
32267,-100,4,2,1,40,0,0
35159,-100,4,2,1,35,0,0
37508,-100,4,2,1,40,0,0
38050,-100,4,2,1,35,0,0
39496,-100,4,2,1,65,0,0
40942,-90.9090909090909,4,2,1,65,0,1
52508,-90.9090909090909,4,2,1,70,0,1
57207,-90.9090909090909,4,2,2,70,0,1
57388,-90.9090909090909,4,2,1,70,0,1
57568,-90.9090909090909,4,2,2,70,0,1
58291,-90.9090909090909,4,2,1,65,0,1
64074,-100,4,2,1,35,0,0
67327,-100,4,2,2,35,0,0
68435,361.44578313253,4,2,1,45,1,0
69519,-100,4,2,2,60,0,0
69880,-100,4,2,2,60,0,0
74398,-100,4,2,1,60,0,0
75663,-100,4,2,1,65,0,0
84338,-100,4,2,1,75,0,1
86688,-100,4,2,2,75,0,1
87230,-100,4,2,1,80,0,1
89218,-100,4,2,1,80,0,0

[Colours]
Combo1 : 13,210,205
Combo2 : 239,187,80
Combo3 : 66,242,119
Combo4 : 220,61,61

[HitObjects]
80,85,2991,6,0,P|109:77|140:71,1,50,2|2,0:0|0:0,0:0:0:0:
168,110,3352,2,0,P|145:164|189:203,2,100,2|2|2,0:0|0:0|0:0,0:0:0:0:
217,86,4255,1,0,0:0:0:0:
217,86,4436,1,2,0:0:0:0:
323,114,4797,6,0,P|387:96|440:84,2,100,2|2|2,0:0|0:0|0:0,0:0:0:0:
288,158,5701,1,0,0:0:0:0:
288,158,5882,1,2,0:0:0:0:
319,263,6243,6,0,B|330:314|330:314|289:357,1,100,2|2,0:0|0:0,0:0:0:0:
190,319,6966,2,0,B|179:268|179:268|220:225,1,100,2|2,0:0|0:0,0:0:0:0:
289,161,7689,2,0,B|371:138|387:188|406:224|487:187,1,200,6|2,0:0|0:0,0:0:0:0:
509,148,8592,1,2,3:2:0:0:
509,148,8773,1,2,3:2:0:0:
478,41,9135,6,0,P|433:23|379:72,1,100,6|2,3:2|3:2,0:0:0:0:
368,98,9677,1,2,0:0:0:0:
368,98,9858,2,0,P|325:121|280:103,1,100,2|2,3:2|3:2,0:0:0:0:
203,23,10580,2,0,P|175:17|136:7,1,50,2|2,3:2|0:0,0:0:0:0:
122,57,10942,2,0,P|97:62|73:68,1,50,2|2,3:2|0:0,0:0:0:0:
25,40,11303,1,2,3:2:0:0:
1,147,11665,1,2,3:2:0:0:
74,228,12026,6,0,P|54:282|40:335,1,100,6|2,3:2|3:2,0:0:0:0:
89,359,12568,1,2,0:0:0:0:
89,359,12749,2,0,P|144:371|171:332,1,100,2|2,3:2|3:2,0:0:0:0:
241,258,13472,2,0,P|229:204|228:192,1,50,0|2,3:2|0:0,0:0:0:0:
203,161,13833,2,0,L|228:78,1,50,0|0,3:2|0:0,0:0:0:0:
247,66,14195,2,0,L|234:12,2,50,2|0|2,3:2|0:0|3:2,0:0:0:0:
351,101,14918,6,0,B|364:77|390:68|390:68|422:89|461:89,1,100,6|10,3:2|0:3,0:0:0:0:
459,132,15460,2,0,P|450:166|431:241,1,100,2|2,3:2|0:0,0:0:0:0:
481,328,16183,1,2,3:2:0:0:
380,365,16544,1,0,0:0:0:0:
380,365,16725,2,0,L|311:348,1,50,10|0,0:3|0:0,0:0:0:0:
285,323,17086,2,0,B|260:313|260:313|215:343,1,50,2|2,3:2|3:2,0:0:0:0:
192,352,17448,1,10,0:3:0:0:
138,256,17809,6,0,P|151:222|162:186,1,50,6|2,3:2|0:0,0:0:0:0:
135,166,18171,1,10,0:3:0:0:
135,166,18351,2,0,P|80:149|33:200,1,100,2|2,3:2|3:2,0:0:0:0:
15,215,18894,1,10,0:3:0:0:
55,317,19255,2,0,P|43:345|35:373,2,50,2|2|10,3:2|0:0|0:3,0:0:0:0:
98,283,19797,2,0,B|146:294|146:294|152:302|152:302|205:313,1,100,2|8,3:2|0:3,0:0:0:0:
238,339,20339,1,8,0:3:0:0:
314,258,20701,6,0,L|296:199,2,50,6|2|10,3:2|0:0|0:3,0:0:0:0:
359,289,21243,1,2,3:2:0:0:
451,229,21605,1,2,0:0:0:0:
400,131,21966,2,0,B|375:98|375:98|412:41,1,100,2|0,3:2|0:0,0:0:0:0:
372,12,22508,2,0,L|300:32,1,50,10|0,0:3|0:0,0:0:0:0:
277,55,22870,2,0,L|213:38,2,50,2|2|10,0:0|3:2|0:3,0:0:0:0:
324,154,23592,6,0,P|311:178|302:206,1,50,6|2,3:2|0:0,0:0:0:0:
264,238,23954,1,10,0:3:0:0:
264,238,24135,2,0,P|225:204|167:228,1,100,2|2,3:2|3:2,0:0:0:0:
137,250,24677,1,10,0:3:0:0:
42,193,25038,2,0,P|19:200|-14:209,2,50,6|2|10,3:2|0:0|0:3,0:0:0:0:
76,150,25580,1,2,3:2:0:0:
50,42,25942,1,2,3:2:0:0:
50,42,26123,2,0,L|116:56,1,50,10|2,0:3|3:2,0:0:0:0:
152,65,26484,6,0,B|198:35|198:35|269:58,1,100,6|2,3:2|0:0,0:0:0:0:
293,78,27026,1,2,3:2:0:0:
293,78,27207,1,2,0:0:0:0:
390,28,27568,1,10,0:3:0:0:
465,108,27930,2,0,P|447:157|428:233,1,100,2|2,3:2|0:0,0:0:0:0:
407,252,28472,1,2,3:2:0:0:
407,252,28653,2,0,P|420:281|430:320,1,50,2|0,0:0|3:0,0:0:0:0:
401,348,29014,1,2,3:0:0:0:
293,333,29376,6,0,P|264:339|212:355,2,50,6|2|2,3:2|0:0|0:0,0:0:0:0:
311,283,29918,1,2,3:2:0:0:
311,283,30098,2,0,P|325:230|269:187,1,100,2|10,0:0|0:3,0:0:0:0:
194,169,30821,2,0,P|154:182|50:203,2,100,2|2|2,3:2|0:0|0:0,0:0:0:0:
218,119,31725,1,0,3:2:0:0:
218,119,31906,1,0,3:2:0:0:
118,73,32267,6,0,P|117:22|158:3,2,100,6|2|2,3:2|0:0|0:0,0:0:0:0:
136,130,33171,1,0,3:2:0:0:
136,130,33351,1,10,0:3:0:0:
57,206,33713,2,0,B|34:257|34:257|75:312,1,100,2|2,3:2|0:0,0:0:0:0:
108,319,34255,2,0,P|149:287|202:306,1,100,2|0,3:2|3:2,0:0:0:0:
231,335,34797,1,8,0:3:0:0:
326,286,35159,6,0,P|309:233|296:183,1,100,6|10,3:2|0:3,0:0:0:0:
263,154,35701,1,0,3:2:0:0:
263,154,35882,1,2,0:0:0:0:
314,56,36243,1,10,0:3:0:0:
394,126,36605,2,0,B|406:188|406:188|416:198|416:198|429:282,1,150,2|2,3:2|3:2,0:0:0:0:
413,379,37508,1,0,3:2:0:0:
413,379,37689,2,0,P|384:370|347:361,1,50,8|0,0:3|0:0,0:0:0:0:
338,316,38050,6,0,P|280:303|245:337,1,100,6|10,3:2|0:3,0:0:0:0:
211,364,38592,1,2,3:2:0:0:
211,364,38773,2,0,L|157:352,1,50,2|0,0:0|3:2,0:0:0:0:
124,312,39135,1,14,0:3:0:0:
202,234,39496,6,0,L|223:179,1,50,10|0,0:3|3:2,0:0:0:0:
191,146,39858,1,10,0:3:0:0:
191,146,40038,2,0,P|183:122|172:80,1,50,2|0,3:2|0:0,0:0:0:0:
208,54,40400,1,0,3:2:0:0:
208,54,40580,1,2,3:2:0:0:
314,109,40942,6,0,P|338:97|379:86,2,55.0000016784668,6|2|10,3:2|3:2|0:3,0:0:0:0:
280,159,41484,2,0,P|261:203|303:249,1,110.000003356934,2|2,3:2|3:2,0:0:0:0:
357,271,42026,1,10,0:3:0:0:
357,271,42207,2,0,P|415:253|464:245,1,110.000003356934,6|2,3:2|3:2,0:0:0:0:
474,185,42749,2,0,P|462:144|458:127,1,55.0000016784668,10|0,0:3|3:2,0:0:0:0:
488,79,43111,1,10,0:3:0:0:
388,12,43472,1,10,0:3:0:0:
285,75,43833,6,0,P|252:64|218:58,1,55.0000016784668,6|2,3:2|3:2,0:0:0:0:
188,25,44195,1,10,0:3:0:0:
188,25,44376,2,0,B|128:15|128:15|89:55,1,110.000003356934,2|2,3:2|3:2,0:0:0:0:
97,114,44918,1,10,0:3:0:0:
97,114,45098,2,0,P|134:144|117:206,1,110.000003356934,6|2,3:2|3:2,0:0:0:0:
83,245,45641,2,0,B|75:267|75:267|99:330|99:330|85:358,2,110.000003356934,10|2|2,0:3|3:2|3:2,0:0:0:0:
41,130,46725,6,0,P|34:98|24:60,2,55.0000016784668,6|2|10,3:2|0:0|0:3,0:0:0:0:
95,156,47267,2,0,P|161:133|208:125,1,110.000003356934,2|2,3:2|3:2,0:0:0:0:
261,150,47809,1,10,0:3:0:0:
261,150,47990,2,0,P|287:186|251:245,1,110.000003356934,6|2,3:2|3:2,0:0:0:0:
210,269,48532,1,10,0:3:0:0:
210,269,48713,2,0,P|183:259|140:242,2,55.0000016784668,2|10|2,3:2|0:3|3:2,0:0:0:0:
237,322,49255,1,14,0:3:0:0:
343,367,49617,6,0,P|376:358|412:352,1,55.0000016784668,6|2,3:2|3:2,0:0:0:0:
437,309,49978,1,10,0:3:0:0:
437,309,50159,2,0,P|402:270|425:205,1,110.000003356934,2|2,3:2|3:2,0:0:0:0:
464,184,50701,1,10,0:3:0:0:
464,184,50882,2,0,P|474:131|439:92,1,110.000003356934,6|2,3:2|3:2,0:0:0:0:
391,65,51424,1,10,0:3:0:0:
391,65,51605,2,0,P|361:76|323:80,1,55.0000016784668,10|8,0:3|0:3,0:0:0:0:
291,49,51966,1,0,0:0:0:0:
291,49,52147,1,10,0:3:0:0:
187,118,52508,6,0,P|149:89|170:27,2,110.000003356934,6|10|10,3:2|0:3|0:3,0:0:0:0:
228,162,53412,1,0,3:2:0:0:
228,162,53592,2,0,L|208:228,1,55.0000016784668,10|0,0:3|3:2,0:0:0:0:
253,259,53954,6,0,P|292:292|279:343,2,110.000003356934,10|10|10,3:3|0:3|0:3,0:0:0:0:
209,301,54858,1,0,3:2:0:0:
209,301,55038,1,10,0:3:0:0:
114,225,55400,6,0,L|4:249,2,110.000003356934,14|10|10,0:3|0:3|0:3,0:0:0:0:
151,177,56303,1,0,3:2:0:0:
151,177,56484,2,0,L|225:194,1,55.0000016784668,10|0,0:3|0:0,0:0:0:0:
254,223,56845,6,0,B|301:192|301:192|363:210,1,110.000003356934,10|0,0:3|3:2,0:0:0:0:
407,180,57388,1,2,3:2:0:0:
407,180,57568,1,2,3:2:0:0:
490,267,57930,1,10,0:3:0:0:
400,348,58291,6,0,P|352:332|292:319,1,110.000003356934,14|10,0:3|0:3,0:0:0:0:
254,280,58833,1,0,3:2:0:0:
254,280,59014,2,0,L|190:298,1,55.0000016784668,10|2,3:3|3:2,0:0:0:0:
148,325,59376,1,10,0:3:0:0:
65,236,59737,2,0,P|52:178|89:147,1,110.000003356934,10|10,0:3|0:3,0:0:0:0:
125,102,60279,1,0,3:2:0:0:
125,102,60460,2,0,P|104:57|98:39,2,55.0000016784668,10|2|10,3:3|3:2|0:3,0:0:0:0:
213,187,61183,6,0,P|180:265|170:299,2,110.000003356934,10|10|8,0:3|0:3|0:3,0:0:0:0:
265,154,62086,1,0,3:2:0:0:
265,154,62267,2,0,P|250:102|248:95,1,55.0000016784668,10|8,0:3|0:3,0:0:0:0:
235,42,62629,2,0,P|199:12|141:29,1,110.000003356934,6|8,3:2|0:3,0:0:0:0:
99,71,63171,1,2,0:0:0:0:
99,71,63351,1,10,0:3:0:0:
152,179,63713,1,8,0:3:0:0:
85,270,64074,6,0,P|113:277|137:285,1,50,6|2,3:2|0:0,0:0:0:0:
168,326,64436,2,0,B|216:317|216:317|224:322|224:322|287:310,1,100,10|10,0:3|0:3,0:0:0:0:
353,248,65159,1,10,0:3:0:0:
301,150,65520,2,0,P|316:112|320:91,1,50,10|10,0:3|0:3,0:0:0:0:
328,48,65882,2,0,P|363:20|423:39,1,100,10|10,0:3|0:3,0:0:0:0:
489,109,66605,1,10,0:3:0:0:
404,179,66966,6,0,L|290:154,1,100,14|2,0:3|3:0,0:0:0:0:
269,124,67508,1,0,3:0:0:0:
269,124,67689,2,0,P|243:130|206:140,1,50,8|8,3:3|3:3,0:0:0:0:
171,161,68050,2,0,P|132:150|116:147,1,50,2|0,3:0|3:0,0:0:0:0:
68,117,68435,2,0,P|33:72|35:152,1,200,10|0,3:3|0:0,0:0:0:0:
118,221,69519,1,2,3:2:0:0:
46,305,69880,6,0,P|79:339|149:316,1,100,6|2,3:2|3:2,0:0:0:0:
169,299,70422,1,2,0:0:0:0:
169,299,70603,2,0,P|217:295|251:330,1,100,2|2,3:2|3:2,0:0:0:0:
352,368,71326,2,0,P|379:360|418:351,1,50,2|2,3:2|0:0,0:0:0:0:
430,309,71688,2,0,P|416:271|411:241,1,50,2|2,3:2|0:0,0:0:0:0:
446,217,72049,1,2,3:2:0:0:
359,149,72410,1,2,3:2:0:0:
264,206,72772,6,0,B|219:218|219:218|163:179,1,100,6|2,3:2|3:2,0:0:0:0:
146,146,73314,1,2,0:0:0:0:
146,146,73495,2,0,P|170:96|186:53,1,100,2|2,3:2|3:2,0:0:0:0:
229,20,74037,1,2,0:0:0:0:
229,20,74218,5,6,3:2:0:0:
315,88,74579,1,0,3:2:0:0:
412,37,74941,2,0,P|420:58|431:90,1,50,2|0,3:2|3:2,0:0:0:0:
470,119,75302,1,2,3:2:0:0:
389,194,75663,6,0,L|333:173,2,50,6|2|10,3:2|0:0|0:3,0:0:0:0:
434,225,76206,2,0,P|452:268|409:315,1,100,2|2,3:2|3:2,0:0:0:0:
380,339,76748,1,8,0:3:0:0:
380,339,76928,2,0,B|352:331|352:331|318:324,1,50,2|0,3:2|3:2,0:0:0:0:
280,305,77290,2,0,P|251:312|215:320,1,50,2|8,0:0|0:3,0:0:0:0:
188,350,77651,2,0,P|130:328|80:318,1,100,2|0,3:2|3:2,0:0:0:0:
42,297,78194,1,10,0:3:0:0:
122,222,78555,6,0,P|106:181|99:166,1,50,6|2,3:2|0:0,0:0:0:0:
124,126,78916,1,10,0:3:0:0:
124,126,79097,2,0,B|145:109|145:109|175:116,1,50,2|0,3:2|0:0,0:0:0:0:
219,133,79459,2,0,B|241:138|241:138|262:121,1,50,2|8,3:2|0:3,0:0:0:0:
303,84,79820,2,0,P|350:96|407:107,2,100,2|2|2,3:2|0:0|3:2,0:0:0:0:
214,18,80904,1,2,3:2:0:0:
214,18,81085,1,10,0:3:0:0:
114,65,81447,6,0,P|78:55|58:51,2,50,6|2|10,3:2|0:0|0:3,0:0:0:0:
152,103,81989,2,0,P|168:138|128:194,1,100,2|2,3:2|3:2,0:0:0:0:
115,239,82531,1,8,0:3:0:0:
115,239,82712,2,0,P|132:273|140:291,1,50,2|0,3:2|3:2,0:0:0:0:
186,308,83073,2,0,P|221:298|247:292,1,50,2|8,3:2|0:3,0:0:0:0:
268,251,83435,1,2,3:2:0:0:
355,317,83796,2,0,P|345:339|334:374,2,50,2|10|2,3:2|0:3|3:2,0:0:0:0:
379,267,84338,6,0,P|372:240|366:208,1,50,6|2,3:2|0:0,0:0:0:0:
336,178,84700,1,10,0:3:0:0:
336,178,84880,2,0,L|349:120,1,50,6|0,3:2|0:0,0:0:0:0:
383,87,85242,2,0,P|372:57|365:27,1,50,2|8,3:2|0:3,0:0:0:0:
317,15,85603,2,0,B|268:3|268:3|231:42,1,100,2|2,3:2|0:0,0:0:0:0:
201,83,86145,1,8,0:3:0:0:
201,83,86326,1,2,3:2:0:0:
277,158,86688,2,0,P|262:196|245:267,1,100,2|2,3:2|3:2,0:0:0:0:
212,296,87230,6,0,P|183:301|147:313,1,50,6|2,3:2|0:0,0:0:0:0:
123,343,87591,1,2,3:2:0:0:
123,343,87772,1,14,0:3:0:0:
29,281,88133,1,10,0:3:0:0:
81,184,88495,2,0,P|45:142|63:85,1,100,14|10,0:3|0:3,0:0:0:0:
130,25,89218,1,14,0:3:0:0:
