osu file format v14

[General]
AudioFilename: audio.mp3
AudioLeadIn: 0
PreviewTime: 44758
Countdown: 0
SampleSet: Soft
StackLeniency: 0.7
Mode: 0
LetterboxInBreaks: 0
WidescreenStoryboard: 1

[Editor]
DistanceSpacing: 1.1
BeatDivisor: 8
GridSize: 4
TimelineZoom: 1.8

[Metadata]
Title:Youkoso Japari Park e (Xmas ver.)
TitleUnicode:ようこそジャパリパークへ(Xmas ver.)
Artist:Doubutsu Biscuits
ArtistUnicode:どうぶつビスケッツ
Creator:rosario wknd
Version:Hard
Source:けものフレンズ
Tags:kemono friends anime kemofure けもフレ opening op christmas x-mas japanese jpop pop j-pop safari drive サーバル serval Cat フェネック fennec アライグマ common raccoon 尾崎由香 yuka ozaki 本宮佳奈 kana motomiya 小野早稀 saki ono
BeatmapID:2690959
BeatmapSetID:1296917

[Difficulty]
HPDrainRate:5
CircleSize:4
OverallDifficulty:6
ApproachRate:7
SliderMultiplier:1.5
SliderTickRate:1

[Events]
//Background and Video events
0,0,"christmaskemono.jpg",0,0
//Break Periods
2,40279,43857
//Storyboard Layer 0 (Background)
//Storyboard Layer 1 (Fail)
//Storyboard Layer 2 (Pass)
//Storyboard Layer 3 (Foreground)
//Storyboard Layer 4 (Overlay)
//Storyboard Sound Samples

[TimingPoints]
2060,594.059405940594,4,2,1,40,1,0
9188,-125,4,2,1,35,0,0
11564,-90.9090909090909,4,2,1,40,0,0
21069,-100,4,2,1,35,0,0
44832,-86.9565217391304,4,2,1,60,0,1
63842,-90.9090909090909,4,2,1,35,0,0
65921,-86.9565217391304,4,2,1,60,0,0

[Colours]
Combo1 : 255,173,91
Combo2 : 255,60,32
Combo3 : 0,128,0

[HitObjects]
86,44,2060,5,10,0:0:0:0:
145,97,2357,1,2,0:0:0:0:
162,19,2654,1,10,0:0:0:0:
71,123,2951,2,0,B|85:195|85:195|79:203|79:203|95:276,1,150,2|2,0:0|0:0,0:0:0:0:
35,319,3842,1,10,0:0:0:0:
164,222,4139,6,0,P|231:234|242:310,1,150,2|2,0:0|0:0,0:0:0:0:
299,365,5030,1,10,0:0:0:0:
419,333,5327,1,2,0:0:0:0:
419,333,5921,1,2,0:0:0:0:
380,268,6218,1,10,0:0:0:0:
423,206,6515,1,2,0:0:0:0:
345,157,6812,6,0,P|333:115|318:75,1,75,10|0,0:0|0:0,0:0:0:0:
463,50,7407,2,0,P|432:81|405:114,1,75,10|0,0:0|0:0,0:0:0:0:
293,0,8000,2,0,P|335:10|377:17,1,75,10|0,0:0|0:0,0:0:0:0:
238,87,8594,2,0,P|208:93|117:117,1,112.5,10|0,0:0|0:0,0:0:0:0:
104,95,9188,6,0,P|69:70|36:73,2,60,2|2|2,0:0|0:0|0:0,0:0:0:0:
104,95,10079,1,2,0:0:0:0:
55,165,10376,1,2,0:0:0:0:
106,288,10673,5,2,0:0:0:0:
43,239,10970,1,2,0:0:0:0:
119,213,11267,1,2,0:0:0:0:
262,355,11564,5,10,0:0:0:0:
330,309,11861,1,2,0:0:0:0:
407,337,12159,1,10,0:0:0:0:
398,121,12456,2,0,B|377:147|349:168|349:168|398:262,1,165.000005035401,2|2,0:0|0:0,0:0:0:0:
473,281,13347,1,10,0:0:0:0:
279,210,13644,6,0,L|119:243,1,123.75000377655,2|0,0:0|0:0,0:0:0:0:
130,266,14238,2,0,L|20:245,1,82.5000025177003,2|10,0:0|0:0,0:0:0:0:
0,117,14832,2,0,P|21:54|107:79,1,165.000005035401,2|2,0:0|0:0,0:0:0:0:
186,115,15723,2,0,P|232:102|280:96,1,82.5000025177003,10|2,0:0|0:0,0:0:0:0:
322,33,16317,6,0,B|392:49|390:84|381:133|485:135,2,165.000005035401,10|10|10,0:0|0:0|0:0,0:0:0:0:
322,159,18099,2,0,P|342:221|363:286,1,123.75000377655,10|0,0:0|0:0,0:0:0:0:
332,307,18693,6,0,P|274:285|223:276,1,82.5000025177003,10|0,0:0|0:0,0:0:0:0:
163,156,19287,2,0,P|221:178|272:187,1,82.5000025177003,10|0,0:0|0:0,0:0:0:0:
322,125,19881,1,10,0:0:0:0:
202,16,20178,5,0,0:0:0:0:
225,96,20475,1,10,0:0:0:0:
283,35,20772,1,0,0:0:0:0:
142,78,21069,6,0,B|61:103|9:79|9:79|57:109|73:163,1,225,6|8,0:0|0:3,0:0:0:0:
83,220,22258,1,8,0:3:0:0:
83,220,22555,2,0,L|58:311,2,75,2|2|2,0:0|3:0|0:0,0:0:0:0:
174,361,23446,6,0,B|213:374|213:374|258:338,1,75,10|0,0:3|0:0,0:0:0:0:
229,266,24040,2,0,B|190:253|190:253|145:289,1,75,2|0,0:0|3:0,0:0:0:0:
323,272,24634,2,0,L|349:174,1,75,10|0,3:3|0:0,0:0:0:0:
422,207,25228,2,0,L|402:279,1,75,2|0,3:0|0:0,0:0:0:0:
341,109,25822,6,0,P|408:114|433:60,2,112.5,10|2|10,0:3|0:0|0:3,0:0:0:0:
286,46,27010,2,0,P|219:41|194:95,2,112.5,10|2|2,0:3|0:0|0:0,0:0:0:0:
180,145,28198,6,0,B|156:135|127:110|127:110|195:232,1,187.5,10|0,0:3|0:0,0:0:0:0:
221,257,29089,1,10,0:3:0:0:
221,257,29238,1,2,0:0:0:0:
221,257,29386,2,0,P|204:298|197:340,1,75,10|0,3:3|0:0,0:0:0:0:
116,292,29980,1,0,3:0:0:0:
285,371,30277,1,2,0:0:0:0:
285,371,30574,6,0,B|361:359|361:359|366:363|366:363|445:349,1,150,10|2,0:3|0:0,0:0:0:0:
499,286,31465,2,0,P|506:241|465:206,1,75,10|8,0:3|0:3,0:0:0:0:
349,197,32059,2,0,P|384:225|435:207,1,75,2|0,0:0|3:0,0:0:0:0:
453,150,32654,1,2,3:0:0:0:
336,0,32951,2,0,B|362:29|384:45|384:45|336:141,1,150,10|2,0:3|0:0,0:0:0:0:
234,222,33842,2,0,L|87:254,1,150,10|2,0:3|0:0,0:0:0:0:
28,68,35030,1,10,0:3:0:0:
28,68,35327,6,0,B|67:52|86:20|86:20|84:57|108:92,1,150,10|2,0:3|0:0,0:0:0:0:
205,67,36218,2,0,P|241:55|295:44,1,75,10|8,0:3|0:3,0:0:0:0:
369,153,36812,2,0,P|326:143|290:137,1,75,2|0,3:0|3:0,0:0:0:0:
211,209,37406,1,2,0:0:0:0:
211,209,37703,6,0,B|163:277|215:350|215:350|219:305|268:281,1,225,10|0,0:3|0:0,0:0:0:0:
463,322,38891,2,0,B|409:315|375:296|375:296|332:317|332:317|289:296|240:287,1,225,2|0,0:0|0:0,0:0:0:0:
144,367,40079,5,6,0:0:0:0:
93,42,44832,6,0,L|120:141,1,86.2500016450882,14|2,0:3|0:0,0:0:0:0:
53,187,45426,1,10,0:3:0:0:
198,61,45723,1,2,3:0:0:0:
198,61,45871,1,0,3:0:0:0:
198,61,46020,2,0,L|291:88,1,86.2500016450882,8|0,3:3|0:0,0:0:0:0:
387,142,46614,2,0,B|371:173|346:191|346:191|381:254,1,129.375002467632,8|0,0:3|0:0,0:0:0:0:
417,264,47208,6,0,P|451:249|511:229,2,86.2500016450882,14|2|10,0:3|0:0|0:3,0:0:0:0:
304,317,48099,1,2,3:0:0:0:
304,317,48248,1,0,3:0:0:0:
304,317,48396,1,8,3:3:0:0:
404,372,48693,1,0,0:0:0:0:
317,231,48990,2,0,L|191:262,1,129.375002467632,10|0,0:3|0:0,0:0:0:0:
177,297,49584,6,0,P|107:264|83:257,1,86.2500016450882,14|0,0:3|0:0,0:0:0:0:
0,207,50178,2,0,P|71:185|103:170,1,86.2500016450882,10|0,0:3|3:0,0:0:0:0:
81,180,50624,1,0,3:0:0:0:
81,180,50772,1,10,3:3:0:0:
219,88,51069,1,0,0:0:0:0:
85,4,51366,2,0,P|109:61|139:132,1,129.375002467632,10|0,0:3|0:0,0:0:0:0:
158,159,51960,6,0,P|169:199|137:243,1,86.2500016450882,14|2,0:3|0:0,0:0:0:0:
74,284,52555,1,10,0:3:0:0:
247,177,52852,1,2,3:0:0:0:
247,177,53000,1,0,3:0:0:0:
247,177,53149,1,8,3:3:0:0:
329,236,53446,1,0,0:0:0:0:
452,151,53743,2,0,B|412:111|412:111|454:44,1,129.375002467632,8|0,0:3|0:0,0:0:0:0:
459,7,54337,6,0,P|430:17|361:33,1,86.2500016450882,14|2,0:3|0:0,0:0:0:0:
261,108,54931,1,10,0:3:0:0:
383,241,55228,1,2,3:0:0:0:
383,241,55376,1,0,3:0:0:0:
383,241,55525,2,0,L|348:141,1,86.2500016450882,8|0,3:3|0:0,0:0:0:0:
290,227,56119,1,8,0:3:0:0:
411,97,56416,1,0,0:0:0:0:
241,17,56713,6,0,P|265:71|281:112,2,86.2500016450882,14|2|10,0:3|0:0|0:3,0:0:0:0:
155,84,57604,1,2,3:0:0:0:
155,84,57753,1,0,3:0:0:0:
155,84,57901,1,8,3:3:0:0:
235,158,58198,1,2,0:0:0:0:
123,311,58495,6,0,B|134:253|134:253|129:246|129:246|147:154,1,129.375002467632,10|0,0:3|0:0,0:0:0:0:
115,150,59089,2,0,P|59:155|37:184,1,86.2500016450882,14|0,0:3|0:0,0:0:0:0:
123,311,59683,2,0,P|179:306|201:277,1,86.2500016450882,10|0,0:3|3:0,0:0:0:0:
226,253,60129,1,0,3:0:0:0:
226,253,60277,2,0,B|261:246|286:224|286:224|307:251|349:269,1,129.375002467632,10|0,3:3|0:0,0:0:0:0:
334,262,60871,1,10,0:3:0:0:
419,211,61168,1,2,0:0:0:0:
344,52,61465,6,0,B|294:15|294:15|343:131,1,172.500003290176,14|8,0:3|0:3,0:0:0:0:
222,163,62357,1,2,3:0:0:0:
222,163,62505,1,0,3:0:0:0:
222,163,62654,2,0,L|112:141,1,86.2500016450882,10|0,3:3|0:0,0:0:0:0:
66,221,63248,1,8,0:3:0:0:
204,74,63545,1,0,0:0:0:0:
46,12,63842,6,0,B|24:40|-3:58|-3:58|30:113|54:155,1,165.000005035401,14|2,0:3|0:0,0:0:0:0:
198,259,65030,2,0,P|282:263|281:326,1,165.000005035401,2|2,0:0|3:0,0:0:0:0:
252,356,65772,1,0,3:0:0:0:
252,356,65921,6,0,P|204:345|140:337,1,86.2500016450882,14|0,3:3|0:0,0:0:0:0:
37,303,66515,1,2,3:0:0:0:
81,168,66812,2,0,P|140:199|125:269,1,129.375002467632,6|0,3:0|0:0,0:0:0:0:
137,254,67406,1,14,3:0:0:0:
