osu file format v14

[General]
AudioFilename: audio.mp3
AudioLeadIn: 0
PreviewTime: 44758
Countdown: 0
SampleSet: Soft
StackLeniency: 0.7
Mode: 0
LetterboxInBreaks: 0
WidescreenStoryboard: 0

[Editor]
DistanceSpacing: 0.9
BeatDivisor: 4
GridSize: 4
TimelineZoom: 1.8

[Metadata]
Title:Youkoso Japari Park e (Xmas ver.)
TitleUnicode:ようこそジャパリパークへ(Xmas ver.)
Artist:Doubutsu Biscuits
ArtistUnicode:どうぶつビスケッツ
Creator:rosario wknd
Version:Easy
Source:けものフレンズ
Tags:kemono friends anime kemofure けもフレ opening op christmas x-mas japanese jpop pop j-pop safari drive サーバル serval Cat フェネック fennec アライグマ common raccoon 尾崎由香 yuka ozaki 本宮佳奈 kana motomiya 小野早稀 saki ono
BeatmapID:2690687
BeatmapSetID:1296917

[Difficulty]
HPDrainRate:2
CircleSize:3.4
OverallDifficulty:3
ApproachRate:3
SliderMultiplier:1
SliderTickRate:1

[Events]
//Background and Video events
0,0,"christmaskemono.jpg",0,0
//Break Periods
2,40279,43392
//Storyboard Layer 0 (Background)
//Storyboard Layer 1 (Fail)
//Storyboard Layer 2 (Pass)
//Storyboard Layer 3 (Foreground)
//Storyboard Layer 4 (Overlay)
//Storyboard Sound Samples

[TimingPoints]
2060,594.059405940594,4,2,1,40,1,0
9188,-100,4,2,1,35,0,0
11564,-100,4,2,1,40,0,0
21069,-100,4,2,1,35,0,0
44832,-100,4,2,1,60,0,1
63842,-100,4,2,1,35,0,0
65921,-100,4,2,1,60,0,0

[Colours]
Combo1 : 255,173,91
Combo2 : 255,60,32
Combo3 : 0,128,0

[HitObjects]
6,341,2060,6,0,B|76:327|76:327|84:331|84:331|170:315,1,150,10|2,0:0|0:0,0:0:0:0:
195,238,3545,1,2,0:0:0:0:
133,171,4139,2,0,P|117:70|205:49,1,200,2|2,0:0|0:0,0:0:0:0:
312,111,6218,1,10,0:0:0:0:
361,36,6812,6,0,P|417:42|455:118,1,100,10|10,0:0|0:0,0:0:0:0:
445,161,8000,2,0,L|479:287,1,100,10|10,0:0|0:0,0:0:0:0:
418,330,9188,2,0,B|381:359|381:359|331:342,1,100,2|2,0:0|0:0,0:0:0:0:
243,365,10376,1,2,0:0:0:0:
88,331,11564,6,0,P|45:320|55:214,1,150,10|2,0:0|0:0,0:0:0:0:
99,163,13050,1,2,0:0:0:0:
35,98,13644,2,0,B|9:54|9:54|42:10,2,100,2|2|2,0:0|0:0|0:0,0:0:0:0:
164,136,15723,1,10,0:0:0:0:
120,214,16317,6,0,L|141:332,1,100,10|10,0:0|0:0,0:0:0:0:
207,369,17505,2,0,P|262:378|309:333,1,100,10|10,0:0|0:0,0:0:0:0:
321,268,18693,1,10,0:0:0:0:
251,210,19287,1,10,0:0:0:0:
274,123,19881,1,10,0:0:0:0:
205,64,20475,1,10,0:0:0:0:
283,20,21069,6,0,B|361:-12|382:37|395:87|517:30,1,200,6|8,0:0|0:3,0:0:0:0:
510,128,22852,1,2,3:0:0:0:
437,181,23446,2,0,L|339:160,2,100,10|2|10,0:3|0:0|3:3,0:0:0:0:
501,244,25228,1,2,3:0:0:0:
452,318,25822,6,0,B|362:327|362:327|352:321|352:321|254:332,1,200,10|10,0:3|0:3,0:0:0:0:
181,279,27604,1,0,3:0:0:0:
207,192,28198,2,0,P|200:115|119:169,1,200,10|10,0:3|3:3,0:0:0:0:
34,314,30574,6,0,P|83:329|142:281,1,100,10|2,0:3|0:0,0:0:0:0:
167,230,31762,2,0,P|211:210|257:225,1,100,8|0,0:3|3:0,0:0:0:0:
320,290,32951,2,0,L|286:388,2,100,10|2|8,0:3|0:0|0:3,0:0:0:0:
302,207,34733,1,0,3:0:0:0:
372,151,35327,6,0,B|376:124|387:102|387:102|372:85|348:42,1,100,10|2,0:3|0:0,0:0:0:0:
279,20,36515,2,0,L|144:44,1,100,8|0,0:3|3:0,0:0:0:0:
92,55,37703,2,0,B|67:35|47:15|47:15|101:160,1,200,10|2,0:3|0:0,0:0:0:0:
44,220,39485,1,0,0:0:0:0:
99,291,40079,5,6,0:0:0:0:
106,9,44832,5,14,0:3:0:0:
184,52,45426,1,10,0:3:0:0:
269,23,46020,2,0,L|382:52,1,100,8|8,3:3|0:3,0:0:0:0:
430,110,47208,2,0,P|424:156|471:193,2,100,14|10|8,0:3|0:3|3:3,0:0:0:0:
365,47,48990,1,10,0:3:0:0:
308,116,49584,6,0,L|336:238,1,100,14|10,0:3|0:3,0:0:0:0:
315,302,50772,2,0,B|275:330|275:330|206:307,1,100,10|10,3:3|0:3,0:0:0:0:
162,250,51961,1,14,0:3:0:0:
216,177,52555,1,10,0:3:0:0:
163,105,53149,1,8,3:3:0:0:
76,132,53744,1,8,0:3:0:0:
76,222,54337,6,0,L|110:342,1,100,14|10,0:3|0:3,0:0:0:0:
188,346,55525,2,0,B|218:342|240:355|240:355|256:331|293:311,1,100,8|8,3:3|0:3,0:0:0:0:
349,275,56713,1,14,0:3:0:0:
421,328,57307,1,10,0:3:0:0:
487,266,57901,2,0,P|498:206|449:159,1,100,8|10,3:3|0:3,0:0:0:0:
411,115,59089,6,0,L|435:10,2,100,14|10|10,0:3|0:3|3:3,0:0:0:0:
331,168,60871,1,10,0:3:0:0:
253,121,61465,1,14,0:3:0:0:
172,161,62060,1,8,0:3:0:0:
98,108,62654,2,0,B|93:83|83:60|83:60|132:17,1,100,10|8,3:3|0:3,0:0:0:0:
208,42,63842,6,0,B|291:14|308:56|322:101|419:59,1,200,14|2,0:3|0:0,0:0:0:0:
493,161,65921,2,0,B|428:172|428:172|420:168|420:168|333:184,1,150,14|6,3:3|3:0,0:0:0:0:
285,248,67406,1,14,3:0:0:0:
