osu file format v14

[General]
AudioFilename: audio.mp3
AudioLeadIn: 0
PreviewTime: 65989
Countdown: 0
SampleSet: Soft
StackLeniency: 0.7
Mode: 0
LetterboxInBreaks: 0
WidescreenStoryboard: 1

[Editor]
Bookmarks: 54441
DistanceSpacing: 1.2
BeatDivisor: 4
GridSize: 4
TimelineZoom: 1.9

[Metadata]
Title:Happy Biscuit
TitleUnicode:ハッピービスケット
Artist:Doubutsu Biscuits
ArtistUnicode:どうぶつビスケッツ
Creator:rosario wknd
Version:Insane!
Source:けものフレンズピクロス
Tags:kemono friends picross video game op opening jpop j-pop pop japanese サーバル serval cat フェネック fennec fox アライグマ common raccoon 尾崎由香 yuka ozaki 本宮佳奈 kana motomiya 小野早稀 saki ono safari drive doraibu さふぁりどらいぶ♪ short game version ver
BeatmapID:3136590
BeatmapSetID:1497782

[Difficulty]
HPDrainRate:5
CircleSize:4.2
OverallDifficulty:7
ApproachRate:9
SliderMultiplier:1.6
SliderTickRate:1

[Events]
//Background and Video events
0,0,"happyfriends.jpg",0,0
//Break Periods
2,32562,37155
//Storyboard Layer 0 (Background)
//Storyboard Layer 1 (Fail)
//Storyboard Layer 2 (Pass)
//Storyboard Layer 3 (Foreground)
//Storyboard Layer 4 (Overlay)
//Storyboard Sound Samples

[TimingPoints]
3,337.078651685393,4,2,1,40,1,0
1351,-100,4,2,1,50,0,0
1856,-90.9090909090909,4,2,1,50,0,0
2025,-90.9090909090909,4,2,1,55,0,0
2362,-86.9565217391304,4,2,1,55,0,0
2699,-83.3333333333333,4,2,1,60,0,0
3458,-83.3333333333333,4,2,1,5,0,0
3542,-83.3333333333333,4,2,1,60,0,0
4806,-83.3333333333333,4,2,1,5,0,0
4890,-83.3333333333333,4,2,1,60,0,0
6322,-83.3333333333333,4,2,1,5,0,0
6407,-83.3333333333333,4,2,1,60,0,0
6576,-76.9230769230769,4,2,1,60,0,0
6829,-76.9230769230769,4,2,1,5,0,0
6913,-76.9230769230769,4,2,2,60,0,0
7671,-76.9230769230769,4,2,2,5,0,0
7755,-76.9230769230769,4,2,2,60,0,0
8008,-76.9230769230769,4,2,2,5,0,0
8092,-76.9230769230769,4,2,1,50,0,0
8935,-111.111111111111,4,2,1,50,0,0
9525,-111.111111111111,4,2,1,5,0,0
9609,-111.111111111111,4,2,1,50,0,0
9862,-111.111111111111,4,2,1,5,0,0
9946,-111.111111111111,4,2,1,50,0,0
10199,-111.111111111111,4,2,1,5,0,0
10283,-111.111111111111,4,2,1,50,0,0
11969,-100,4,2,1,50,0,0
12896,-100,4,2,1,5,0,0
12980,-100,4,2,0,50,0,0
13317,-100,4,2,1,50,0,0
14918,-100,4,2,1,5,0,0
15002,-100,4,2,1,50,0,0
15255,-100,4,2,1,5,0,0
15340,-100,4,2,1,50,0,0
17362,-90.9090909090909,4,2,1,50,0,0
17699,-90.9090909090909,4,2,2,50,0,0
18879,-142.857142857143,4,2,2,45,0,0
19216,-142.857142857143,4,2,1,45,0,0
21576,-76.9230769230769,4,2,1,70,0,0
22165,-76.9230769230769,4,2,1,5,0,0
22250,-76.9230769230769,4,2,1,70,0,0
23008,-76.9230769230769,4,2,1,5,0,0
23092,-76.9230769230769,4,2,1,70,0,0
25705,-76.9230769230769,4,2,1,5,0,0
25789,-76.9230769230769,4,2,1,70,0,0
26126,-76.9230769230769,4,2,2,70,0,0
27221,-76.9230769230769,4,2,2,5,0,0
27306,-76.9230769230769,4,2,1,70,0,0
29076,-76.9230769230769,4,2,1,5,0,0
29160,-76.9230769230769,4,2,1,70,0,0
29581,-76.9230769230769,4,2,1,5,0,0
29665,-76.9230769230769,4,2,1,70,0,0
30845,-71.4285714285714,4,2,1,70,0,0
31182,-71.4285714285714,4,2,2,75,0,0
32362,-71.4285714285714,4,2,1,40,0,0
37755,-111.111111111111,4,2,1,45,0,0
41800,-111.111111111111,4,2,1,55,0,0
43149,-90.9090909090908,4,2,1,55,0,0
48458,-90.9090909090908,4,2,1,5,0,0
48542,-90.9090909090908,4,2,1,55,0,0
49806,-90.9090909090908,4,2,1,5,0,0
49890,-90.9090909090908,4,2,1,55,0,0
50564,-83.3333333333333,4,2,1,55,0,0
51238,-90.9090909090908,4,2,1,55,0,0
51491,-90.9090909090908,4,2,1,5,0,0
51576,-90.9090909090908,4,2,1,55,0,0
51997,-90.9090909090908,4,2,1,5,0,0
52081,-90.9090909090908,4,2,1,55,0,0
52418,-83.3333333333333,4,2,1,55,0,0
52671,-83.3333333333333,4,2,1,5,0,0
52755,-83.3333333333333,4,2,1,55,0,0
53851,-83.3333333333333,4,2,1,5,0,0
53935,-125,4,2,1,50,0,0
58907,-125,4,2,1,5,0,0
58991,-125,4,2,1,50,0,0
59328,-100,4,2,1,60,0,0
62025,-100,4,2,1,70,0,0
63373,-83.3333333333333,4,2,1,75,0,0
63626,-83.3333333333333,4,2,1,5,0,0
63710,-83.3333333333333,4,2,1,75,0,0
64132,-83.3333333333333,4,2,1,5,0,0
64216,-83.3333333333333,4,2,1,75,0,0
64385,-76.9230769230769,4,2,1,75,0,0
64638,-76.9230769230769,4,2,1,5,0,0
64722,-76.9230769230769,4,2,1,75,0,0
65143,-76.9230769230769,4,2,1,5,0,0
65227,-76.9230769230769,4,2,1,75,0,0
65564,-100,4,2,1,75,0,0
66070,-76.9230769230769,4,2,1,80,0,1
66660,-76.9230769230769,4,2,1,5,0,1
66744,-76.9230769230769,4,2,1,80,0,1
67503,-76.9230769230769,4,2,1,5,0,1
67587,-76.9230769230769,4,2,1,80,0,1
68177,-76.9230769230769,4,2,1,5,0,1
68261,-76.9230769230769,4,2,1,80,0,1
68345,-76.9230769230769,4,2,1,5,0,1
68429,-76.9230769230769,4,2,1,80,0,1
69188,-76.9230769230769,4,2,1,5,0,1
69272,-76.9230769230769,4,2,1,80,0,1
70199,-76.9230769230769,4,2,1,5,0,1
70283,-76.9230769230769,4,2,1,80,0,1
70873,-76.9230769230769,4,2,1,5,0,1
70958,-76.9230769230769,4,2,1,80,0,1
71042,-76.9230769230769,4,2,1,5,0,1
71126,-76.9230769230769,4,2,1,80,0,1
72053,-76.9230769230769,4,2,1,5,0,1
72137,-76.9230769230769,4,2,1,80,0,1
73570,-76.9230769230769,4,2,1,5,0,1
73654,-76.9230769230769,4,2,1,80,0,1
74160,-71.4285714285714,4,2,1,85,0,1
74244,-71.4285714285714,4,2,1,5,0,1
74328,-71.4285714285714,4,2,1,85,0,1
74750,-71.4285714285714,4,2,1,5,0,1
74834,-71.4285714285714,4,2,1,85,0,1
75593,-71.4285714285714,4,2,1,5,0,1
75677,-71.4285714285714,4,2,1,85,0,1
76351,-83.3333333333333,4,2,1,85,0,1
76435,-83.3333333333333,4,2,1,5,0,1
76519,-83.3333333333333,4,2,1,85,0,1
76856,-76.9230769230769,4,2,1,80,0,1
77447,-76.9230769230769,4,2,1,5,0,1
77531,-76.9230769230769,4,2,1,80,0,1
77615,-76.9230769230769,4,2,1,5,0,1
77699,-76.9230769230769,4,2,1,80,0,1
78289,-76.9230769230769,4,2,1,5,0,1
78373,-76.9230769230769,4,2,1,80,0,1
78963,-76.9230769230769,4,2,1,5,0,1
79047,-76.9230769230769,4,2,1,80,0,1
80143,-76.9230769230769,4,2,1,5,0,1
80227,-76.9230769230769,4,2,1,80,0,1
80986,-76.9230769230769,4,2,1,5,0,1
81070,-76.9230769230769,4,2,1,80,0,1
81154,-76.9230769230769,4,2,1,5,0,1
81238,-76.9230769230769,4,2,1,80,0,1
81660,-76.9230769230769,4,2,1,5,0,1
81744,-76.9230769230769,4,2,1,80,0,1
82250,-71.4285714285714,4,2,1,80,0,1
82503,-71.4285714285714,4,2,1,5,0,1
82587,-71.4285714285714,4,2,1,80,0,1
83429,-66.6666666666667,4,2,1,70,0,1
83682,-66.6666666666667,4,2,1,5,0,1
83767,-66.6666666666667,4,2,1,70,0,1
84020,-66.6666666666667,4,2,1,5,0,1
84104,-66.6666666666667,4,2,1,70,0,1
84357,-66.6666666666667,4,2,1,5,0,1
84441,-66.6666666666667,4,2,1,70,0,1
84609,-71.4285714285714,4,2,1,70,0,1
84946,-71.4285714285714,4,2,1,80,0,1
86126,-71.4285714285714,4,2,1,85,0,1
86379,-71.4285714285714,4,2,1,5,0,1
86463,-71.4285714285714,4,2,1,85,0,1
87439,337.078651685393,4,2,1,85,1,1
87439,-71.4285714285714,4,2,1,85,0,1
87523,-71.4285714285714,4,2,1,5,0,1
87607,337.078651685393,4,2,1,60,1,0
87607,-100,4,2,1,60,0,0

[Colours]
Combo1 : 0,142,210
Combo2 : 252,223,58
Combo3 : 236,63,53

[HitObjects]
256,192,3,12,0,1182,0:0:0:0:
161,321,1351,5,8,0:0:0:0:
99,369,1519,1,0,3:0:0:0:
99,369,1604,1,0,3:0:0:0:
99,369,1688,1,0,3:0:0:0:
9,329,1856,1,8,0:0:0:0:
9,329,2025,6,0,L|21:386,3,44.0000013427735,2|2|10|2,0:0|0:0|0:0|0:0,0:0:0:0:
53,265,2362,2,0,L|40:200,3,46.0000008773804,10|2|10|10,0:0|0:0|0:0|0:0,0:0:0:0:
143,282,2699,6,0,B|176:239|176:239|147:178,1,95.9999970703126,14|2,0:0|0:0,0:0:0:0:
117,165,2952,1,2,0:0:0:0:
117,165,3036,1,10,0:0:0:0:
0,83,3205,2,0,B|60:73|60:73|85:83|85:83|177:67,1,143.999995605469,2|0,3:0|0:0,0:0:0:0:
178,36,3542,1,2,3:0:0:0:
261,111,3710,1,10,0:0:0:0:
403,15,3879,6,0,P|352:3|305:50,1,95.9999970703126,2|0,3:0|0:0,0:0:0:0:
409,159,4216,2,0,P|444:120|427:56,1,95.9999970703126,2|8,3:0|0:0,0:0:0:0:
319,172,4553,2,0,P|290:220|344:280,1,143.999995605469,2|0,3:0|0:0,0:0:0:0:
384,300,4890,1,2,3:0:0:0:
211,358,5059,1,10,0:0:0:0:
211,358,5143,1,2,0:0:0:0:
211,358,5227,2,0,B|191:295|159:256|159:256|224:206,1,191.999994140625,6|0,3:0|3:0,0:0:0:0:
251,78,5733,5,8,0:0:0:0:
301,165,5901,1,0,3:0:0:0:
214,215,6070,1,8,0:0:0:0:
70,65,6238,2,0,L|149:91,1,47.9999985351563,2|0,3:0|0:0,0:0:0:0:
177,42,6407,1,10,0:0:0:0:
17,130,6576,6,0,B|34:189|34:189|59:211|59:211|61:258|76:284,1,155.999992858887,6|0,3:0|0:0,0:0:0:0:
22,325,6913,1,2,3:0:0:0:
135,225,7081,1,2,3:0:0:0:
17,130,7250,1,2,3:0:0:0:
106,41,7418,5,0,3:0:0:0:
106,41,7502,1,0,3:0:0:0:
106,41,7587,2,0,L|174:61,1,51.999997619629,2|0,3:0|3:0,0:0:0:0:
216,102,7755,2,0,B|323:64|323:64|301:83|295:114,1,155.999992858887,2|0,3:0|0:0,0:0:0:0:
293,171,8092,5,2,3:0:0:0:
415,64,8429,1,2,0:0:0:0:
415,64,8767,1,10,0:0:0:0:
466,123,8935,2,0,L|513:109,2,35.9999989013672,0|0|2,0:0|0:0|0:0,0:0:0:0:
414,183,9272,6,0,B|401:207|387:227|387:227|405:251|422:283,1,107.999996704102,14|0,0:0|0:0,0:0:0:0:
452,290,9609,2,0,B|463:312|482:337|482:337|468:357|455:381,1,107.999996704102,2|0,3:0|0:0,0:0:0:0:
349,306,9946,2,0,L|220:325,1,107.999996704102,14|0,0:0|0:0,0:0:0:0:
208,349,10283,2,0,L|149:334,2,35.9999989013672,10|8|10,0:0|0:0|0:0,0:0:0:0:
122,267,10620,2,0,L|63:252,2,35.9999989013672,10|8|8,0:0|0:0|0:0,0:0:0:0:
198,205,11126,5,2,0:0:0:0:
198,205,11463,2,0,L|169:110,2,71.9999978027344,8|2|0,0:0|0:0|0:0,0:0:0:0:
234,29,11969,6,0,P|257:77|241:103,1,80,8|0,0:0|0:0,0:0:0:0:
154,17,12306,1,10,0:0:0:0:
154,17,12390,1,8,0:0:0:0:
154,17,12474,1,10,0:0:0:0:
66,148,12643,2,0,P|25:102|57:52,1,120,4|0,3:0|0:0,0:0:0:0:
76,33,12980,1,8,0:0:0:0:
147,137,13149,1,8,0:0:0:0:
87,223,13317,1,2,0:0:0:0:
87,223,13486,6,0,B|162:209|162:209|169:214|169:214|261:197,1,160,2|2,3:0|0:0,0:0:0:0:
211,348,13991,1,0,3:0:0:0:
211,348,14160,2,0,B|183:320|183:320|212:250,2,80,10|0|2,0:0|0:0|3:0,0:0:0:0:
287,274,14665,2,0,P|348:258|384:324,1,120,10|0,0:0|0:0,0:0:0:0:
391,329,15002,2,0,P|432:368|487:350,1,120,10|2,0:0|0:0,0:0:0:0:
512,317,15340,1,2,3:0:0:0:
443,238,15508,1,8,0:0:0:0:
443,238,15677,1,0,3:0:0:0:
500,185,15845,2,0,L|473:87,1,80,2|0,3:0|0:0,0:0:0:0:
383,41,16182,6,0,B|352:-2|352:-2|480:44,1,160,6|2,3:0|0:0,0:0:0:0:
337,107,16688,1,2,3:0:0:0:
337,107,16856,2,0,L|232:131,1,80,10|2,0:0|3:0,0:0:0:0:
206,72,17194,1,2,3:0:0:0:
331,192,17362,6,0,B|346:259|300:276|250:282|285:378,1,176.000005371094,14|2,0:0|3:0,0:0:0:0:
427,160,17868,1,2,3:0:0:0:
352,97,18036,1,0,3:0:0:0:
319,296,18205,1,2,3:0:0:0:
412,262,18373,1,0,3:0:0:0:
252,125,18542,1,2,3:0:0:0:
234,222,18710,1,2,3:0:0:0:
352,97,18879,6,0,P|365:33|315:2,2,111.999996582031,2|2|10,3:0|0:0|0:0,0:0:0:0:
117,71,19890,1,2,0:0:0:0:
117,71,20227,5,10,0:0:0:0:
199,36,20564,1,10,0:0:0:0:
265,95,20901,1,10,0:0:0:0:
91,163,21238,1,2,0:0:0:0:
91,163,21576,6,0,P|67:214|111:267,1,103.999995239258,12|2,0:0|0:0,0:0:0:0:
146,294,21828,1,0,0:0:0:0:
146,294,21913,1,10,0:0:0:0:
257,247,22081,2,0,L|332:265,1,51.999997619629,2|0,0:0|0:0,0:0:0:0:
361,308,22250,2,0,L|476:285,2,103.999995239258,10|2|10,0:0|0:0|0:0,0:0:0:0:
242,382,22755,6,0,B|223:311|223:311|227:302|227:302|206:217,1,155.999992858887,2|0,3:0|0:0,0:0:0:0:
248,169,23092,2,0,L|266:108,2,51.999997619629,2|2|10,0:0|0:0|0:0,0:0:0:0:
346,241,23429,1,2,0:0:0:0:
474,116,23598,2,0,L|352:150,1,103.999995239258,10|2,0:0|3:0,0:0:0:0:
317,97,23851,1,0,0:0:0:0:
317,97,23935,1,10,0:0:0:0:
472,217,24104,1,2,3:0:0:0:
317,97,24272,6,0,P|306:39|341:10,1,103.999995239258,8|2,0:0|0:0,0:0:0:0:
408,18,24525,1,2,0:0:0:0:
408,18,24609,1,10,0:0:0:0:
253,145,24778,1,2,0:0:0:0:
253,145,24862,1,2,0:0:0:0:
253,145,24946,1,10,0:0:0:0:
186,104,25115,1,2,3:0:0:0:
76,174,25283,1,8,0:0:0:0:
209,340,25452,6,0,B|232:317|262:297|262:297|210:199,1,155.999992858887,2|0,0:0|0:0,0:0:0:0:
150,198,25789,1,2,3:0:0:0:
34,314,25958,2,0,B|20:292|0:276|0:276|33:223,1,103.999995239258,10|2,0:0|3:0,0:0:0:0:
76,174,26210,5,0,3:0:0:0:
76,174,26295,1,0,3:0:0:0:
67,138,26379,1,0,3:0:0:0:
59,102,26463,1,2,3:0:0:0:
48,67,26547,1,0,0:0:0:0:
41,30,26632,2,0,B|91:41|91:41|95:47|95:47|180:66,1,103.999995239258,2|0,3:0|3:0,0:0:0:0:
204,22,26885,1,0,3:0:0:0:
204,22,26969,5,4,3:0:0:0:
322,148,27137,2,0,L|257:165,1,51.999997619629,2|0,0:0|0:0,0:0:0:0:
220,108,27306,1,10,0:0:0:0:
151,217,27474,1,2,0:0:0:0:
260,285,27643,1,10,0:0:0:0:
260,285,27811,2,0,P|313:274|383:264,1,103.999995239258,2|8,3:0|0:0,0:0:0:0:
491,384,28149,6,0,B|361:354|361:354|409:351|428:318,1,207.999990478516,2|2,3:0|0:0,0:0:0:0:
472,266,28570,1,2,0:0:0:0:
466,240,28654,1,10,0:0:0:0:
462,214,28738,1,2,0:0:0:0:
455,188,28823,2,0,B|475:127|431:113|379:104|414:8,1,155.999992858887,2|0,3:0|0:0,0:0:0:0:
461,5,29160,1,2,3:0:0:0:
341,107,29328,2,0,B|308:104|279:93|279:93|252:105|252:105|213:94|164:88,1,155.999992858887,8|0,0:0|0:0,0:0:0:0:
143,35,29665,6,0,L|31:58,1,103.999995239258,8|2,0:0|0:0,0:0:0:0:
0,116,29918,1,2,0:0:0:0:
0,116,30002,1,10,0:0:0:0:
104,216,30171,1,2,0:0:0:0:
104,216,30255,1,2,0:0:0:0:
104,216,30340,1,10,0:0:0:0:
2,299,30508,1,2,3:0:0:0:
97,384,30677,1,10,0:0:0:0:
255,325,30845,6,0,B|253:260|253:260|142:297|142:297|164:308|185:330,1,223.999993164063,6|2,3:0|3:0,0:0:0:0:
326,369,31351,1,2,3:0:0:0:
405,289,31519,1,2,3:0:0:0:
200,167,31688,1,2,3:0:0:0:
253,265,31856,1,2,3:0:0:0:
410,125,32025,1,2,3:0:0:0:
332,140,32193,1,2,3:0:0:0:
332,140,32362,1,2,3:0:0:0:
431,135,37755,6,0,B|461:56|461:56|392:6,2,143.999995605469,6|0|2,3:0|3:0|3:0,0:0:0:0:
431,135,38767,1,8,0:0:0:0:
361,94,38935,1,2,0:0:0:0:
361,94,39104,2,0,B|297:107|297:107|294:113|294:113|215:130,1,143.999995605469,2|2,3:0|3:0,0:0:0:0:
163,88,39609,2,0,L|118:76,2,35.9999989013672,2|8|10,0:0|0:0|0:0,0:0:0:0:
56,53,39946,1,0,3:0:0:0:
72,123,40115,1,2,3:0:0:0:
92,191,40283,1,0,3:0:0:0:
60,344,40452,6,0,P|11:266|53:233,1,143.999995605469,6|2,3:0|0:0,0:0:0:0:
92,191,40958,1,0,3:0:0:0:
178,279,41126,2,0,L|234:266,3,35.9999989013672,10|2|2|2,0:0|0:0|0:0|0:0,0:0:0:0:
241,247,41463,2,0,L|297:260,3,35.9999989013672,2|2|2|0,0:0|0:0|3:0|0:0,0:0:0:0:
326,304,41800,5,14,0:0:0:0:
400,235,41969,2,0,L|418:286,2,35.9999989013672,0|0|0,3:0|3:0|3:0,0:0:0:0:
333,162,42306,1,2,3:0:0:0:
333,162,42390,1,0,3:0:0:0:
333,162,42474,1,2,3:0:0:0:
430,43,42643,1,2,0:0:0:0:
430,43,43149,6,0,P|377:34|348:69,1,88.000002685547,6|2,3:0|0:0,0:0:0:0:
460,116,43486,1,8,0:0:0:0:
333,162,43654,1,2,0:0:0:0:
333,162,43738,1,2,0:0:0:0:
333,162,43823,2,0,B|265:171|256:126|254:73|152:93,1,176.000005371094,2|10,3:0|0:0,0:0:0:0:
117,34,44328,1,2,0:0:0:0:
41,157,44497,6,0,B|14:123|14:123|41:63,1,88.000002685547,2|2,3:0|0:0,0:0:0:0:
118,153,44834,1,10,0:0:0:0:
10,232,45002,1,2,0:0:0:0:
10,232,45087,1,2,0:0:0:0:
10,232,45171,1,2,3:0:0:0:
109,335,45340,2,0,L|86:238,2,88.000002685547,2|10|2,0:0|0:0|0:0,0:0:0:0:
118,153,45845,6,0,P|168:149|197:202,1,88.000002685547,2|2,3:0|0:0,0:0:0:0:
214,270,46182,2,0,P|246:297|288:290,1,88.000002685547,10|2,0:0|0:0,0:0:0:0:
321,251,46435,1,2,0:0:0:0:
321,251,46519,2,0,B|306:212|272:162|272:162|302:142|338:97,1,176.000005371094,2|10,3:0|0:0,0:0:0:0:
424,30,47025,1,2,0:0:0:0:
424,30,47109,1,2,0:0:0:0:
424,30,47194,5,2,3:0:0:0:
506,128,47362,1,2,0:0:0:0:
408,210,47531,1,8,0:0:0:0:
326,111,47699,2,0,L|246:96,2,44.0000013427735,2|0|2,3:0|3:0|3:0,0:0:0:0:
414,118,48036,1,12,0:0:0:0:
367,344,48205,2,0,B|351:282|351:282|343:276|343:276|326:209,1,132.00000402832,14|2,0:0|0:0,0:0:0:0:
300,187,48542,2,0,P|258:173|214:215,1,88.000002685547,6|2,3:0|0:0,0:0:0:0:
178,352,48879,6,0,L|151:244,1,88.000002685547,10|2,0:0|0:0,0:0:0:0:
118,238,49132,1,0,0:0:0:0:
118,238,49216,2,0,L|142:137,1,88.000002685547,2|0,3:0|3:0,0:0:0:0:
175,121,49469,1,0,3:0:0:0:
175,121,49553,1,8,0:0:0:0:
29,77,49722,2,0,L|100:60,1,44.0000013427735,2|0,0:0|0:0,0:0:0:0:
123,17,49890,5,6,3:0:0:0:
11,154,50059,1,0,3:0:0:0:
11,154,50143,1,0,3:0:0:0:
11,154,50227,1,10,0:0:0:0:
64,218,50396,1,2,0:0:0:0:
10,331,50564,6,0,L|111:308,1,95.9999970703126,2|0,3:0|3:0,0:0:0:0:
153,256,50817,1,0,3:0:0:0:
153,256,50901,1,2,3:0:0:0:
231,330,51070,1,0,3:0:0:0:
353,228,51238,6,0,P|404:256|388:330,1,132.00000402832,6|0,3:0|0:0,0:0:0:0:
368,347,51576,1,10,0:0:0:0:
252,198,51744,2,0,P|250:139|322:116,1,132.00000402832,2|0,3:0|0:0,0:0:0:0:
345,136,52081,2,0,L|454:118,1,88.000002685547,2|14,3:0|0:0,0:0:0:0:
285,34,52418,6,0,B|263:41|231:46|231:46|211:71|211:71|123:90,1,143.999995605469,6|0,3:0|0:0,0:0:0:0:
109,26,52755,1,8,0:0:0:0:
250,142,52924,1,8,0:0:0:0:
250,142,53092,1,8,0:0:0:0:
350,76,53261,1,10,0:0:0:0:
481,181,53429,1,0,3:0:0:0:
481,181,53514,1,0,3:0:0:0:
481,181,53598,2,0,P|504:122|425:70,1,143.999995605469,10|0,0:0|0:0,0:0:0:0:
425,64,53935,6,0,B|437:135|392:146|339:150|363:251,1,192,6|2,3:0|0:0,0:0:0:0:
416,345,54609,2,0,P|469:296|398:308,1,192,2|2,0:0|0:0,0:0:0:0:
335,356,55283,2,0,B|216:319|216:319|253:344|253:377,1,192,2|0,0:0|0:0,0:0:0:0:
252,372,55958,1,2,0:0:0:0:
252,372,56632,6,0,P|272:296|226:266,1,128,2|0,0:0|0:0,0:0:0:0:
170,245,57137,1,2,0:0:0:0:
170,245,57306,2,0,P|132:197|159:142,1,128,2|2,0:0|0:0,0:0:0:0:
284,85,57980,2,0,B|254:75|231:48|231:48|200:65|144:67,1,128,2|0,0:0|0:0,0:0:0:0:
50,15,58570,1,8,0:0:0:0:
50,15,58654,6,0,L|76:120,1,96,8|0,0:0|3:0,0:0:0:0:
98,149,58991,2,0,L|78:228,1,64,0|2,3:0|3:0,0:0:0:0:
14,320,59328,6,0,B|115:290|115:290|159:341,1,160,6|0,3:0|3:0,0:0:0:0:
241,365,59834,1,2,0:0:0:0:
241,365,60002,2,0,P|255:307|223:284,1,80,2|0,3:0|0:0,0:0:0:0:
183,180,60340,2,0,P|169:238|201:261,1,80,8|2,0:0|0:0,0:0:0:0:
327,295,60677,6,0,B|400:283|400:283|412:288|412:288|484:276,1,160,2|2,3:0|3:0,0:0:0:0:
503,208,61182,1,2,0:0:0:0:
406,91,61351,2,0,L|433:198,1,80,2|0,3:0|0:0,0:0:0:0:
415,214,61604,1,8,0:0:0:0:
415,214,61688,2,0,P|375:221|330:175,1,80,10|0,0:0|0:0,0:0:0:0:
236,0,62025,5,6,3:0:0:0:
169,89,62194,1,2,0:0:0:0:
342,201,62362,5,2,0:0:0:0:
281,107,62531,1,2,3:0:0:0:
281,107,62615,1,0,3:0:0:0:
281,107,62699,1,8,0:0:0:0:
194,166,62868,5,8,0:0:0:0:
262,364,63036,1,2,3:0:0:0:
268,336,63120,1,2,0:0:0:0:
273,308,63205,1,10,0:0:0:0:
279,280,63289,1,2,0:0:0:0:
284,252,63373,6,0,P|358:228|388:291,1,143.999995605469,2|0,3:0|3:0,0:0:0:0:
389,344,63710,1,10,0:0:0:0:
194,309,63879,6,0,P|136:256|175:199,1,143.999995605469,6|0,3:0|0:0,0:0:0:0:
230,170,64216,1,14,0:0:0:0:
382,100,64385,2,0,B|370:142|310:176|310:176|310:139|282:91,1,155.999992858887,14|0,0:0|0:0,0:0:0:0:
270,55,64722,5,2,3:0:0:0:
240,34,64806,1,2,0:0:0:0:
203,33,64890,1,2,0:0:0:0:
169,47,64974,1,10,0:0:0:0:
145,75,65059,2,0,P|117:63|67:51,1,51.999997619629,10|0,0:0|0:0,0:0:0:0:
15,159,65227,1,2,3:0:0:0:
15,159,65564,2,0,P|74:141|42:177,1,160,14|0,0:0|3:0,0:0:0:0:
12,239,65986,1,0,3:0:0:0:
12,239,66070,6,0,P|-7:263|40:321,1,103.999995239258,6|0,3:0|0:0,0:0:0:0:
228,319,66407,2,0,B|195:329|159:330|159:330|136:357|136:357|95:357|57:370,1,155.999992858887,10|0,0:0|0:0,0:0:0:0:
24,319,66744,1,10,0:0:0:0:
105,230,66913,1,0,3:0:0:0:
0,149,67081,1,10,0:0:0:0:
132,27,67250,6,0,B|149:60|178:85|178:85|112:175,1,155.999992858887,2|0,3:0|0:0,0:0:0:0:
180,204,67587,2,0,P|235:212|262:157,1,103.999995239258,2|8,0:0|0:0,0:0:0:0:
422,50,67924,2,0,B|323:22|323:22|356:47|369:90,1,155.999992858887,2|0,0:0|0:0,0:0:0:0:
391,127,68261,2,0,P|380:151|367:196,1,51.999997619629,2|0,3:0|0:0,0:0:0:0:
328,233,68429,1,10,0:0:0:0:
472,322,68598,5,2,3:0:0:0:
472,322,68682,1,0,0:0:0:0:
472,322,68767,2,0,B|436:357|436:357|366:333,1,103.999995239258,8|0,0:0|0:0,0:0:0:0:
319,313,69019,1,0,0:0:0:0:
319,313,69104,2,0,L|239:336,1,51.999997619629,10|0,0:0|0:0,0:0:0:0:
210,370,69272,1,0,0:0:0:0:
112,309,69441,2,0,P|64:293|22:351,2,103.999995239258,10|2|10,0:0|3:0|0:0,0:0:0:0:
151,196,69946,6,0,B|166:138|120:121|70:115|105:19,1,155.999992858887,2|0,3:0|0:0,0:0:0:0:
149,11,70283,1,2,0:0:0:0:
32,136,70452,1,10,0:0:0:0:
151,196,70620,2,0,B|193:231|194:286|194:286|175:294|145:324,1,155.999992858887,0|0,3:0|0:0,0:0:0:0:
91,361,70958,2,0,L|23:345,1,51.999997619629,0|0,3:0|0:0,0:0:0:0:
7,284,71126,1,12,0:0:0:0:
222,353,71295,1,2,3:0:0:0:
222,353,71379,1,0,3:0:0:0:
222,353,71463,6,0,L|337:332,1,103.999995239258,14|0,0:0|0:0,0:0:0:0:
368,212,71800,2,0,P|437:228|415:326,1,155.999992858887,10|0,0:0|0:0,0:0:0:0:
394,358,72137,1,10,0:0:0:0:
275,176,72306,1,0,3:0:0:0:
248,276,72474,1,10,0:0:0:0:
481,140,72643,6,0,B|441:105|441:105|362:122,1,103.999995239258,2|8,3:0|0:0,0:0:0:0:
368,212,72980,2,0,B|408:247|408:247|487:230,1,103.999995239258,2|8,0:0|0:0,0:0:0:0:
406,38,73317,2,0,B|337:51|337:51|330:47|330:47|251:62,1,155.999992858887,2|0,0:0|0:0,0:0:0:0:
196,23,73654,1,0,3:0:0:0:
57,154,73823,2,0,P|9:132|20:75,1,103.999995239258,10|2,0:0|3:0,0:0:0:0:
46,28,74076,1,0,0:0:0:0:
46,28,74160,6,0,L|116:45,1,55.9999982910157,10|0,0:0|0:0,0:0:0:0:
144,99,74328,1,0,0:0:0:0:
247,276,74497,2,0,B|298:241|298:241|236:135,1,167.999994873047,10|0,0:0|0:0,0:0:0:0:
291,93,74834,5,10,0:0:0:0:
150,215,75002,1,0,3:0:0:0:
272,356,75171,1,10,0:0:0:0:
413,234,75340,6,0,B|466:263|508:261|508:261|458:272|436:306,1,167.999994873047,6|0,3:0|0:0,0:0:0:0:
396,338,75677,1,10,0:0:0:0:
396,338,75761,1,8,0:0:0:0:
396,338,75845,1,10,0:0:0:0:
255,277,76014,1,2,3:0:0:0:
255,277,76098,1,0,0:0:0:0:
255,277,76182,1,10,0:0:0:0:
142,372,76351,6,0,L|119:307,1,47.9999985351563,0|0,3:0|0:0,0:0:0:0:
71,277,76519,2,0,L|101:177,1,95.9999970703126,10|8,0:0|0:0,0:0:0:0:
17,78,76772,1,8,0:0:0:0:
17,78,76856,6,0,P|56:113|124:84,1,103.999995239258,14|0,0:0|0:0,0:0:0:0:
186,26,77194,2,0,P|255:10|291:97,1,155.999992858887,10|0,0:0|0:0,0:0:0:0:
346,127,77531,2,0,P|373:116|419:113,1,51.999997619629,10|0,0:0|0:0,0:0:0:0:
455,71,77699,1,0,3:0:0:0:
324,200,77868,1,10,0:0:0:0:
464,263,78036,6,0,B|433:276|409:279|409:279|390:317|390:317|354:325|297:347,1,155.999992858887,2|0,3:0|0:0,0:0:0:0:
271,366,78373,2,0,P|239:319|188:321,1,103.999995239258,2|8,0:0|0:0,0:0:0:0:
109,196,78710,2,0,B|53:236|53:236|104:333,1,155.999992858887,2|0,0:0|0:0,0:0:0:0:
39,363,79047,1,2,3:0:0:0:
176,236,79216,2,0,L|217:104,1,103.999995239258,10|2,0:0|3:0,0:0:0:0:
164,76,79469,5,0,0:0:0:0:
164,76,79553,1,8,0:0:0:0:
246,6,79722,1,0,0:0:0:0:
164,76,79890,2,0,B|79:45|79:45|63:82|34:102,1,155.999992858887,10|0,0:0|0:0,0:0:0:0:
8,163,80227,2,0,P|56:192|48:261,2,103.999995239258,10|2|10,0:0|3:0|0:0,0:0:0:0:
3,349,80733,6,0,B|77:330|77:330|76:317|76:317|152:297,1,155.999992858887,2|0,3:0|0:0,0:0:0:0:
193,249,81070,2,0,L|264:264,1,51.999997619629,2|0,0:0|0:0,0:0:0:0:
298,307,81238,1,10,0:0:0:0:
412,384,81407,2,0,P|464:374|442:280,1,155.999992858887
399,243,81744,1,0,3:0:0:0:
502,164,81912,1,12,0:0:0:0:
272,53,82081,1,2,3:0:0:0:
272,53,82165,1,0,3:0:0:0:
272,53,82250,6,0,B|232:8|232:8|378:56,1,167.999994873047,14|0,0:0|0:0,0:0:0:0:
386,101,82587,2,0,L|510:75,1,111.999996582031,10|0,0:0|0:0,0:0:0:0:
411,5,82923,1,10,0:0:0:0:
234,127,83092,1,8,0:0:0:0:
234,127,83177,1,8,0:0:0:0:
234,127,83261,1,10,0:0:0:0:
316,278,83429,2,0,B|358:273|386:261|386:261|432:272|432:272|471:272|505:254,1,180.000006866455,10|0,0:0|0:0,0:0:0:0:
246,219,83767,2,0,B|229:257|225:288|225:288|193:322|193:322|173:356|172:394,1,180.000006866455,10|0,0:0|0:0,0:0:0:0:
325,191,84104,6,0,B|373:109|373:109|336:82|283:24,1,180.000006866455,10|0,0:0|0:0,0:0:0:0:
255,4,84441,1,0,3:0:0:0:
107,141,84609,2,0,P|66:89|103:40,1,111.999996582031,10|0,0:0|3:0,0:0:0:0:
141,10,84862,1,0,3:0:0:0:
141,10,84946,5,14,0:0:0:0:
190,149,85115,1,2,0:0:0:0:
51,198,85283,1,10,0:0:0:0:
1,59,85452,1,2,0:0:0:0:
158,220,85620,1,10,0:0:0:0:
265,171,85789,1,2,3:0:0:0:
354,247,85958,1,10,0:0:0:0:
197,315,86126,6,0,B|140:297|140:297|88:318|88:318|21:297,1,167.999994873047,2|0,3:0|0:0,0:0:0:0:
3,243,86463,1,10,0:0:0:0:
144,378,86632,1,10,0:0:0:0:
144,378,86800,1,8,0:0:0:0:
269,274,86969,1,2,3:0:0:0:
379,341,87137,1,8,0:0:0:0:
379,341,87222,1,8,0:0:0:0:
379,341,87306,1,8,0:0:0:0:
491,248,87439,6,0,L|469:163,1,55.9999982910157,0|0,3:0|0:0,0:0:0:0:
418,150,87607,2,0,B|398:89|442:75|488:74|459:-20,2,160,2|2|2,3:0|0:0|3:0,0:0:0:0:
301,33,88618,1,2,0:0:0:0:
301,33,88955,5,2,3:0:0:0:
206,50,89292,1,2,3:0:0:0:
111,67,89629,1,10,0:0:0:0:
111,67,89798,2,0,L|63:54,2,40,2|2|2,0:0|0:0|0:0,0:0:0:0:
