osu file format v14

[General]
AudioFilename: audio.mp3
AudioLeadIn: 0
PreviewTime: 65811
Countdown: 0
SampleSet: Soft
StackLeniency: 0.7
Mode: 0
LetterboxInBreaks: 0
WidescreenStoryboard: 1

[Editor]
DistanceSpacing: 1
BeatDivisor: 4
GridSize: 32
TimelineZoom: 1.6

[Metadata]
Title:Boku no Friend
TitleUnicode:ぼくのフレンド
Artist:Doubutsu Biscuits & Kaban (CV: Uchida Aya)
ArtistUnicode:どうぶつビスケッツ & かばん (CV: 内田彩)
Creator:rosario wknd
Version:Normal
Source:けものフレンズ
Tags:kemono friends furenzu ending ed japanese pop jpop j-pop cover full version ver サーバル serval cat フェネック fennec fox アライグマ common raccoon 尾崎由香 yuka ozaki 本宮佳奈 kana motomiya 小野早稀 saki ono さふぁりどらいぶ♪ safari drive みゆはん mewhan lets rock jrock j-rock
BeatmapID:3370269
BeatmapSetID:1650932

[Difficulty]
HPDrainRate:3
CircleSize:4.2
OverallDifficulty:4.5
ApproachRate:5.5
SliderMultiplier:1.1
SliderTickRate:1

[Events]
//Background and Video events
0,0,"62209428_p0_master1200.jpg",0,0
//Break Periods
//Storyboard Layer 0 (Background)
//Storyboard Layer 1 (Fail)
//Storyboard Layer 2 (Pass)
//Storyboard Layer 3 (Foreground)
//Storyboard Layer 4 (Overlay)
//Storyboard Sound Samples

[TimingPoints]
236,400,4,2,1,30,1,0
1836,400,4,2,1,50,1,0
65836,-90.9090909090909,4,2,1,65,0,1
88236,-100,4,2,1,50,0,0
101036,-100,4,2,1,45,0,0
126636,-100,4,2,1,40,0,0
142636,-100,4,2,1,45,0,0
145836,-100,4,2,1,55,0,0
152236,-90.9090909090909,4,2,1,65,0,1
174636,-100,4,2,1,50,0,0
181036,-100,4,2,1,55,0,0
187436,-100,4,2,1,60,0,0
200236,-100,4,2,1,40,0,0
213036,-100,4,2,1,45,0,0
219436,-100,4,2,1,55,0,0
227436,-90.9090909090909,4,2,1,65,0,1
248236,-90.9090909090909,4,2,1,65,0,0
249836,-100,4,2,1,55,0,0
262636,-100,4,2,1,50,0,0

[Colours]
Combo1 : 255,0,0
Combo2 : 0,255,64
Combo3 : 0,128,192
Combo4 : 255,255,0

[HitObjects]
40,91,1836,6,0,L|167:68,1,110,6|10,3:0|0:0,0:0:0:0:
182,28,2436,1,0,3:0:0:0:
182,28,2636,2,0,B|229:42|229:42|247:62|247:62|294:75,1,110,2|10,3:0|0:0,0:0:0:0:
368,136,3436,2,0,P|421:125|430:62,2,110,2|10|2,3:0|0:0|3:0,0:0:0:0:
342,184,4436,1,0,3:0:0:0:
342,184,4636,2,0,P|355:220|365:251,1,55,10|0,0:0|3:0,0:0:0:0:
372,289,5036,6,0,B|341:304|327:333|327:333|222:288,1,165,2|0,3:0|3:0,0:0:0:0:
182,274,5836,1,2,3:0:0:0:
119,364,6236,1,10,0:0:0:0:
20,314,6636,2,0,B|-19:273|-19:273|14:210,1,110,0|10,3:0|0:0,0:0:0:0:
40,182,7236,1,0,3:0:0:0:
40,182,7436,2,0,L|116:203,1,55,2|0,3:0|3:0,0:0:0:0:
129,237,7836,2,0,L|205:258,1,55,10|0,0:0|3:0,0:0:0:0:
223,287,8236,6,0,P|279:285|296:219,2,110,6|8|0,3:0|0:0|3:0,0:0:0:0:
175,258,9236,1,0,3:0:0:0:
175,258,9436,1,8,0:0:0:0:
228,162,9836,2,0,B|221:141|218:119|218:119|193:98|193:98|179:43,1,110,2|8,3:0|0:0,0:0:0:0:
205,21,10436,1,2,3:0:0:0:
205,21,10636,2,0,L|277:39,1,55,0|0,3:0|3:0,0:0:0:0:
298,72,11036,1,10,0:0:0:0:
398,26,11436,6,0,P|445:42|445:102,1,110,14|0,0:0|3:0,0:0:0:0:
411,136,12036,2,0,L|443:256,1,110,14|0,0:0|3:0,0:0:0:0:
476,282,12636,2,0,P|465:318|457:355,1,55,14|0,0:0|3:0,0:0:0:0:
413,362,13036,1,12,0:0:0:0:
325,295,13436,1,0,3:0:0:0:
223,336,13836,2,0,L|205:268,1,55,2|6,0:0|3:0,0:0:0:0:
161,255,14236,2,0,L|143:187,1,55,2|10,0:0|0:0,0:0:0:0:
185,163,14636,5,6,3:0:0:0:
185,163,14836,2,0,B|214:113|214:113|172:53,1,110,2|2,0:0|0:0,0:0:0:0:
132,50,15436,2,0,L|19:78,1,110,2|2,0:0|0:0,0:0:0:0:
55,182,16236,2,0,L|121:165,2,55,2|2|2,0:0|0:0|0:0,0:0:0:0:
8,211,16836,2,0,B|-20:263|-20:263|8:283|22:312,1,110,2|0,0:0|3:0,0:0:0:0:
111,352,17636,1,2,3:0:0:0:
111,352,17836,6,0,P|149:342|189:338,1,55,2|2,3:0|3:0,0:0:0:0:
205,303,18236,1,2,0:0:0:0:
205,303,18436,2,0,B|251:316|251:316|273:339|273:339|304:347,1,110,2|2,0:0|0:0,0:0:0:0:
347,315,19036,1,2,0:0:0:0:
437,252,19436,2,0,L|422:190,1,55,2|2,0:0|0:0,0:0:0:0:
411,144,19836,1,2,0:0:0:0:
411,144,20036,2,0,P|359:118|313:161,1,110,0|0,0:0|3:0,0:0:0:0:
224,198,20836,1,2,3:0:0:0:
224,198,21036,6,0,L|166:185,1,55,2|2,3:0|3:0,0:0:0:0:
123,214,21436,2,0,L|65:201,1,55,2|2,0:0|0:0,0:0:0:0:
35,158,21836,2,0,P|30:124|21:91,2,55,2|2|2,0:0|0:0|0:0,0:0:0:0:
123,92,22636,2,0,L|187:105,1,55,2|2,0:0|0:0,0:0:0:0:
222,133,23036,1,2,0:0:0:0:
222,133,23236,2,0,P|279:120|338:110,1,110,2|0,0:0|3:0,0:0:0:0:
366,70,23836,1,2,0:0:0:0:
450,140,24236,6,0,P|475:176|434:229,1,110,2|2,3:0|0:0,0:0:0:0:
388,228,24836,2,0,B|334:209|334:209|318:233|273:252,2,110,2|2|2,0:0|0:0|0:0,0:0:0:0:
419,273,25836,2,0,P|403:330|402:346,1,55,0|0,3:0|0:0,0:0:0:0:
376,373,26236,2,0,P|306:361|297:361,1,55,0|2,3:0|0:0,0:0:0:0:
290,317,26636,1,0,3:0:0:0:
190,363,27036,1,8,0:0:0:0:
84,332,27436,6,0,P|67:285|119:243,1,110,6|10,3:0|0:0,0:0:0:0:
157,230,28036,1,2,0:0:0:0:
157,230,28236,2,0,L|233:214,2,55,2|2|10,3:0|3:0|0:0,0:0:0:0:
128,182,28836,1,2,0:0:0:0:
128,182,29036,2,0,B|100:135|100:135|149:89,1,110,2|10,3:0|0:0,0:0:0:0:
184,63,29636,2,0,L|303:88,1,110,2|0,0:0|3:0,0:0:0:0:
329,125,30236,1,8,0:0:0:0:
396,212,30636,6,0,P|429:204|474:199,2,55,2|2|10,3:0|0:0|0:0,0:0:0:0:
355,249,31236,1,2,0:0:0:0:
355,249,31436,2,0,L|282:235,1,55,2|2,3:0|3:0,0:0:0:0:
265,196,31836,2,0,L|192:182,1,55,10|2,0:0|0:0,0:0:0:0:
175,144,32236,2,0,P|115:126|87:174,1,110,2|10,3:0|0:0,0:0:0:0:
64,206,32836,1,2,0:0:0:0:
64,206,33036,2,0,B|70:223|73:243|73:243|95:267|95:267|99:293|106:320,1,110,0|8,3:0|0:0,0:0:0:0:
207,338,33836,6,0,P|245:328|274:322,1,55,2|2,3:0|0:0,0:0:0:0:
300,286,34236,2,0,P|317:239|327:223,1,55,10|2,0:0|0:0,0:0:0:0:
350,188,34636,1,2,3:0:0:0:
350,188,34836,2,0,L|428:206,2,55,2|10|2,3:0|0:0|0:0,0:0:0:0:
308,152,35436,2,0,P|293:98|344:70,1,110,2|10,3:0|0:0,0:0:0:0:
385,58,36036,2,0,L|500:83,1,110,2|0,0:0|3:0,0:0:0:0:
508,134,36636,1,10,0:0:0:0:
500,243,37036,6,0,P|452:261|407:211,1,110,2|10,3:0|0:0,0:0:0:0:
375,184,37636,2,0,L|245:216,2,110,2|2|2,0:0|3:0|0:0,0:0:0:0:
401,135,38636,2,0,L|419:65,1,55,4|0,3:0|3:0,0:0:0:0:
378,40,39036,2,0,L|299:57,1,55,8|2,0:0|3:0,0:0:0:0:
269,54,39436,2,0,P|255:16|243:-6,2,55,6|2|8,3:0|3:0|0:0,0:0:0:0:
200,140,40236,6,0,B|155:145|155:145|134:166|134:166|80:174,1,110,6|2,3:0|0:0,0:0:0:0:
47,190,40836,1,2,3:0:0:0:
47,190,41036,2,0,P|41:218|31:251,1,55,8|2,0:0|3:0,0:0:0:0:
60,290,41436,1,0,0:0:0:0:
161,331,41836,2,0,L|174:387,2,55,2|2|2,3:0|0:0|0:0,0:0:0:0:
204,296,42436,1,2,3:0:0:0:
204,296,42637,2,0,B|223:247|223:247|185:204,1,110,8|2,0:0|3:0,0:0:0:0:
249,115,43436,6,0,P|300:103|332:155,1,110,6|2,3:0|0:0,0:0:0:0:
325,198,44036,1,0,3:0:0:0:
325,198,44236,1,10,0:0:0:0:
399,279,44636,1,2,0:0:0:0:
321,356,45036,2,0,B|253:377|253:377|249:356|224:332,1,110,0|2,3:0|0:0,0:0:0:0:
210,293,45636,1,0,3:0:0:0:
210,293,45836,2,0,L|234:220,1,55,8|0,0:0|0:0,0:0:0:0:
271,208,46236,1,0,3:0:0:0:
363,148,46636,6,0,L|332:21,1,110,6|2,3:0|0:0,0:0:0:0:
282,29,47236,1,2,3:0:0:0:
282,29,47436,2,0,L|221:11,2,55,8|2|0,0:0|3:0|0:0,0:0:0:0:
206,108,48236,2,0,P|147:117|122:72,1,110,2|2,3:0|0:0,0:0:0:0:
108,26,48836,1,2,3:0:0:0:
108,26,49036,2,0,P|83:33|41:41,1,55,8|2,0:0|0:0,0:0:0:0:
22,83,49436,1,2,3:0:0:0:
75,178,49836,6,0,L|45:299,2,110,6|2|10,3:0|0:0|0:0,0:0:0:0:
116,142,50836,1,0,3:0:0:0:
116,142,51036,2,0,P|145:153|180:163,1,55,2|0,0:0|0:0,0:0:0:0:
218,182,51436,2,0,B|250:177|280:155|280:155|293:175|327:190,1,110,2|2,3:0|0:0,0:0:0:0:
353,216,52036,1,0,3:0:0:0:
353,216,52236,1,10,0:0:0:0:
446,158,52636,1,0,3:0:0:0:
502,252,53036,6,0,P|510:301|448:327,1,110,6|2,3:0|0:0,0:0:0:0:
417,300,53636,1,2,3:0:0:0:
417,300,53836,1,8,0:0:0:0:
331,369,54236,2,0,L|259:352,1,55,0|0,0:0|0:0,0:0:0:0:
256,305,54636,2,0,L|125:328,1,110,2|2,3:0|0:0,0:0:0:0:
97,347,55236,1,2,3:0:0:0:
97,347,55436,2,0,P|73:337|40:332,1,55,8|2,0:0|0:0,0:0:0:0:
9,290,55836,1,2,3:0:0:0:
78,204,56236,6,0,P|137:195|165:238,1,110,6|2,3:0|0:0,0:0:0:0:
204,268,56836,1,0,3:0:0:0:
204,268,57036,2,0,P|236:260|269:256,1,55,10|0,0:0|3:0,0:0:0:0:
284,209,57436,1,2,0:0:0:0:
372,143,57836,2,0,L|491:174,2,110,2|2|10,3:0|0:0|0:0,0:0:0:0:
350,91,58836,1,0,0:0:0:0:
350,91,59036,2,0,L|285:106,1,55,10|8,0:0|0:0,0:0:0:0:
247,127,59436,6,0,P|195:123|188:63,1,110,6|10,3:0|0:0,0:0:0:0:
153,27,60036,1,2,3:0:0:0:
153,27,60236,2,0,P|122:35|83:42,1,55,10|2,0:0|3:0,0:0:0:0:
62,80,60636,1,10,0:0:0:0:
103,181,61036,2,0,L|82:292,1,110,10|10,0:0|0:0,0:0:0:0:
130,316,61636,1,2,3:0:0:0:
130,316,61836,2,0,P|163:307|203:300,1,55,8|0,0:0|3:0,0:0:0:0:
219,261,62236,1,8,0:0:0:0:
156,168,62636,6,0,L|77:186,2,55,6|2|2,3:0|3:0|3:0,0:0:0:0:
197,131,63236,1,2,3:0:0:0:
197,131,63436,2,0,L|268:149,2,55,14|2|2,0:0|3:0|3:0,0:0:0:0:
154,95,64036,1,2,3:0:0:0:
154,95,64236,2,0,L|135:21,1,55,14|2,0:0|3:0,0:0:0:0:
181,5,64636,1,2,3:0:0:0:
181,5,64836,1,10,0:0:0:0:
264,76,65236,1,8,0:0:0:0:
264,76,65436,1,8,0:0:0:0:
371,20,65836,6,0,L|387:88,1,60.5000018463135,4|2,3:0|0:0,0:0:0:0:
431,107,66236,2,0,L|447:175,1,60.5000018463135,10|2,0:0|3:0,0:0:0:0:
427,216,66636,2,0,B|385:204|385:204|348:220|348:220|299:208,1,121.000003692627,2|10,3:0|0:0,0:0:0:0:
261,191,67236,1,2,0:0:0:0:
261,191,67436,2,0,P|232:198|189:213,2,60.5000018463135,2|2|10,3:0|3:0|0:0,0:0:0:0:
286,141,68036,2,0,P|300:85|254:53,1,121.000003692627,2|0,3:0|3:0,0:0:0:0:
199,59,68635,1,8,0:0:0:0:
127,138,69036,6,0,L|150:209,2,60.5000018463135,2|2|10,3:0|0:0|0:0,0:0:0:0:
89,98,69636,1,2,3:0:0:0:
89,98,69836,2,0,P|49:94|13:120,1,60.5000018463135,2|2,3:0|3:0,0:0:0:0:
0,147,70236,2,0,L|23:218,1,60.5000018463135,10|2,0:0|0:0,0:0:0:0:
7,258,70636,2,0,B|25:285|33:305|33:305|119:281,1,121.000003692627,2|10,3:0|0:0,0:0:0:0:
136,249,71236,1,2,3:0:0:0:
136,249,71436,1,0,3:0:0:0:
196,158,71836,2,0,P|227:164|263:175,1,60.5000018463135,8|2,0:0|3:0,0:0:0:0:
281,219,72236,6,0,P|353:220|370:179,1,121.000003692627,6|10,3:0|0:0,0:0:0:0:
376,129,72836,1,0,3:0:0:0:
376,129,73036,2,0,P|408:82|465:93,1,121.000003692627,2|10,3:0|0:0,0:0:0:0:
493,139,73636,1,2,0:0:0:0:
493,139,73836,2,0,P|480:176|474:211,1,60.5000018463135,2|0,3:0|3:0,0:0:0:0:
499,246,74236,1,10,0:0:0:0:
419,320,74636,2,0,L|450:395,2,60.5000018463135,2|2|10,3:0|3:0|0:0,0:0:0:0:
376,285,75236,1,2,3:0:0:0:
376,285,75436,6,0,L|241:313,1,121.000003692627,0|10,3:0|0:0,0:0:0:0:
211,338,76036,1,2,3:0:0:0:
211,338,76236,2,0,P|155:318|151:310,1,60.5000018463135,2|2,3:0|3:0,0:0:0:0:
157,266,76636,1,10,0:0:0:0:
240,196,77036,2,0,L|321:178,2,60.5000018463135,4|0|8,3:0|3:0|0:0,0:0:0:0:
194,166,77636,1,8,0:0:0:0:
194,166,77836,2,0,L|118:146,1,60.5000018463135,4|0,3:0|3:0,0:0:0:0:
84,170,78236,1,8,0:0:0:0:
27,76,78636,6,0,P|66:34|132:71,1,121.000003692627,6|10,3:0|0:0,0:0:0:0:
169,76,79236,1,2,3:0:0:0:
169,76,79436,2,0,B|308:61,1,121.000003692627,2|10,3:0|0:0,0:0:0:0:
319,17,80036,1,2,0:0:0:0:
319,17,80236,2,0,P|349:26|396:37,1,60.5000018463135,2|2,3:0|3:0,0:0:0:0:
420,65,80636,1,10,0:0:0:0:
420,65,80836,2,0,B|461:124|461:124|441:140|429:170,1,121.000003692627,2|0,3:0|3:0,0:0:0:0:
398,206,81436,1,8,0:0:0:0:
315,135,81836,6,0,P|322:104|339:63,2,60.5000018463135,2|2|10,3:0|0:0|0:0,0:0:0:0:
273,170,82436,1,2,3:0:0:0:
273,170,82636,2,0,L|194:188,1,60.5000018463135,0|2,3:0|3:0,0:0:0:0:
164,159,83036,2,0,L|85:177,1,60.5000018463135,10|2,0:0|0:0,0:0:0:0:
55,194,83436,2,0,P|26:231|63:289,1,121.000003692627,2|10,3:0|0:0,0:0:0:0:
110,306,84036,1,2,3:0:0:0:
110,306,84236,1,2,3:0:0:0:
209,262,84636,2,0,L|191:188,1,60.5000018463135,8|2,0:0|3:0,0:0:0:0:
156,163,85036,6,0,B|166:143|168:121|168:121|201:98|201:98|217:50,1,121.000003692627,6|2,3:0|0:0,0:0:0:0:
257,31,85636,1,0,3:0:0:0:
257,31,85836,2,0,L|339:55,1,60.5000018463135,10|2,0:0|0:0,0:0:0:0:
348,90,86236,1,2,0:0:0:0:
450,52,86636,2,0,P|495:80|466:148,1,121.000003692627,6|10,3:0|0:0,0:0:0:0:
453,185,87236,1,10,0:0:0:0:
453,185,87436,2,0,L|482:269,2,60.5000018463135,10|2|10,0:0|3:0|0:0,0:0:0:0:
401,165,88036,1,10,0:0:0:0:
401,165,88236,6,0,B|353:142|353:142|303:177,1,110,6|10,3:0|0:0,0:0:0:0:
277,221,88836,1,0,3:0:0:0:
277,221,89036,2,0,P|245:211|202:204,1,55,2|0,3:0|3:0,0:0:0:0:
192,162,89436,1,10,0:0:0:0:
123,76,89836,2,0,P|72:80|53:151,1,110,2|10,3:0|0:0,0:0:0:0:
78,174,90436,1,0,3:0:0:0:
78,174,90636,2,0,B|92:201|112:220|112:220|76:270,1,110,2|10,3:0|0:0,0:0:0:0:
59,313,91236,1,0,3:0:0:0:
59,313,91436,6,0,B|129:290|133:334|152:378|228:346,1,165,6|0,3:0|3:0,0:0:0:0:
250,318,92236,2,0,L|323:331,1,55,2|0,3:0|0:0,0:0:0:0:
347,361,92636,1,10,0:0:0:0:
436,295,93036,2,0,L|408:181,1,110,0|10,3:0|0:0,0:0:0:0:
449,150,93636,1,0,3:0:0:0:
449,150,93836,2,0,L|468:80,1,55,2|0,3:0|3:0,0:0:0:0:
436,48,94236,2,0,P|385:62|361:67,1,55,10|0,0:0|3:0,0:0:0:0:
331,81,94636,6,0,P|283:50|308:1,2,110,6|8|0,3:0|0:0|3:0,0:0:0:0:
357,129,95636,1,0,3:0:0:0:
357,129,95836,1,8,0:0:0:0:
300,223,96236,2,0,B|239:250|239:250|221:229|200:213,1,110,2|8,3:0|0:0,0:0:0:0:
164,186,96836,1,2,3:0:0:0:
164,186,97036,2,0,L|85:205,2,55,0|0|10,3:0|3:0|0:0,0:0:0:0:
238,104,97836,6,0,B|270:56|270:56|225:0,1,110,14|0,0:0|3:0,0:0:0:0:
183,25,98436,2,0,L|70:46,1,110,14|0,0:0|3:0,0:0:0:0:
42,89,99036,1,14,0:0:0:0:
127,158,99436,2,0,L|109:224,1,55,8|0,0:0|3:0,0:0:0:0:
62,233,99836,2,0,L|44:299,1,55,8|0,0:0|3:0,0:0:0:0:
80,329,100236,2,0,P|112:321|151:313,1,55,10|2,0:0|3:0,0:0:0:0:
171,276,100636,1,10,0:0:0:0:
260,211,101036,6,0,L|324:231,2,55,6|2|10,3:0|0:0|0:0,0:0:0:0:
221,171,101636,1,2,3:0:0:0:
221,171,101836,2,0,L|202:102,1,55,2|2,3:0|3:0,0:0:0:0:
237,72,102236,2,0,L|312:95,1,55,10|2,0:0|3:0,0:0:0:0:
337,61,102636,2,0,B|366:48|384:29|384:29|408:47|452:62,1,110,2|10,3:0|0:0,0:0:0:0:
450,105,103236,2,0,L|421:225,1,110,2|0,3:0|3:0,0:0:0:0:
461,252,103836,1,8,0:0:0:0:
379,326,104236,6,0,P|356:330|314:341,1,55,2|2,3:0|3:0,0:0:0:0:
278,309,104636,2,0,P|255:313|213:324,1,55,10|2,0:0|3:0,0:0:0:0:
178,350,105036,1,2,3:0:0:0:
111,262,105436,2,0,L|135:194,1,55,10|2,0:0|0:0,0:0:0:0:
176,181,105836,2,0,P|203:129|164:91,1,110,2|10,3:0|0:0,0:0:0:0:
126,67,106436,1,2,3:0:0:0:
126,67,106636,2,0,L|12:89,1,110,0|8,3:0|0:0,0:0:0:0:
64,187,107436,6,0,P|56:219|48:258,1,55,6|2,3:0|0:0,0:0:0:0:
89,280,107836,2,0,P|135:265|162:260,1,55,10|2,0:0|3:0,0:0:0:0:
184,229,108236,1,2,3:0:0:0:
184,229,108436,2,0,P|218:236|254:247,2,55,2|10|2,3:0|0:0|3:0,0:0:0:0:
165,177,109036,2,0,B|143:143|143:143|197:74,1,110,2|10,3:0|0:0,0:0:0:0:
231,57,109636,2,0,B|256:68|277:71|277:71|298:96|298:96|342:109,1,110,2|0,3:0|3:0,0:0:0:0:
364,143,110236,1,10,0:0:0:0:
452,208,110636,6,0,P|502:199|497:134,1,110,2|10,3:0|0:0,0:0:0:0:
466,111,111236,2,0,L|498:-4,2,110,2|2|2,3:0|3:0|0:0,0:0:0:0:
413,126,112236,2,0,B|351:109|351:109|333:130|310:142,1,110,0|8,3:0|0:0,0:0:0:0:
273,173,112836,1,2,3:0:0:0:
273,173,113036,2,0,L|205:157,1,55,2|2,3:0|3:0,0:0:0:0:
188,115,113436,1,8,0:0:0:0:
96,53,113836,6,0,P|29:62|25:114,1,110,6|10,3:0|0:0,0:0:0:0:
53,138,114436,1,2,3:0:0:0:
53,138,114636,2,0,L|31:206,1,55,2|2,3:0|3:0,0:0:0:0:
59,240,115036,2,0,L|37:308,1,55,10|2,0:0|3:0,0:0:0:0:
33,346,115436,2,0,L|157:319,1,110,2|10,3:0|0:0,0:0:0:0:
183,288,116036,2,0,B|212:237|212:237|177:191,1,110,2|0,3:0|3:0,0:0:0:0:
140,158,116636,1,8,0:0:0:0:
219,82,117036,6,0,P|251:89|288:99,1,55,2|2,3:0|3:0,0:0:0:0:
314,130,117436,2,0,P|373:118|393:115,1,55,10|2,0:0|3:0,0:0:0:0:
410,84,117836,1,2,3:0:0:0:
410,84,118036,2,0,P|397:38|394:17,2,55,2|10|2,3:0|0:0|0:0,0:0:0:0:
447,124,118636,2,0,B|435:163|435:163|445:187|445:187|426:248,1,110,2|10,3:0|0:0,0:0:0:0:
387,260,119236,1,2,3:0:0:0:
387,260,119436,2,0,P|326:251|299:286,1,110,0|8,3:0|0:0,0:0:0:0:
222,363,120236,6,0,L|195:234,1,110,6|8,3:0|0:0,0:0:0:0:
238,215,120836,1,2,3:0:0:0:
238,215,121036,2,0,L|259:153,1,55,2|2,3:0|3:0,0:0:0:0:
297,127,121436,2,0,L|280:57,1,55,10|2,0:0|3:0,0:0:0:0:
255,26,121836,2,0,P|199:17|173:67,1,110,2|10,3:0|0:0,0:0:0:0:
164,110,122436,1,2,3:0:0:0:
164,110,122636,1,0,3:0:0:0:
79,180,123036,1,10,0:0:0:0:
157,256,123436,6,0,B|185:307|185:307|140:363,1,110,2|10,3:0|0:0,0:0:0:0:
97,355,124036,2,0,L|-16:329,2,110,2|2|2,3:0|3:0|0:0,0:0:0:0:
152,347,125036,1,4,3:0:0:0:
152,347,125236,2,0,P|225:319|255:347,1,110,10|2,0:0|3:0,0:0:0:0:
290,363,125836,1,10,0:0:0:0:
379,298,126236,1,0,3:0:0:0:
326,201,126636,6,0,L|357:83,2,110,6|2|8,3:0|3:0|0:0,0:0:0:0:
300,249,127636,1,2,0:0:0:0:
300,249,127836,2,0,L|228:265,1,55,0|0,3:0|0:0,0:0:0:0:
192,247,128236,2,0,P|134:234|100:270,2,110,2|2|8,3:0|3:0|0:0,0:0:0:0:
212,195,129236,1,2,0:0:0:0:
212,195,129436,1,10,0:0:0:0:
274,104,129836,6,0,B|327:83|327:83|370:121,1,110,6|2,3:0|3:0,0:0:0:0:
379,171,130436,1,0,0:0:0:0:
379,171,130636,2,0,P|365:201|359:234,1,55,10|0,0:0|0:0,0:0:0:0:
311,247,131036,1,2,3:0:0:0:
377,334,131436,2,0,P|446:330|460:288,1,110,0|2,3:0|3:0,0:0:0:0:
430,253,132036,1,0,0:0:0:0:
430,253,132236,1,8,0:0:0:0:
503,171,132636,1,8,0:0:0:0:
414,106,133036,6,0,B|401:87|385:76|385:76|418:9,2,110,6|2|8,3:0|3:0|0:0,0:0:0:0:
404,160,134036,1,2,0:0:0:0:
404,160,134236,2,0,L|386:226,1,55,0|8,3:0|0:0,0:0:0:0:
345,245,134636,2,0,L|377:368,2,110,2|2|8,3:0|3:0|0:0,0:0:0:0:
306,206,135636,1,2,0:0:0:0:
306,206,135836,1,10,0:0:0:0:
209,259,136236,6,0,P|163:277|125:218,1,110,6|2,3:0|3:0,0:0:0:0:
133,184,136836,1,0,0:0:0:0:
133,184,137036,2,0,P|97:145|48:163,1,110,10|2,0:0|3:0,0:0:0:0:
10,203,137636,1,8,0:0:0:0:
10,203,137836,2,0,L|31:268,1,55,2|0,3:0|0:0,0:0:0:0:
6,306,138236,1,2,3:0:0:0:
102,359,138636,2,0,P|129:353|173:345,1,55,10|0,0:0|0:0,0:0:0:0:
198,313,139036,2,0,P|216:265|224:248,1,55,8|8,0:0|0:0,0:0:0:0:
178,222,139436,6,0,P|138:177|165:120,1,110,6|8,3:0|0:0,0:0:0:0:
189,94,140036,1,0,0:0:0:0:
189,94,140236,2,0,L|266:115,1,55,8|0,0:0|0:0,0:0:0:0:
279,148,140636,1,0,3:0:0:0:
380,104,141036,2,0,B|418:146|418:146|395:174|386:206,1,110,2|8,3:0|0:0,0:0:0:0:
377,244,141636,1,0,0:0:0:0:
377,244,141836,1,8,0:0:0:0:
301,323,142236,1,2,3:0:0:0:
217,251,142636,6,0,P|172:232|129:271,1,110,6|10,3:0|0:0,0:0:0:0:
80,293,143236,1,0,0:0:0:0:
80,293,143436,2,0,L|18:275,1,55,10|0,0:0|0:0,0:0:0:0:
3,228,143836,1,2,3:0:0:0:
72,143,144236,2,0,B|66:119|60:98|60:98|68:73|68:73|56:22,2,110,10|2|2,0:0|3:0|3:0,0:0:0:0:
107,185,145236,1,8,0:0:0:0:
107,185,145436,2,0,P|150:197|173:206,1,55,10|8,0:0|0:0,0:0:0:0:
206,172,145836,6,0,P|262:160|294:208,1,110,6|10,3:0|0:0,0:0:0:0:
328,237,146436,1,2,3:0:0:0:
328,237,146636,2,0,P|359:229|398:222,1,55,10|2,0:0|3:0,0:0:0:0:
415,181,147036,1,10,0:0:0:0:
396,72,147436,2,0,B|376:34|376:34|298:57,1,110,10|10,0:0|0:0,0:0:0:0:
262,76,148036,1,2,3:0:0:0:
262,76,148236,2,0,L|245:137,1,55,8|0,0:0|3:0,0:0:0:0:
275,176,148636,1,8,0:0:0:0:
210,264,149036,6,0,L|131:282,2,55,2|2|2,3:0|3:0|3:0,0:0:0:0:
252,299,149636,1,2,3:0:0:0:
252,299,149836,2,0,L|323:317,2,55,10|0|2,0:0|3:0|3:0,0:0:0:0:
214,340,150436,1,2,3:0:0:0:
214,340,150636,2,0,L|138:359,1,55,14|2,0:0|3:0,0:0:0:0:
116,321,151036,1,0,3:0:0:0:
116,321,151236,2,0,B|82:280|82:280|103:264|115:229,1,110,10|8,0:0|0:0,0:0:0:0:
156,199,151836,1,8,0:0:0:0:
229,280,152236,6,0,L|353:258,1,121.000003692627,6|10,3:0|0:0,0:0:0:0:
402,252,152836,1,2,3:0:0:0:
402,252,153036,2,0,L|422:182,1,60.5000018463135,2|2,3:0|3:0,0:0:0:0:
382,153,153436,2,0,L|402:83,1,60.5000018463135,10|2,0:0|0:0,0:0:0:0:
439,58,153836,2,0,P|481:70|508:73,2,60.5000018463135,2|2|10,3:0|3:0|0:0,0:0:0:0:
398,21,154436,2,0,P|359:5|309:57,1,121.000003692627,2|0,3:0|3:0,0:0:0:0:
261,81,155035,1,8,0:0:0:0:
156,51,155436,6,0,L|76:68,1,60.5000018463135,2|2,3:0|0:0,0:0:0:0:
51,93,155836,2,0,P|60:127|67:170,1,60.5000018463135,10|2,0:0|3:0,0:0:0:0:
102,191,156236,2,0,B|138:235|138:235|90:293,1,121.000003692627,2|10,3:0|0:0,0:0:0:0:
55,319,156836,1,2,0:0:0:0:
55,319,157036,2,0,L|-16:297,2,60.5000018463135,2|2|10,3:0|3:0|0:0,0:0:0:0:
93,358,157636,1,2,3:0:0:0:
93,358,157836,1,0,3:0:0:0:
191,312,158236,2,0,P|238:305|262:303,1,60.5000018463135,8|2,0:0|3:0,0:0:0:0:
293,270,158636,6,0,P|324:222|271:178,1,121.000003692627,6|10,3:0|0:0,0:0:0:0:
242,148,159236,1,0,3:0:0:0:
242,148,159436,2,0,L|117:171,1,121.000003692627,2|10,3:0|0:0,0:0:0:0:
79,136,160036,1,2,0:0:0:0:
79,136,160236,2,0,L|105:52,1,60.5000018463135,2|2,3:0|3:0,0:0:0:0:
145,53,160636,1,10,0:0:0:0:
246,13,161036,2,0,P|278:19|316:28,1,60.5000018463135,2|2,3:0|3:0,0:0:0:0:
333,72,161436,2,0,P|386:62|420:61,1,60.5000018463135,10|2,0:0|3:0,0:0:0:0:
439,33,161836,6,0,P|485:41|478:118,1,121.000003692627,0|8,3:0|0:0,0:0:0:0:
446,143,162436,1,2,3:0:0:0:
446,143,162636,2,0,L|477:266,1,121.000003692627,2|10,3:0|0:0,0:0:0:0:
451,308,163236,1,2,3:0:0:0:
451,308,163436,2,0,L|436:380,2,60.5000018463135,4|0|8,3:0|3:0|0:0,0:0:0:0:
400,288,164036,1,8,0:0:0:0:
400,288,164236,2,0,L|318:267,1,60.5000018463135,4|0,3:0|3:0,0:0:0:0:
322,221,164636,1,8,0:0:0:0:
236,287,165036,6,0,P|180:300|161:307,1,60.5000018463135,6|2,3:0|0:0,0:0:0:0:
139,261,165436,2,0,P|127:217|116:184,1,60.5000018463135,10|2,0:0|3:0,0:0:0:0:
158,162,165836,2,0,P|189:171|232:180,2,60.5000018463135,2|2|10,3:0|3:0|0:0,0:0:0:0:
135,111,166436,1,2,0:0:0:0:
135,111,166636,2,0,B|85:88|85:88|68:111|20:135,1,121.000003692627,2|10,3:0|0:0,0:0:0:0:
8,176,167236,1,2,3:0:0:0:
8,176,167436,1,0,3:0:0:0:
102,239,167836,1,8,0:0:0:0:
27,317,168236,6,0,B|47:326|74:329|74:329|92:360|92:360|149:377,1,121.000003692627,2|10,3:0|0:0,0:0:0:0:
169,336,168836,1,2,3:0:0:0:
169,336,169036,2,0,L|189:263,2,60.5000018463135,2|2|10,3:0|3:0|0:0,0:0:0:0:
206,375,169636,1,2,0:0:0:0:
206,375,169836,2,0,L|275:363,1,60.5000018463135,2|2,3:0|3:0,0:0:0:0:
298,321,170236,2,0,L|367:309,1,60.5000018463135,10|2,0:0|3:0,0:0:0:0:
408,330,170636,1,2,3:0:0:0:
486,254,171036,1,8,0:0:0:0:
396,191,171436,6,0,P|376:138|430:102,1,121.000003692627,6|2,3:0|0:0,0:0:0:0:
452,57,172036,1,2,3:0:0:0:
452,57,172236,2,0,L|512:76,2,60.5000018463135,10|2|2,0:0|0:0|0:0,0:0:0:0:
412,18,172836,1,10,0:0:0:0:
412,18,173036,2,0,L|282:40,1,121.000003692627,2|10,3:0|0:0,0:0:0:0:
248,70,173636,1,2,3:0:0:0:
248,70,173836,1,8,0:0:0:0:
300,165,174236,1,8,0:0:0:0:
222,243,174636,6,0,B|172:264|172:264|118:212,1,110,6|2,3:0|0:0,0:0:0:0:
100,179,175236,1,2,3:0:0:0:
100,179,175436,2,0,L|125:114,1,55,10|2,0:0|3:0,0:0:0:0:
159,89,175836,1,2,3:0:0:0:
244,158,176236,2,0,L|355:181,1,110,2|2,3:0|3:0,0:0:0:0:
398,209,176836,2,0,P|422:251|371:306,1,110,2|0,3:0|0:0,0:0:0:0:
343,324,177436,1,10,0:0:0:0:
252,261,177836,6,0,L|188:273,1,55,2|2,3:0|0:0,0:0:0:0:
162,313,178236,2,0,L|98:325,1,55,2|2,0:0|3:0,0:0:0:0:
72,280,178636,2,0,P|43:272|-1:264,2,55,10|2|2,0:0|3:0|3:0,0:0:0:0:
112,243,179236,1,10,0:0:0:0:
112,243,179436,2,0,P|131:182|98:148,1,110,2|2,3:0|3:0,0:0:0:0:
67,110,180036,1,2,3:0:0:0:
67,110,180236,1,8,0:0:0:0:
149,36,180636,1,8,0:0:0:0:
237,101,181036,6,0,L|304:89,1,55,14|0,0:0|3:0,0:0:0:0:
329,130,181436,2,0,P|312:180|309:190,1,55,10|0,0:0|3:0,0:0:0:0:
268,217,181836,2,0,P|252:279|304:312,1,110,10|10,0:0|0:0,0:0:0:0:
332,324,182436,1,2,3:0:0:0:
332,324,182636,2,0,L|448:347,2,110,10|10|10,0:0|0:0|0:0,0:0:0:0:
280,307,183636,1,0,3:0:0:0:
280,307,183836,1,10,0:0:0:0:
352,224,184236,6,0,B|366:178|366:178|388:163|388:163|407:116,1,110,14|8,0:0|0:0,0:0:0:0:
413,76,184836,1,0,3:0:0:0:
413,76,185036,2,0,L|288:99,1,110,8|8,0:0|0:0,0:0:0:0:
258,65,185636,1,2,3:0:0:0:
258,65,185836,2,0,P|226:60|186:49,1,55,10|2,0:0|3:0,0:0:0:0:
156,83,186236,2,0,P|129:75|85:68,1,55,10|2,0:0|3:0,0:0:0:0:
62,107,186636,1,10,0:0:0:0:
132,191,187036,1,10,0:0:0:0:
56,271,187436,6,0,P|43:323|101:355,1,110,6|10,3:0|0:0,0:0:0:0:
136,353,188036,1,2,3:0:0:0:
136,353,188236,2,0,L|205:339,1,55,2|0,3:0|3:0,0:0:0:0:
217,294,188636,1,10,0:0:0:0:
312,238,189036,2,0,L|440:270,2,110,0|8|0,3:0|0:0|3:0,0:0:0:0:
268,203,190036,1,2,3:0:0:0:
268,203,190236,2,0,L|257:134,1,55,8|2,0:0|3:0,0:0:0:0:
251,94,190636,6,0,B|278:61|278:61|359:89,1,110,2|8,3:0|0:0,0:0:0:0:
391,106,191236,1,0,3:0:0:0:
391,106,191436,1,2,3:0:0:0:
472,179,191836,1,10,0:0:0:0:
398,261,192236,2,0,P|354:270|329:202,2,110,6|10|4,3:0|0:0|3:0,0:0:0:0:
441,294,193236,1,0,3:0:0:0:
441,294,193436,2,0,L|418:368,1,55,8|0,0:0|3:0,0:0:0:0:
376,372,193836,6,0,L|249:346,1,110,6|10,3:0|0:0,0:0:0:0:
254,296,194436,2,0,L|127:270,1,110,2|2,3:0|3:0,0:0:0:0:
102,306,195036,1,10,0:0:0:0:
33,219,195436,2,0,B|20:188|2:169|2:169|52:120,1,110,2|10,3:0|0:0,0:0:0:0:
81,98,196036,1,2,3:0:0:0:
81,98,196236,2,0,P|111:105|156:120,1,55,2|2,3:0|3:0,0:0:0:0:
180,142,196636,1,10,0:0:0:0:
278,92,197036,6,0,P|312:126|293:179,1,110,14|8,0:0|0:0,0:0:0:0:
249,212,197636,1,2,3:0:0:0:
249,212,197836,2,0,P|229:260|264:298,1,110,10|8,0:0|0:0,0:0:0:0:
307,332,198436,1,2,3:0:0:0:
307,332,198636,2,0,P|338:324|377:321,1,55,6|0,3:0|3:0,0:0:0:0:
406,352,199036,2,0,P|455:341|480:339,1,55,2|0,3:0|3:0,0:0:0:0:
496,299,199436,2,0,P|469:231|462:193,1,110,0|8,3:0|0:0,0:0:0:0:
478,86,200236,6,0,P|497:41|453:5,2,110,4|0|0,3:0|3:0|3:0,0:0:0:0:
431,115,201236,1,0,0:0:0:0:
431,115,201436,1,0,3:0:0:0:
326,80,201836,2,0,L|196:105,1,110,0|0,3:0|3:0,0:0:0:0:
182,143,202436,1,0,0:0:0:0:
182,143,202636,1,0,3:0:0:0:
89,83,203036,2,0,L|70:144,1,55,8|0,0:0|0:0,0:0:0:0:
77,190,203436,6,0,B|92:230|92:230|85:256|85:256|104:307,2,110,2|2|2,3:0|3:0|3:0,0:0:0:0:
146,104,204636,1,2,3:0:0:0:
245,150,205036,2,0,B|309:135|309:135|326:154|351:165,1,110,0|2,3:0|3:0,0:0:0:0:
385,197,205636,1,0,0:0:0:0:
385,197,205836,2,0,P|376:225|366:263,1,55,0|0,3:0|0:0,0:0:0:0:
333,291,206236,1,0,3:0:0:0:
419,359,206636,6,0,P|480:343|485:294,2,110,4|0|0,3:0|3:0|3:0,0:0:0:0:
375,325,207636,1,0,0:0:0:0:
375,325,207836,2,0,L|301:339,1,55,0|0,3:0|0:0,0:0:0:0:
270,358,208236,2,0,P|209:342|204:293,2,110,0|0|0,3:0|3:0|3:0,0:0:0:0:
320,335,209236,1,0,0:0:0:0:
320,335,209436,1,10,0:0:0:0:
261,241,209836,6,0,L|287:111,1,110,2|2,3:0|3:0,0:0:0:0:
290,78,210436,1,0,0:0:0:0:
290,78,210636,2,0,P|341:50|382:78,1,110,10|2,0:0|3:0,0:0:0:0:
411,120,211236,1,0,0:0:0:0:
411,120,211436,2,0,L|424:188,1,55,2|0,3:0|0:0,0:0:0:0:
394,219,211836,2,0,L|407:287,1,55,2|0,3:0|0:0,0:0:0:0:
375,319,212236,1,10,0:0:0:0:
272,277,212636,1,0,3:0:0:0:
180,337,213036,6,0,B|131:355|131:355|75:298,1,110,6|0,3:0|0:0,0:0:0:0:
63,265,213636,1,0,3:0:0:0:
63,265,213836,2,0,L|88:199,1,55,8|0,0:0|3:0,0:0:0:0:
132,190,214236,1,0,0:0:0:0:
217,120,214636,2,0,P|232:57|193:29,1,110,2|0,3:0|0:0,0:0:0:0:
147,31,215236,1,0,3:0:0:0:
147,31,215436,2,0,P|96:44|73:50,1,55,8|0,0:0|0:0,0:0:0:0:
49,77,215836,1,2,3:0:0:0:
110,168,216236,6,0,B|137:200|137:200|121:227|109:271,2,110,6|2|10,3:0|0:0|0:0,0:0:0:0:
142,123,217236,1,0,3:0:0:0:
142,123,217436,2,0,L|218:141,1,55,2|0,0:0|0:0,0:0:0:0:
234,174,217836,2,0,L|362:152,1,110,2|2,3:0|0:0,0:0:0:0:
385,120,218436,1,0,3:0:0:0:
385,120,218636,1,10,0:0:0:0:
306,42,219036,2,0,L|244:54,1,55,10|8,0:0|0:0,0:0:0:0:
201,30,219436,6,0,P|156:56|178:121,1,110,4|10,3:0|0:0,0:0:0:0:
196,150,220036,1,2,3:0:0:0:
196,150,220236,2,0,P|183:189|177:217,2,55,10|2|10,0:0|3:0|0:0,0:0:0:0:
303,128,221036,2,0,L|428:160,1,110,10|10,0:0|0:0,0:0:0:0:
438,202,221636,1,2,3:0:0:0:
438,202,221836,2,0,P|421:244|416:265,1,55,8|0,0:0|3:0,0:0:0:0:
375,287,222236,1,8,0:0:0:0:
272,246,222636,6,0,L|253:171,2,55,6|2|2,3:0|3:0|3:0,0:0:0:0:
252,297,223236,1,2,3:0:0:0:
252,297,223436,2,0,L|234:360,2,55,10|2|2,0:0|3:0|3:0,0:0:0:0:
220,251,224036,1,2,3:0:0:0:
220,251,224236,2,0,L|154:266,1,55,14|2,0:0|3:0,0:0:0:0:
123,229,224636,1,2,3:0:0:0:
123,229,224836,1,10,0:0:0:0:
39,295,225236,1,8,0:0:0:0:
39,295,225436,1,8,0:0:0:0:
124,363,225836,6,0,P|180:382|227:334,1,110,12|0,0:0|3:0,0:0:0:0:
239,304,226436,2,0,P|284:276|333:296,1,110,8|0,0:0|3:0,0:0:0:0:
377,330,227036,1,8,0:0:0:0:
455,254,227436,6,0,B|478:220|478:220|423:132,1,121.000003692627,4|10,3:0|0:0,0:0:0:0:
389,123,228036,1,2,3:0:0:0:
389,123,228236,2,0,L|314:140,2,60.5000018463135,2|2|10,3:0|3:0|0:0,0:0:0:0:
430,87,228836,1,2,0:0:0:0:
430,87,229036,2,0,P|423:26|348:22,1,121.000003692627,2|10,3:0|0:0,0:0:0:0:
336,50,229636,1,2,3:0:0:0:
336,50,229836,1,0,3:0:0:0:
235,9,230235,1,8,0:0:0:0:
147,74,230636,6,0,L|169:146,1,60.5000018463135,2|2,3:0|0:0,0:0:0:0:
133,176,231036,2,0,L|155:248,1,60.5000018463135,10|2,0:0|3:0,0:0:0:0:
111,272,231436,2,0,L|53:254,2,60.5000018463135,2|2|10,3:0|3:0|0:0,0:0:0:0:
146,313,232035,1,2,0:0:0:0:
146,313,232236,2,0,B|196:302|196:302|232:315|232:315|286:301,1,121.000003692627,2|10,3:0|0:0,0:0:0:0:
300,268,232836,1,2,3:0:0:0:
300,268,233036,1,0,3:0:0:0:
235,180,233436,2,0,L|258:98,1,60.5000018463135,8|2,0:0|3:0,0:0:0:0:
269,70,233836,6,0,B|321:36|321:36|397:72,1,121.000003692627,6|10,3:0|0:0,0:0:0:0:
403,107,234436,1,0,3:0:0:0:
403,107,234636,2,0,P|391:144|383:189,1,60.5000018463135,2|2,3:0|3:0,0:0:0:0:
417,210,235036,1,10,0:0:0:0:
349,295,235436,2,0,P|283:304|266:244,1,121.000003692627,2|10,3:0|0:0,0:0:0:0:
230,218,236036,1,0,3:0:0:0:
230,218,236236,2,0,L|162:237,1,60.5000018463135,2|2,3:0|3:0,0:0:0:0:
132,272,236636,2,0,L|64:291,1,60.5000018463135,10|2,0:0|3:0,0:0:0:0:
19,282,237036,6,0,P|-12:246|40:186,1,121.000003692627,0|10,3:0|0:0,0:0:0:0:
71,170,237636,1,2,3:0:0:0:
71,170,237836,2,0,L|191:141,1,121.000003692627,2|10,3:0|0:0,0:0:0:0:
267,66,238636,2,0,L|331:93,2,60.5000018463135,4|0|8,3:0|3:0|0:0,0:0:0:0:
245,15,239236,1,8,0:0:0:0:
245,15,239436,2,0,L|163:33,1,60.5000018463135,4|0,3:0|3:0,0:0:0:0:
152,74,239836,1,8,0:0:0:0:
198,172,240236,6,0,P|182:224|178:243,1,60.5000018463135,6|2,3:0|0:0,0:0:0:0:
216,271,240636,2,0,P|264:250|289:244,1,60.5000018463135,10|2,0:0|3:0,0:0:0:0:
320,224,241036,2,0,P|351:233|394:242,2,60.5000018463135,2|2|10,3:0|3:0|0:0,0:0:0:0:
297,174,241636,1,2,0:0:0:0:
297,174,241836,2,0,L|263:43,1,121.000003692627,2|10,3:0|0:0,0:0:0:0:
308,22,242436,1,2,3:0:0:0:
308,22,242636,1,0,3:0:0:0:
396,85,243036,1,8,0:0:0:0:
487,26,243436,6,0,B|502:79|502:79|491:102|491:102|507:160,1,121.000003692627,2|8,3:0|0:0,0:0:0:0:
465,180,244036,1,2,3:0:0:0:
465,180,244236,2,0,P|430:217|462:284,1,121.000003692627,2|10,3:0|0:0,0:0:0:0:
439,331,244836,1,2,0:0:0:0:
439,331,245036,2,0,L|364:315,1,60.5000018463135,2|2,3:0|3:0,0:0:0:0:
338,353,245436,2,0,L|263:337,1,60.5000018463135,10|2,0:0|3:0,0:0:0:0:
247,295,245836,1,2,3:0:0:0:
327,221,246236,1,8,0:0:0:0:
261,133,246636,6,0,P|200:119|173:173,1,121.000003692627,6|2,3:0|0:0,0:0:0:0:
139,205,247236,1,2,3:0:0:0:
139,205,247436,2,0,L|71:184,2,60.5000018463135,10|2|2,0:0|0:0|0:0,0:0:0:0:
179,241,248036,1,10,0:0:0:0:
179,241,248236,2,0,B|222:270|222:270|191:352,1,121.000003692627,6|2,3:0|0:0,0:0:0:0:
147,355,248836,1,2,0:0:0:0:
147,355,249036,2,0,P|98:337|75:330,1,60.5000018463135,2|2,0:0|0:0,0:0:0:0:
68,284,249436,1,2,0:0:0:0:
128,205,249836,6,0,L|96:92,1,110,4|10,3:0|0:0,0:0:0:0:
123,50,250436,1,0,3:0:0:0:
123,50,250636,2,0,P|180:34|205:83,1,110,2|10,3:0|0:0,0:0:0:0:
305,115,251436,2,0,P|358:104|367:41,2,110,2|10|2,3:0|0:0|3:0,0:0:0:0:
257,142,252436,1,0,3:0:0:0:
257,142,252636,2,0,L|178:161,1,55,10|0,0:0|3:0,0:0:0:0:
155,182,253036,6,0,B|136:247|179:261|218:273|184:355,1,165,2|0,3:0|3:0,0:0:0:0:
241,357,253836,2,0,P|271:349|302:347,1,55,2|0,3:0|3:0,0:0:0:0:
328,303,254236,1,10,0:0:0:0:
426,345,254636,2,0,B|466:306|466:306|431:246,1,110,0|10,3:0|0:0,0:0:0:0:
390,232,255236,1,0,3:0:0:0:
390,232,255436,2,0,P|396:198|406:159,1,55,2|0,3:0|3:0,0:0:0:0:
379,127,255836,2,0,P|331:145|308:154,1,55,10|0,0:0|3:0,0:0:0:0:
276,126,256236,6,0,P|259:69|307:41,2,110,6|8|0,3:0|0:0|3:0,0:0:0:0:
327,146,257236,1,0,3:0:0:0:
327,146,257436,1,8,0:0:0:0:
256,230,257836,2,0,B|189:210|189:210|146:244,1,110,2|8,3:0|0:0,0:0:0:0:
105,216,258436,1,2,3:0:0:0:
105,216,258636,2,0,L|93:162,1,55,0|0,3:0|3:0,0:0:0:0:
126,118,259036,1,10,0:0:0:0:
228,78,259436,6,0,P|261:109|234:168,1,110,14|0,0:0|3:0,0:0:0:0:
201,200,260036,2,0,P|180:247|215:285,1,110,14|0,0:0|3:0,0:0:0:0:
266,305,260636,1,14,0:0:0:0:
362,357,261036,1,12,0:0:0:0:
452,293,261436,1,0,3:0:0:0:
363,228,261836,2,0,P|356:201|346:163,1,55,2|2,0:0|3:0,0:0:0:0:
380,129,262236,2,0,P|435:144|459:147,1,55,2|2,0:0|0:0,0:0:0:0:
469,102,262636,6,0,B|494:61|494:61|375:38,1,165,4|12,3:0|0:0,0:0:0:0:
215,61,263836,2,0,B|190:102|190:102|309:125,1,165,4|12,3:0|0:0,0:0:0:0:
372,210,264836,1,8,0:0:0:0:
372,210,265036,6,0,L|356:272,2,55,0|0|0,3:0|3:0|3:0,0:0:0:0:
412,171,265636,1,0,3:0:0:0:
