osu file format v14

[General]
AudioFilename: audio.mp3
AudioLeadIn: 0
PreviewTime: 65811
Countdown: 0
SampleSet: Soft
StackLeniency: 0.7
Mode: 0
LetterboxInBreaks: 0
WidescreenStoryboard: 0

[Editor]
DistanceSpacing: 0.5
BeatDivisor: 4
GridSize: 16
TimelineZoom: 1.6

[Metadata]
Title:Boku no Friend
TitleUnicode:ぼくのフレンド
Artist:Doubutsu Biscuits & Kaban (CV: Uchida Aya)
ArtistUnicode:どうぶつビスケッツ & かばん (CV: 内田彩)
Creator:rosario wknd
Version:Let's be Friends Forever
Source:けものフレンズ
Tags:kemono friends furenzu ending ed japanese pop jpop j-pop cover full version ver サーバル serval cat フェネック fennec fox アライグマ common raccoon 尾崎由香 yuka ozaki 本宮佳奈 kana motomiya 小野早稀 saki ono さふぁりどらいぶ♪ safari drive みゆはん mewhan lets rock jrock j-rock
BeatmapID:3373171
BeatmapSetID:1650932

[Difficulty]
HPDrainRate:6
CircleSize:4.6
OverallDifficulty:8
ApproachRate:9
SliderMultiplier:1.6
SliderTickRate:1

[Events]
//Background and Video events
0,0,"62209428_p0_master1200.jpg",0,0
//Break Periods
//Storyboard Layer 0 (Background)
//Storyboard Layer 1 (Fail)
//Storyboard Layer 2 (Pass)
//Storyboard Layer 3 (Foreground)
//Storyboard Layer 4 (Overlay)
//Storyboard Sound Samples

[TimingPoints]
236,400,4,2,1,30,1,0
1036,-71.4285714285714,4,2,1,40,0,0
1336,-71.4285714285714,4,2,1,40,0,0
1436,-71.4285714285714,4,2,1,40,0,0
1836,400,4,2,1,50,1,0
1836,-76.9230769230769,4,2,1,50,0,0
2136,-76.9230769230769,4,2,1,5,0,0
2236,-76.9230769230769,4,2,1,50,0,0
3736,-76.9230769230769,4,2,1,5,0,0
3836,-76.9230769230769,4,2,1,50,0,0
5336,-76.9230769230769,4,2,1,5,0,0
5436,-76.9230769230769,4,2,1,50,0,0
5936,-76.9230769230769,4,2,1,5,0,0
6036,-76.9230769230769,4,2,1,50,0,0
6136,-76.9230769230769,4,2,1,5,0,0
6236,-76.9230769230769,4,2,1,50,0,0
7736,-76.9230769230769,4,2,1,5,0,0
7836,-76.9230769230769,4,2,1,50,0,0
8136,-76.9230769230769,4,2,1,5,0,0
8236,-76.9230769230769,4,2,1,50,0,0
8536,-76.9230769230769,4,2,1,5,0,0
8636,-76.9230769230769,4,2,1,50,0,0
9136,-76.9230769230769,4,2,1,5,0,0
9236,-76.9230769230769,4,2,1,50,0,0
9336,-76.9230769230769,4,2,1,5,0,0
9436,-76.9230769230769,4,2,1,50,0,0
10136,-76.9230769230769,4,2,1,5,0,0
10236,-76.9230769230769,4,2,1,50,0,0
10736,-76.9230769230769,4,2,1,5,0,0
10836,-76.9230769230769,4,2,1,50,0,0
11136,-76.9230769230769,4,2,1,5,0,0
11236,-76.9230769230769,4,2,1,50,0,0
11336,-76.9230769230769,4,2,1,5,0,0
11436,-100,4,2,1,55,0,0
12636,-71.4285714285714,4,2,1,55,0,0
13336,-71.4285714285714,4,2,1,5,0,0
13436,-71.4285714285714,4,2,1,55,0,0
13736,-71.4285714285714,4,2,1,5,0,0
13836,-71.4285714285714,4,2,1,55,0,0
14636,-71.4285714285714,4,2,1,40,0,0
14836,-111.111111111111,4,2,1,40,0,0
22536,-111.111111111111,4,2,1,5,0,0
22636,-111.111111111111,4,2,1,40,0,0
27436,-90.9090909090909,4,2,1,45,0,0
27736,-90.9090909090909,4,2,1,5,0,0
27836,-90.9090909090909,4,2,1,45,0,0
31536,-90.9090909090909,4,2,1,5,0,0
31636,-90.9090909090909,4,2,1,45,0,0
31736,-90.9090909090909,4,2,1,5,0,0
31836,-90.9090909090909,4,2,1,45,0,0
37336,-90.9090909090909,4,2,1,5,0,0
37436,-90.9090909090909,4,2,1,45,0,0
38636,-76.9230769230769,4,2,1,45,0,0
38736,-76.9230769230769,4,2,1,5,0,0
38836,-76.9230769230769,4,2,1,45,0,0
38936,-76.9230769230769,4,2,1,5,0,0
39036,-76.9230769230769,4,2,1,45,0,0
39736,-76.9230769230769,4,2,1,5,0,0
39836,-76.9230769230769,4,2,1,45,0,0
40236,-125,4,2,1,40,0,0
40836,-100,4,2,1,40,0,0
45236,-100,4,2,1,5,0,0
45336,-100,4,2,1,40,0,0
45536,-100,4,2,1,5,0,0
45636,-100,4,2,1,40,0,0
51336,-100,4,2,1,5,0,0
51436,-100,4,2,1,40,0,0
54836,-100,4,2,1,5,0,0
54936,-100,4,2,1,40,0,0
55136,-100,4,2,1,5,0,0
55236,-100,4,2,1,40,0,0
56136,-100,4,2,1,5,0,0
56236,-90.9090909090909,4,2,1,45,0,0
57336,-90.9090909090909,4,2,1,5,0,0
57436,-90.9090909090909,4,2,1,45,0,0
58936,-90.9090909090909,4,2,1,5,0,0
59036,-90.9090909090909,4,2,1,45,0,0
59436,-83.3333333333333,4,2,1,55,0,0
59736,-83.3333333333333,4,2,1,5,0,0
59836,-83.3333333333333,4,2,1,55,0,0
64836,-76.9230769230769,4,2,1,55,0,0
65136,-76.9230769230769,4,2,1,5,0,0
65236,-76.9230769230769,4,2,1,55,0,0
65836,-71.4285714285714,4,2,1,65,0,1
66936,-71.4285714285714,4,2,1,5,0,1
67036,-71.4285714285714,4,2,1,65,0,1
67136,-71.4285714285714,4,2,1,5,0,1
67236,-71.4285714285714,4,2,1,65,0,1
69936,-71.4285714285714,4,2,1,5,0,1
70036,-71.4285714285714,4,2,1,65,0,1
70136,-71.4285714285714,4,2,1,5,0,1
70236,-71.4285714285714,4,2,1,65,0,1
72536,-71.4285714285714,4,2,1,5,0,1
72636,-71.4285714285714,4,2,1,65,0,1
75336,-71.4285714285714,4,2,1,5,0,1
75436,-71.4285714285714,4,2,1,65,0,1
77036,-66.6666666666667,4,2,1,65,0,1
77136,-66.6666666666667,4,2,1,5,0,1
77236,-66.6666666666667,4,2,1,65,0,1
77336,-66.6666666666667,4,2,1,5,0,1
77436,-66.6666666666667,4,2,1,65,0,1
78636,-71.4285714285714,4,2,1,65,0,1
78936,-71.4285714285714,4,2,1,5,0,1
79036,-71.4285714285714,4,2,1,65,0,1
81936,-71.4285714285714,4,2,1,5,0,1
82036,-71.4285714285714,4,2,1,65,0,1
82136,-71.4285714285714,4,2,1,5,0,1
82236,-71.4285714285714,4,2,1,65,0,1
83736,-71.4285714285714,4,2,1,5,0,1
83836,-71.4285714285714,4,2,1,65,0,1
86636,-66.6666666666667,4,2,1,65,0,1
86936,-66.6666666666667,4,2,1,5,0,1
87036,-66.6666666666667,4,2,1,65,0,1
87336,-66.6666666666667,4,2,1,5,0,1
87436,-66.6666666666667,4,2,1,65,0,1
87736,-66.6666666666667,4,2,1,5,0,1
87836,-66.6666666666667,4,2,1,65,0,1
87936,-66.6666666666667,4,2,1,5,0,1
88036,-66.6666666666667,4,2,1,65,0,1
88136,-66.6666666666667,4,2,1,65,0,1
88236,-76.9230769230769,4,2,1,50,0,0
88536,-76.9230769230769,4,2,1,5,0,0
88636,-76.9230769230769,4,2,1,50,0,0
90136,-76.9230769230769,4,2,1,5,0,0
90236,-76.9230769230769,4,2,1,50,0,0
91736,-76.9230769230769,4,2,1,5,0,0
91836,-76.9230769230769,4,2,1,50,0,0
93136,-76.9230769230769,4,2,1,5,0,0
93236,-76.9230769230769,4,2,1,50,0,0
93336,-76.9230769230769,4,2,1,5,0,0
93436,-76.9230769230769,4,2,1,50,0,0
94636,-76.9230769230769,4,2,1,50,0,0
94936,-76.9230769230769,4,2,1,5,0,0
95036,-76.9230769230769,4,2,1,50,0,0
95536,-76.9230769230769,4,2,1,5,0,0
95636,-76.9230769230769,4,2,1,50,0,0
95736,-76.9230769230769,4,2,1,5,0,0
95836,-76.9230769230769,4,2,1,50,0,0
96536,-76.9230769230769,4,2,1,5,0,0
96636,-76.9230769230769,4,2,1,50,0,0
97136,-76.9230769230769,4,2,1,5,0,0
97236,-76.9230769230769,4,2,1,50,0,0
97536,-76.9230769230769,4,2,1,5,0,0
97636,-76.9230769230769,4,2,1,50,0,0
97736,-76.9230769230769,4,2,1,50,0,0
97836,-76.9230769230769,4,2,1,50,0,0
99536,-76.9230769230769,4,2,1,5,0,0
99636,-76.9230769230769,4,2,1,50,0,0
99736,-76.9230769230769,4,2,1,5,0,0
99836,-76.9230769230769,4,2,1,50,0,0
99936,-76.9230769230769,4,2,1,5,0,0
100036,-76.9230769230769,4,2,1,50,0,0
100136,-76.9230769230769,4,2,1,5,0,0
100236,-76.9230769230769,4,2,1,50,0,0
101036,-90.9090909090909,4,2,1,45,0,0
110936,-90.9090909090909,4,2,1,5,0,0
111036,-90.9090909090909,4,2,1,45,0,0
114136,-90.9090909090909,4,2,1,5,0,0
114236,-90.9090909090909,4,2,1,45,0,0
117936,-90.9090909090909,4,2,1,5,0,0
118036,-90.9090909090909,4,2,1,45,0,0
118136,-90.9090909090909,4,2,1,5,0,0
118236,-90.9090909090909,4,2,1,45,0,0
123736,-90.9090909090909,4,2,1,5,0,0
123836,-90.9090909090909,4,2,1,45,0,0
125036,-83.3333333333333,4,2,1,45,0,0
125136,-83.3333333333333,4,2,1,5,0,0
125236,-83.3333333333333,4,2,1,45,0,0
125536,-83.3333333333333,4,2,1,5,0,0
125636,-83.3333333333333,4,2,1,45,0,0
126636,-100,4,2,1,40,0,0
130536,-100,4,2,1,5,0,0
130636,-100,4,2,1,40,0,0
136536,-100,4,2,1,5,0,0
136636,-100,4,2,1,40,0,0
139436,-90.9090909090909,4,2,1,40,0,0
139536,-90.9090909090909,4,2,1,5,0,0
139636,-90.9090909090909,4,2,1,40,0,0
139736,-90.9090909090909,4,2,1,5,0,0
139836,-90.9090909090909,4,2,1,40,0,0
140136,-90.9090909090909,4,2,1,5,0,0
140236,-90.9090909090909,4,2,1,40,0,0
141736,-90.9090909090909,4,2,1,5,0,0
141836,-90.9090909090909,4,2,1,40,0,0
142636,-100,4,2,1,45,0,0
143336,-100,4,2,1,5,0,0
143436,-100,4,2,1,45,0,0
145536,-100,4,2,1,5,0,0
145636,-100,4,2,1,45,0,0
145736,-100,4,2,1,5,0,0
145836,-83.3333333333333,4,2,1,55,0,0
146136,-83.3333333333333,4,2,1,5,0,0
146236,-83.3333333333333,4,2,1,55,0,0
150936,-83.3333333333333,4,2,1,5,0,0
151036,-83.3333333333333,4,2,1,55,0,0
151236,-76.9230769230769,4,2,1,55,0,0
151536,-76.9230769230769,4,2,1,5,0,0
151636,-76.9230769230769,4,2,1,55,0,0
152236,-71.4285714285714,4,2,1,65,0,1
153136,-71.4285714285714,4,2,1,5,0,1
153236,-71.4285714285714,4,2,1,65,0,1
153336,-71.4285714285714,4,2,1,5,0,1
153436,-71.4285714285714,4,2,1,65,0,1
156536,-71.4285714285714,4,2,1,5,0,1
156636,-71.4285714285714,4,2,1,65,0,1
158936,-71.4285714285714,4,2,1,5,0,1
159036,-71.4285714285714,4,2,1,65,0,1
161736,-71.4285714285714,4,2,1,5,0,1
161836,-71.4285714285714,4,2,1,65,0,1
163436,-66.6666666666667,4,2,1,65,0,1
163536,-66.6666666666667,4,2,1,5,0,1
163636,-66.6666666666667,4,2,1,65,0,1
163736,-66.6666666666667,4,2,1,5,0,1
163836,-66.6666666666667,4,2,1,65,0,1
165036,-71.4285714285714,4,2,1,65,0,1
171436,-76.9230769230769,4,2,1,65,0,1
174136,-76.9230769230769,4,2,1,5,0,1
174236,-76.9230769230769,4,2,1,65,0,1
174336,-76.9230769230769,4,2,1,5,0,1
174436,-76.9230769230769,4,2,1,65,0,1
174636,-90.9090909090909,4,2,1,50,0,0
176136,-90.9090909090909,4,2,1,5,0,0
176236,-90.9090909090909,4,2,1,50,0,0
180536,-90.9090909090909,4,2,1,5,0,0
180636,-90.9090909090909,4,2,1,50,0,0
181036,-71.4285714285714,4,2,1,55,0,0
182636,-76.9230769230769,4,2,1,55,0,0
182936,-76.9230769230769,4,2,1,5,0,0
183036,-76.9230769230769,4,2,1,55,0,0
184536,-76.9230769230769,4,2,1,5,0,0
184636,-76.9230769230769,4,2,1,55,0,0
185836,-76.9230769230769,4,2,1,55,0,0
187436,-71.4285714285714,4,2,1,60,0,0
188536,-71.4285714285714,4,2,1,5,0,0
188636,-71.4285714285714,4,2,1,60,0,0
190936,-71.4285714285714,4,2,1,5,0,0
191036,-71.4285714285714,4,2,1,60,0,0
193736,-71.4285714285714,4,2,1,5,0,0
193836,-71.4285714285714,4,2,1,60,0,0
194336,-71.4285714285714,4,2,1,5,0,0
194436,-71.4285714285714,4,2,1,60,0,0
194936,-71.4285714285714,4,2,1,5,0,0
195036,-71.4285714285714,4,2,1,60,0,0
196936,-71.4285714285714,4,2,1,5,0,0
197036,-71.4285714285714,4,2,1,60,0,0
200236,-100,4,2,1,40,0,0
203336,-100,4,2,1,5,0,0
203436,-100,4,2,1,40,0,0
209736,-100,4,2,1,5,0,0
209836,-100,4,2,1,40,0,0
213036,-90.9090909090909,4,2,1,45,0,0
214836,-90.9090909090909,4,2,1,5,0,0
214936,-90.9090909090909,4,2,1,45,0,0
215136,-90.9090909090909,4,2,1,5,0,0
215236,-90.9090909090909,4,2,1,45,0,0
215736,-90.9090909090909,4,2,1,5,0,0
215836,-90.9090909090909,4,2,1,45,0,0
217336,-90.9090909090909,4,2,1,5,0,0
217436,-90.9090909090909,4,2,1,45,0,0
218936,-90.9090909090909,4,2,1,5,0,0
219036,-90.9090909090909,4,2,1,45,0,0
219436,-83.3333333333333,4,2,1,55,0,0
219736,-83.3333333333333,4,2,1,5,0,0
219836,-83.3333333333333,4,2,1,55,0,0
225136,-83.3333333333333,4,2,1,5,0,0
225236,-83.3333333333333,4,2,1,55,0,0
225836,-100,4,2,1,55,0,0
227036,-100,4,2,1,55,0,0
227436,-71.4285714285714,4,2,1,65,0,1
231536,-71.4285714285714,4,2,1,5,0,1
231636,-71.4285714285714,4,2,1,65,0,1
231736,-71.4285714285714,4,2,1,5,0,1
231836,-71.4285714285714,4,2,1,65,0,1
234136,-71.4285714285714,4,2,1,5,0,1
234236,-71.4285714285714,4,2,1,65,0,1
236936,-71.4285714285714,4,2,1,5,0,1
237036,-71.4285714285714,4,2,1,65,0,1
238636,-66.6666666666667,4,2,1,65,0,1
238736,-66.6666666666667,4,2,1,5,0,1
238836,-66.6666666666667,4,2,1,65,0,1
238936,-66.6666666666667,4,2,1,5,0,1
239036,-66.6666666666667,4,2,1,65,0,1
240236,-71.4285714285714,4,2,1,65,0,1
245136,-71.4285714285714,4,2,1,5,0,1
245236,-71.4285714285714,4,2,1,65,0,1
245336,-71.4285714285714,4,2,1,5,0,1
245436,-71.4285714285714,4,2,1,65,0,1
246636,-100,4,2,1,65,0,1
248236,-125,4,2,1,65,0,0
249736,-125,4,2,1,5,0,0
249836,-76.9230769230769,4,2,1,55,0,0
250136,-76.9230769230769,4,2,1,5,0,0
250236,-76.9230769230769,4,2,1,55,0,0
251736,-76.9230769230769,4,2,1,5,0,0
251836,-76.9230769230769,4,2,1,55,0,0
253336,-76.9230769230769,4,2,1,5,0,0
253436,-76.9230769230769,4,2,1,55,0,0
255536,-76.9230769230769,4,2,1,5,0,0
255636,-76.9230769230769,4,2,1,55,0,0
255736,-76.9230769230769,4,2,1,5,0,0
255836,-76.9230769230769,4,2,1,55,0,0
256536,-76.9230769230769,4,2,1,5,0,0
256636,-76.9230769230769,4,2,1,55,0,0
257136,-76.9230769230769,4,2,1,5,0,0
257236,-76.9230769230769,4,2,1,55,0,0
257336,-76.9230769230769,4,2,1,5,0,0
257436,-76.9230769230769,4,2,1,55,0,0
258136,-76.9230769230769,4,2,1,5,0,0
258236,-76.9230769230769,4,2,1,55,0,0
258736,-76.9230769230769,4,2,1,5,0,0
258836,-76.9230769230769,4,2,1,55,0,0
261336,-76.9230769230769,4,2,1,5,0,0
261436,-76.9230769230769,4,2,1,55,0,0
261736,-76.9230769230769,4,2,1,5,0,0
261836,-76.9230769230769,4,2,1,55,0,0
262636,-83.3333333333333,4,2,1,50,0,0
264436,-76.9230769230769,4,2,1,50,0,0
264736,-76.9230769230769,4,2,1,5,0,0
264836,-76.9230769230769,4,2,1,50,0,0

[Colours]
Combo1 : 255,0,0
Combo2 : 0,255,64
Combo3 : 0,128,192
Combo4 : 255,255,0

[HitObjects]
196,191,236,5,0,3:0:0:0:
196,191,636,1,0,3:0:0:0:
196,191,1036,6,0,B|223:123|223:123|114:157,1,167.999994873047,4|0,3:0|3:0,0:0:0:0:
77,171,1436,5,8,0:0:0:0:
112,196,1536,1,8,0:0:0:0:
118,239,1636,1,0,3:0:0:0:
94,276,1736,1,0,3:0:0:0:
21,315,1836,6,0,B|85:299|85:299|127:319|127:319|207:300,1,155.999992858887,6|0,3:0|0:0,0:0:0:0:
204,273,2236,1,10,0:0:0:0:
313,187,2436,1,0,3:0:0:0:
313,187,2536,1,0,3:0:0:0:
313,187,2636,1,2,3:0:0:0:
243,158,2836,1,0,3:0:0:0:
390,298,3036,2,0,P|464:291|472:238,1,103.999995239258,10|0,0:0|3:0,0:0:0:0:
512,202,3336,1,0,0:0:0:0:
512,202,3436,6,0,B|413:178|413:178|397:215|364:233,1,155.999992858887,2|0,3:0|0:0,0:0:0:0:
316,187,3836,2,0,B|276:149|276:149|305:77,1,103.999995239258,10|0,0:0|3:0,0:0:0:0:
306,63,4136,1,0,3:0:0:0:
306,63,4236,1,2,3:0:0:0:
429,123,4436,1,0,3:0:0:0:
306,63,4636,2,0,L|159:96,1,103.999995239258,10|0,0:0|3:0,0:0:0:0:
144,154,4936,1,0,3:0:0:0:
144,154,5036,6,0,B|136:92|176:88|215:89|192:-19,1,155.999992858887,2|0,3:0|0:0,0:0:0:0:
197,16,5436,1,8,0:0:0:0:
287,138,5636,1,0,3:0:0:0:
287,138,5736,1,0,3:0:0:0:
287,138,5836,2,0,L|370:121,1,51.999997619629,2|0,3:0|0:0,0:0:0:0:
360,58,6036,2,0,L|443:41,1,51.999997619629,0|0,3:0|0:0,0:0:0:0:
478,74,6236,1,10,0:0:0:0:
413,249,6436,1,0,3:0:0:0:
413,249,6536,1,0,3:0:0:0:
413,249,6636,5,0,3:0:0:0:
364,189,6836,1,0,3:0:0:0:
489,357,7036,2,0,P|533:312|505:267,1,103.999995239258,10|0,0:0|3:0,0:0:0:0:
489,244,7336,1,0,3:0:0:0:
489,244,7436,1,2,3:0:0:0:
334,384,7636,2,0,P|308:383|275:328,1,51.999997619629,0|0,3:0|0:0,0:0:0:0:
262,303,7836,1,10,0:0:0:0:
364,189,8036,2,0,P|378:210|345:268,1,51.999997619629,0|0,3:0|3:0,0:0:0:0:
148,326,8236,6,0,B|114:308|63:314|63:314|32:264|81:231,1,155.999992858887,6|0,3:0|0:0,0:0:0:0:
91,216,8636,1,8,0:0:0:0:
219,134,8836,1,0,3:0:0:0:
219,134,8936,2,0,B|245:90|245:90|198:23,1,103.999995239258,0|0,3:0|0:0,0:0:0:0:
214,46,9236,2,0,L|131:71,1,51.999997619629,0|0,3:0|0:0,0:0:0:0:
50,118,9436,1,8,0:0:0:0:
79,51,9636,1,0,3:0:0:0:
228,215,9836,6,0,B|265:212|291:197|291:197|349:217|349:217|421:202,1,155.999992858887,2|0,3:0|0:0,0:0:0:0:
403,175,10236,1,8,0:0:0:0:
512,287,10436,1,2,3:0:0:0:
512,287,10536,2,0,P|532:227|472:206,1,103.999995239258,0|0,3:0|0:0,0:0:0:0:
507,204,10836,1,0,3:0:0:0:
378,312,11036,2,0,L|317:298,1,51.999997619629,10|0,0:0|0:0,0:0:0:0:
262,337,11236,2,0,L|201:323,1,51.999997619629,0|0,3:0|3:0,0:0:0:0:
199,200,11436,5,14,0:0:0:0:
145,140,11636,1,0,3:0:0:0:
197,84,11836,1,0,3:0:0:0:
0,209,12036,5,14,0:0:0:0:
54,265,12236,1,0,3:0:0:0:
0,89,12436,1,0,3:0:0:0:
54,265,12636,2,0,L|179:301,1,111.999996582031,14|0,0:0|3:0,0:0:0:0:
201,276,12936,1,0,0:0:0:0:
201,276,13036,5,12,0:0:0:0:
374,344,13236,2,0,P|360:307|350:277,1,55.9999982910157,0|0,3:0|0:0,0:0:0:0:
306,241,13436,1,0,3:0:0:0:
146,169,13636,2,0,P|160:140|171:111,1,55.9999982910157,0|0,3:0|0:0,0:0:0:0:
308,36,13836,5,2,0:0:0:0:
378,77,14036,1,6,3:0:0:0:
337,147,14236,1,2,0:0:0:0:
267,106,14436,1,10,0:0:0:0:
462,25,14636,5,6,3:0:0:0:
477,96,14836,2,0,B|464:96|458:111|458:111|496:206|496:206|489:222|464:227,1,143.999995605469,2|2,0:0|0:0,0:0:0:0:
508,307,15436,2,0,P|482:248|400:272,1,143.999995605469,2|2,0:0|0:0,0:0:0:0:
412,255,16036,1,2,0:0:0:0:
333,346,16236,6,0,L|426:325,2,71.9999978027344,2|2|2,0:0|0:0|0:0,0:0:0:0:
275,221,16836,2,0,P|262:277|241:369,2,143.999995605469,2|0|2,0:0|3:0|3:0,0:0:0:0:
250,104,17836,5,2,3:0:0:0:
321,77,18036,1,2,3:0:0:0:
250,104,18236,1,2,0:0:0:0:
181,25,18436,2,0,P|109:43|132:89,1,143.999995605469,2|2,0:0|0:0,0:0:0:0:
26,148,19036,2,0,P|17:105|2:58,1,71.9999978027344,2|2,0:0|0:0,0:0:0:0:
111,158,19436,5,2,0:0:0:0:
111,158,19636,2,0,P|119:196|129:227,1,71.9999978027344,2|2,0:0|0:0,0:0:0:0:
43,262,20036,2,0,B|133:238|133:238|175:285,2,143.999995605469,0|0|2,0:0|3:0|3:0,0:0:0:0:
180,362,21036,6,0,P|223:336|219:297,1,71.9999978027344,2|2,3:0|3:0,0:0:0:0:
284,273,21436,2,0,P|265:226|226:223,1,71.9999978027344,2|2,0:0|0:0,0:0:0:0:
160,173,21836,1,2,0:0:0:0:
129,242,22036,1,2,0:0:0:0:
160,173,22236,2,0,L|135:58,1,107.999996704102,2|0,0:0|0:0,0:0:0:0:
150,41,22636,6,0,P|194:52|232:62,2,71.9999978027344,2|2|2,0:0|0:0|0:0,0:0:0:0:
315,40,23236,2,0,P|259:52|271:131,1,143.999995605469,2|0,0:0|3:0,0:0:0:0:
326,201,23836,2,0,L|350:108,1,71.9999978027344,2|0,0:0|3:0,0:0:0:0:
433,23,24236,5,2,3:0:0:0:
489,74,24436,1,0,3:0:0:0:
462,143,24636,1,2,0:0:0:0:
373,234,24836,2,0,B|362:285|396:308|438:304|423:387,2,143.999995605469,2|2|2,0:0|0:0|0:0,0:0:0:0:
238,350,25836,5,0,3:0:0:0:
202,284,26036,1,0,0:0:0:0:
373,234,26236,1,0,3:0:0:0:
333,298,26436,1,2,0:0:0:0:
248,222,26636,1,0,3:0:0:0:
415,170,26836,1,2,0:0:0:0:
200,101,27036,5,8,0:0:0:0:
178,76,27136,1,8,0:0:0:0:
175,43,27236,1,10,0:0:0:0:
194,17,27336,1,8,0:0:0:0:
208,10,27436,6,0,P|269:25|336:41,1,132.00000402832,6|0,3:0|0:0,0:0:0:0:
369,52,27836,1,10,0:0:0:0:
312,111,28036,1,2,0:0:0:0:
456,229,28236,1,2,3:0:0:0:
406,120,28436,1,2,3:0:0:0:
456,229,28636,2,0,P|458:296|416:314,1,88.000002685547,10|2,0:0|0:0,0:0:0:0:
373,347,28936,1,0,0:0:0:0:
373,347,29036,6,0,B|468:317|468:317|528:327|507:396,1,176.000005371094,2|10,3:0|0:0,0:0:0:0:
364,339,29636,2,0,B|256:372|256:372|218:308,1,176.000005371094,2|0,0:0|3:0,0:0:0:0:
301,261,30236,2,0,P|310:210|270:181,1,88.000002685547,8|2,0:0|0:0,0:0:0:0:
253,177,30536,1,0,0:0:0:0:
253,177,30636,5,2,3:0:0:0:
146,274,30836,1,2,0:0:0:0:
44,186,31036,2,0,P|57:138|74:84,1,88.000002685547,10|2,0:0|0:0,0:0:0:0:
83,68,31336,1,0,0:0:0:0:
83,68,31436,2,0,P|76:41|70:5,1,44.0000013427735,2|0,3:0|0:0,0:0:0:0:
152,129,31636,2,0,P|156:150|161:171,1,44.0000013427735,2|0,3:0|0:0,0:0:0:0:
0,87,31836,1,10,0:0:0:0:
202,29,32036,1,2,0:0:0:0:
202,29,32136,1,0,0:0:0:0:
202,29,32236,6,0,B|236:35|258:52|258:52|279:104|279:104|318:112|339:131,1,176.000005371094,2|10,3:0|0:0,0:0:0:0:
332,126,32836,1,2,0:0:0:0:
511,166,33036,2,0,P|437:130|439:223,1,176.000005371094,0|8,3:0|0:0,0:0:0:0:
463,251,33636,1,2,0:0:0:0:
311,372,33836,6,0,P|267:360|206:347,1,88.000002685547,2|2,3:0|0:0,0:0:0:0:
188,293,34236,1,10,0:0:0:0:
322,242,34436,1,2,0:0:0:0:
322,242,34536,1,0,0:0:0:0:
322,242,34636,1,2,3:0:0:0:
360,174,34836,1,2,3:0:0:0:
198,131,35036,2,0,B|184:89|184:89|228:57,1,88.000002685547,10|2,0:0|0:0,0:0:0:0:
265,4,35336,1,0,0:0:0:0:
265,4,35436,6,0,B|263:34|235:38|235:38|142:57|142:57|117:67|117:99,1,176.000005371094,2|10,3:0|0:0,0:0:0:0:
273,12,36036,2,0,B|310:25|376:56|376:56|391:23|422:8,1,176.000005371094,2|0,0:0|3:0,0:0:0:0:
457,191,36636,2,0,P|481:150|440:100,1,88.000002685547,10|0,0:0|0:0,0:0:0:0:
431,108,36936,1,0,0:0:0:0:
431,108,37036,6,0,P|365:123|289:138,1,132.00000402832,2|0,3:0|0:0,0:0:0:0:
282,107,37436,1,10,0:0:0:0:
362,283,37636,2,0,B|393:251|393:251|371:197,1,88.000002685547,2|0,0:0|3:0,0:0:0:0:
237,273,38036,2,0,B|205:304|205:304|227:358,1,88.000002685547,2|8,3:0|0:0,0:0:0:0:
422,322,38436,1,2,0:0:0:0:
422,322,38536,1,0,0:0:0:0:
422,322,38636,6,0,P|453:314|491:308,1,51.999997619629,4|0,3:0|0:0,0:0:0:0:
335,209,38836,2,0,P|309:215|284:220,1,51.999997619629,0|0,3:0|0:0,0:0:0:0:
367,373,39036,1,8,0:0:0:0:
438,188,39236,1,2,3:0:0:0:
458,163,39336,1,8,0:0:0:0:
458,139,39436,5,6,3:0:0:0:
444,111,39536,1,0,3:0:0:0:
426,94,39636,2,0,L|448:16,1,51.999997619629,2|0,3:0|0:0,0:0:0:0:
512,228,39836,1,8,0:0:0:0:
299,131,40036,1,8,0:0:0:0:
299,131,40136,1,8,0:0:0:0:
299,131,40236,5,6,3:0:0:0:
264,64,40436,1,2,0:0:0:0:
322,18,40636,1,2,0:0:0:0:
181,88,40836,2,0,B|153:86|124:75|124:75|97:40|97:40|70:30|35:23,2,160,2|2|0,3:0|3:0|0:0,0:0:0:0:
64,270,41836,6,0,P|56:229|44:178,1,80,2|2,3:0|0:0,0:0:0:0:
14,163,42136,1,0,3:0:0:0:
14,163,42236,1,2,0:0:0:0:
64,110,42436,1,2,3:0:0:0:
141,242,42636,2,0,B|230:221|230:221|278:227|280:281,1,160,8|2,0:0|3:0,0:0:0:0:
277,263,43236,1,8,0:0:0:0:
420,379,43436,6,0,P|439:324|451:300,1,80,6|0,3:0|0:0,0:0:0:0:
390,204,43836,2,0,P|371:259|359:283,1,80,2|0,0:0|3:0,0:0:0:0:
486,168,44236,2,0,P|425:187|386:94,1,160,10|2,0:0|0:0,0:0:0:0:
377,116,44836,1,0,0:0:0:0:
465,0,45036,6,0,P|422:8|367:17,1,80,0|0,3:0|0:0,0:0:0:0:
363,45,45336,2,0,P|316:52|265:62,1,80,0|0,3:0|0:0,0:0:0:0:
254,45,45636,1,0,3:0:0:0:
441,158,45836,2,0,B|473:190|473:190|448:266|448:266|406:279,1,160,8|0,0:0|3:0,0:0:0:0:
374,220,46436,1,8,0:0:0:0:
250,321,46636,5,6,3:0:0:0:
186,287,46836,1,2,0:0:0:0:
132,339,47036,1,2,0:0:0:0:
318,362,47236,2,0,P|401:338|478:318,2,160,2|2|0,3:0|3:0|0:0,0:0:0:0:
186,287,48236,6,0,B|162:253|162:253|191:197,1,80,2|2,3:0|0:0,0:0:0:0:
201,185,48536,1,0,3:0:0:0:
201,185,48636,2,0,B|218:150|218:150|194:116,1,80,2|2,0:0|3:0,0:0:0:0:
68,81,49036,2,0,P|62:22|122:68,1,160,8|2,0:0|3:0,0:0:0:0:
126,51,49636,1,8,0:0:0:0:
194,208,49836,5,6,3:0:0:0:
151,149,50036,1,0,0:0:0:0:
289,61,50236,2,0,L|375:85,1,80,2|0,0:0|0:0,0:0:0:0:
210,70,50636,1,10,0:0:0:0:
303,196,50836,1,0,3:0:0:0:
210,70,51036,2,0,P|153:49|111:95,1,120,2|0,0:0|0:0,0:0:0:0:
113,84,51436,6,0,L|147:209,2,120,2|0|0,3:0|3:0|3:0,0:0:0:0:
32,275,52236,2,0,B|110:316|140:235|169:177|241:218,1,240,10|8,0:0|0:0,0:0:0:0:
384,356,53036,5,6,3:0:0:0:
424,285,53236,1,2,0:0:0:0:
384,356,53436,1,2,0:0:0:0:
261,296,53636,2,0,P|194:299|190:385,2,160,2|2|0,3:0|3:0|0:0,0:0:0:0:
361,243,54636,6,0,P|371:199|381:153,1,80,2|0,3:0|0:0,0:0:0:0:
415,161,54936,2,0,P|422:122|435:71,1,80,0|0,3:0|0:0,0:0:0:0:
412,49,55236,1,2,3:0:0:0:
251,65,55436,1,8,0:0:0:0:
282,2,55636,1,2,0:0:0:0:
334,113,55836,2,0,P|318:164|298:250,1,120,2|0,3:0|0:0,0:0:0:0:
364,277,56236,6,0,P|298:289|297:324,1,88.000002685547,6|0,3:0|0:0,0:0:0:0:
219,301,56636,2,0,P|219:368|253:375,1,88.000002685547,2|0,0:0|3:0,0:0:0:0:
379,330,57036,2,0,P|393:266|414:190,1,132.00000402832,10|0,0:0|0:0,0:0:0:0:
395,177,57436,1,2,0:0:0:0:
344,122,57636,1,0,0:0:0:0:
240,227,57836,6,0,L|134:203,1,88.000002685547,2|0,3:0|0:0,0:0:0:0:
130,171,58136,1,0,3:0:0:0:
130,171,58236,1,2,0:0:0:0:
208,303,58436,1,0,3:0:0:0:
130,171,58636,2,0,B|99:138|99:138|162:46,1,132.00000402832,10|0,0:0|0:0,0:0:0:0:
192,13,59036,5,10,0:0:0:0:
165,48,59136,1,8,0:0:0:0:
122,59,59236,1,8,0:0:0:0:
81,40,59336,1,8,0:0:0:0:
59,4,59436,6,0,P|-7:31|35:92,1,143.999995605469,6|0,3:0|0:0,0:0:0:0:
42,104,59836,1,10,0:0:0:0:
169,199,60036,1,2,3:0:0:0:
25,314,60236,2,0,P|49:239|63:194,1,95.9999970703126,10|2,0:0|3:0,0:0:0:0:
218,374,60636,2,0,P|194:299|180:254,1,95.9999970703126,10|0,0:0|3:0,0:0:0:0:
225,251,60936,1,0,3:0:0:0:
225,251,61036,5,10,0:0:0:0:
100,360,61236,1,2,0:0:0:0:
225,251,61436,1,10,0:0:0:0:
381,367,61636,2,0,P|404:360|443:351,2,47.9999985351563,2|0|8,3:0|0:0|0:0,0:0:0:0:
324,320,62036,1,0,3:0:0:0:
410,181,62236,2,0,P|416:116|383:97,1,95.9999970703126,8|2,0:0|3:0,0:0:0:0:
368,91,62536,1,0,3:0:0:0:
368,91,62636,5,6,3:0:0:0:
190,21,62836,1,2,3:0:0:0:
134,72,63036,1,2,3:0:0:0:
174,137,63236,1,2,3:0:0:0:
259,236,63436,5,14,0:0:0:0:
0,225,63636,1,2,3:0:0:0:
59,177,63836,1,2,3:0:0:0:
128,199,64036,1,2,3:0:0:0:
41,315,64236,5,14,0:0:0:0:
259,236,64436,1,2,3:0:0:0:
106,110,64636,1,2,3:0:0:0:
149,288,64836,6,0,B|196:303|196:303|224:354|224:354|302:382,1,155.999992858887,10|0,0:0|0:0,0:0:0:0:
270,368,65236,1,8,0:0:0:0:
0,315,65436,1,8,0:0:0:0:
0,315,65836,5,4,3:0:0:0:
70,274,66036,1,2,0:0:0:0:
179,368,66236,2,0,P|236:316|206:276,1,111.999996582031,10|2,0:0|3:0,0:0:0:0:
175,239,66536,1,0,3:0:0:0:
175,239,66636,2,0,B|204:262|236:257|236:257|268:307|268:307|306:318|351:311,1,167.999994873047,2|0,3:0|0:0,0:0:0:0:
347,254,67036,2,0,P|367:234|402:241,1,55.9999982910157,10|0,0:0|0:0,0:0:0:0:
470,360,67236,1,2,0:0:0:0:
512,180,67436,5,2,3:0:0:0:
460,244,67636,1,2,3:0:0:0:
340,124,67836,1,10,0:0:0:0:
492,49,68036,1,2,3:0:0:0:
492,49,68136,1,0,3:0:0:0:
492,49,68236,5,0,3:0:0:0:
420,0,68436,1,0,3:0:0:0:
266,81,68636,2,0,L|139:55,1,111.999996582031,8|2,0:0|3:0,0:0:0:0:
105,8,68936,1,0,0:0:0:0:
105,8,69036,6,0,B|58:39|58:39|76:92,1,111.999996582031,2|2,3:0|0:0,0:0:0:0:
187,260,69436,2,0,B|234:229|234:229|214:173,1,111.999996582031,10|2,0:0|3:0,0:0:0:0:
209,148,69736,1,0,3:0:0:0:
209,148,69836,6,0,P|239:156|274:163,1,55.9999982910157,2|0,3:0|0:0,0:0:0:0:
54,201,70036,2,0,P|28:193|-4:187,1,55.9999982910157,2|0,3:0|0:0,0:0:0:0:
151,55,70236,1,10,0:0:0:0:
329,197,70436,1,2,0:0:0:0:
329,197,70536,1,0,0:0:0:0:
329,197,70636,5,2,3:0:0:0:
258,244,70836,1,2,3:0:0:0:
320,33,71036,1,10,0:0:0:0:
458,156,71236,6,0,P|504:146|524:142,2,55.9999982910157,2|0|0,3:0|3:0|3:0,0:0:0:0:
408,223,71636,1,0,3:0:0:0:
441,383,71836,2,0,P|490:350|464:300,1,111.999996582031,8|2,0:0|3:0,0:0:0:0:
436,302,72136,1,0,0:0:0:0:
436,302,72236,6,0,B|348:282|348:282|307:242|354:192,1,167.999994873047,6|0,3:0|0:0,0:0:0:0:
397,170,72636,2,0,L|368:45,1,111.999996582031,10|0,0:0|3:0,0:0:0:0:
342,32,72936,1,0,3:0:0:0:
342,32,73036,1,2,3:0:0:0:
197,179,73236,5,0,3:0:0:0:
200,0,73436,1,10,0:0:0:0:
258,59,73636,1,2,0:0:0:0:
94,159,73836,6,0,P|37:129|51:76,1,111.999996582031,2|0,3:0|3:0,0:0:0:0:
187,268,74236,2,0,P|140:312|93:282,1,111.999996582031,10|2,0:0|3:0,0:0:0:0:
96,265,74536,1,0,3:0:0:0:
96,265,74636,1,2,3:0:0:0:
247,138,74836,1,2,3:0:0:0:
96,265,75036,1,10,0:0:0:0:
259,343,75236,2,0,P|287:332|326:325,1,55.9999982910157,2|0,3:0|0:0,0:0:0:0:
468,245,75436,5,0,3:0:0:0:
421,178,75636,1,2,0:0:0:0:
365,384,75836,1,10,0:0:0:0:
511,311,76036,1,2,3:0:0:0:
511,311,76136,1,0,3:0:0:0:
511,311,76236,1,2,3:0:0:0:
323,248,76436,1,2,3:0:0:0:
481,138,76636,2,0,B|507:89|507:89|460:42,1,111.999996582031,10|2,0:0|3:0,0:0:0:0:
401,22,76936,1,0,3:0:0:0:
401,22,77036,6,0,P|369:31|309:45,1,60.0000022888184,4|0,3:0|0:0,0:0:0:0:
189,206,77236,2,0,P|218:198|246:190,1,60.0000022888184,0|0,3:0|0:0,0:0:0:0:
408,102,77436,1,8,0:0:0:0:
243,299,77636,1,8,0:0:0:0:
243,299,77736,1,8,0:0:0:0:
243,299,77836,5,4,3:0:0:0:
172,66,78036,1,0,3:0:0:0:
384,241,78236,1,8,0:0:0:0:
418,282,78336,1,8,0:0:0:0:
411,335,78436,1,10,0:0:0:0:
372,372,78536,1,8,0:0:0:0:
348,374,78636,6,0,B|315:358|315:358|231:387|231:387|208:375|197:350,1,167.999994873047,6|0,3:0|0:0,0:0:0:0:
244,299,79036,1,10,0:0:0:0:
64,378,79236,1,2,3:0:0:0:
244,299,79436,2,0,P|261:243|207:207,1,111.999996582031,2|0,3:0|3:0,0:0:0:0:
206,169,79736,1,0,0:0:0:0:
206,169,79836,1,10,0:0:0:0:
257,107,80036,1,2,0:0:0:0:
402,198,80236,6,0,P|462:185|518:174,2,111.999996582031,2|2|10,3:0|3:0|0:0,0:0:0:0:
259,351,80836,2,0,P|221:340|196:333,2,55.9999982910157,2|0|0,3:0|3:0|3:0,0:0:0:0:
315,302,81236,1,0,3:0:0:0:
471,367,81436,2,0,P|513:323|467:264,1,111.999996582031,8|2,0:0|3:0,0:0:0:0:
468,264,81736,1,0,0:0:0:0:
468,264,81836,6,0,P|457:228|446:195,1,55.9999982910157,2|0,3:0|0:0,0:0:0:0:
292,165,82036,2,0,P|300:138|308:111,1,55.9999982910157,2|0,0:0|0:0,0:0:0:0:
502,68,82236,1,10,0:0:0:0:
445,2,82436,1,2,3:0:0:0:
445,2,82536,1,0,3:0:0:0:
445,2,82636,1,0,3:0:0:0:
365,28,82836,1,2,3:0:0:0:
203,145,83036,2,0,P|150:146|120:90,1,111.999996582031,10|2,0:0|0:0,0:0:0:0:
100,5,83336,1,0,0:0:0:0:
100,5,83436,6,0,B|112:74|75:89|30:76|48:177,1,167.999994873047,2|0,3:0|0:0,0:0:0:0:
16,185,83836,1,10,0:0:0:0:
156,277,84036,1,2,3:0:0:0:
156,277,84136,1,0,3:0:0:0:
156,277,84236,1,2,3:0:0:0:
188,114,84436,1,0,3:0:0:0:
59,265,84636,2,0,P|79:343|89:383,1,111.999996582031,8|2,0:0|3:0,0:0:0:0:
161,368,84936,1,0,0:0:0:0:
161,368,85036,6,0,B|190:317|190:317|139:257,1,111.999996582031,6|2,3:0|0:0,0:0:0:0:
327,225,85436,2,0,B|297:174|297:174|219:188,1,111.999996582031,2|0,0:0|3:0,0:0:0:0:
206,194,85736,1,0,0:0:0:0:
206,194,85836,1,10,0:0:0:0:
87,26,86036,1,2,0:0:0:0:
229,85,86236,1,2,0:0:0:0:
159,125,86436,1,10,0:0:0:0:
340,0,86636,6,0,B|370:12|402:20|402:20|454:60|454:60|502:49|530:50,1,180.000006866455,6|0,3:0|0:0,0:0:0:0:
506,171,87036,1,10,0:0:0:0:
506,171,87136,1,8,0:0:0:0:
506,171,87236,2,0,P|493:202|479:243,1,60.0000022888184,10|0,0:0|0:0,0:0:0:0:
295,262,87436,5,10,0:0:0:0:
295,262,87536,1,8,0:0:0:0:
295,262,87636,2,0,P|309:303|322:353,1,60.0000022888184,2|0,3:0|0:0,0:0:0:0:
512,371,87836,2,0,P|449:346|437:343,1,60.0000022888184,10|0,0:0|0:0,0:0:0:0:
205,187,88036,2,0,P|283:165|292:162,1,60.0000022888184,10|8,0:0|0:0,0:0:0:0:
404,19,88236,6,0,B|446:11|456:56|456:56|422:136,1,155.999992858887,6|0,3:0|0:0,0:0:0:0:
412,168,88636,1,10,0:0:0:0:
308,39,88836,1,0,3:0:0:0:
308,39,88936,1,0,3:0:0:0:
308,39,89036,1,2,3:0:0:0:
240,66,89236,1,0,3:0:0:0:
106,168,89436,2,0,P|57:107|77:81,1,103.999995239258,10|0,0:0|3:0,0:0:0:0:
111,42,89736,1,0,0:0:0:0:
111,42,89836,6,0,B|203:17|203:17|245:73,1,155.999992858887,2|0,3:0|0:0,0:0:0:0:
223,103,90236,1,10,0:0:0:0:
49,217,90436,2,0,P|23:208|-15:199,2,51.999997619629,0|0|2,3:0|3:0|3:0,0:0:0:0:
106,168,90836,1,0,3:0:0:0:
198,321,91036,2,0,L|81:285,1,103.999995239258,10|0,0:0|3:0,0:0:0:0:
61,366,91336,1,0,3:0:0:0:
61,366,91436,6,0,B|84:343|84:343|59:260|59:260|16:256,1,155.999992858887,6|0,3:0|0:0,0:0:0:0:
22,257,91836,1,8,0:0:0:0:
138,169,92036,1,0,3:0:0:0:
138,169,92136,1,0,3:0:0:0:
138,169,92236,1,2,3:0:0:0:
69,142,92436,1,0,3:0:0:0:
138,282,92636,2,0,P|200:293|230:255,1,103.999995239258,10|0,0:0|3:0,0:0:0:0:
227,238,92936,1,0,3:0:0:0:
227,238,93036,6,0,P|256:245|308:259,1,51.999997619629,0|0,3:0|0:0,0:0:0:0:
315,310,93236,2,0,B|342:316|342:316|396:331,1,51.999997619629,0|0,3:0|0:0,0:0:0:0:
431,180,93436,1,10,0:0:0:0:
339,83,93636,1,0,3:0:0:0:
339,83,93736,1,0,3:0:0:0:
339,83,93836,5,2,3:0:0:0:
505,162,94036,1,0,3:0:0:0:
388,241,94236,1,10,0:0:0:0:
505,162,94436,2,0,P|496:137|486:100,1,51.999997619629,0|0,3:0|3:0,0:0:0:0:
349,2,94636,6,0,B|329:9|293:18|293:18|267:54|267:54|234:59|183:80,1,155.999992858887,6|0,3:0|0:0,0:0:0:0:
196,40,95036,1,8,0:0:0:0:
301,123,95236,1,0,3:0:0:0:
301,123,95336,2,0,P|315:186|268:209,1,103.999995239258,0|0,3:0|0:0,0:0:0:0:
289,206,95636,2,0,L|222:189,1,51.999997619629,0|0,3:0|0:0,0:0:0:0:
132,152,95836,1,8,0:0:0:0:
63,173,96036,1,0,3:0:0:0:
144,365,96236,6,0,B|165:326|143:275|143:275|176:248|184:175,1,155.999992858887,2|0,3:0|0:0,0:0:0:0:
175,223,96636,1,8,0:0:0:0:
63,173,96836,1,2,3:0:0:0:
63,173,96936,2,0,P|51:117|38:65,1,103.999995239258,0|0,3:0|0:0,0:0:0:0:
39,71,97236,1,0,3:0:0:0:
153,26,97436,2,0,L|219:42,1,51.999997619629,10|0,0:0|0:0,0:0:0:0:
244,94,97636,2,0,L|310:110,1,51.999997619629,0|0,3:0|3:0,0:0:0:0:
442,35,97836,5,14,0:0:0:0:
399,95,98036,1,0,3:0:0:0:
480,209,98236,1,0,3:0:0:0:
301,253,98436,5,14,0:0:0:0:
367,296,98636,1,0,3:0:0:0:
329,124,98836,1,0,3:0:0:0:
231,283,99036,2,0,P|177:268|128:258,1,103.999995239258,14|0,0:0|3:0,0:0:0:0:
87,195,99336,1,0,0:0:0:0:
87,195,99436,6,0,P|94:163|105:128,1,51.999997619629,8|0,0:0|0:0,0:0:0:0:
66,169,99636,2,0,P|74:142|84:102,1,51.999997619629,0|0,3:0|0:0,0:0:0:0:
231,283,99836,2,0,P|238:315|249:350,1,51.999997619629,8|0,0:0|0:0,0:0:0:0:
210,309,100036,2,0,P|218:335|228:376,1,51.999997619629,0|0,3:0|0:0,0:0:0:0:
405,134,100236,5,10,0:0:0:0:
255,215,100436,1,2,3:0:0:0:
405,134,100636,1,10,0:0:0:0:
427,111,100736,1,8,0:0:0:0:
427,79,100836,1,10,0:0:0:0:
410,52,100936,1,8,0:0:0:0:
397,46,101036,6,0,L|275:78,1,88.000002685547,6|2,3:0|0:0,0:0:0:0:
155,99,101436,2,0,P|149:46|180:27,1,88.000002685547,10|2,0:0|3:0,0:0:0:0:
204,24,101736,1,0,3:0:0:0:
204,24,101836,1,2,3:0:0:0:
81,139,102036,1,2,3:0:0:0:
250,239,102236,2,0,P|174:257|133:271,1,88.000002685547,10|2,0:0|3:0,0:0:0:0:
116,216,102536,1,0,0:0:0:0:
116,216,102636,6,0,B|149:268|149:268|107:335|107:335|103:286,1,176.000005371094,2|10,3:0|0:0,0:0:0:0:
103,203,103236,2,0,B|59:160|59:160|130:42,1,176.000005371094,2|0,3:0|3:0,0:0:0:0:
282,99,103836,2,0,L|180:74,1,88.000002685547,8|2,0:0|0:0,0:0:0:0:
181,48,104136,1,0,0:0:0:0:
181,48,104236,5,2,3:0:0:0:
242,5,104436,1,2,3:0:0:0:
388,128,104636,1,10,0:0:0:0:
332,176,104836,2,0,P|307:181|265:193,2,44.0000013427735,2|0|2,3:0|3:0|3:0,0:0:0:0:
356,60,105236,1,2,3:0:0:0:
198,175,105436,1,10,0:0:0:0:
383,282,105636,1,2,0:0:0:0:
383,282,105736,1,0,0:0:0:0:
383,282,105836,6,0,B|484:256|484:256|475:297|483:342,1,176.000005371094,2|10,3:0|0:0,0:0:0:0:
480,327,106436,1,2,3:0:0:0:
398,201,106636,2,0,B|403:167|419:135|419:135|457:120|457:120|473:89|478:48,1,176.000005371094,0|8,3:0|0:0,0:0:0:0:
429,4,107236,1,2,0:0:0:0:
320,88,107436,6,0,L|204:62,1,88.000002685547,6|2,3:0|0:0,0:0:0:0:
120,12,107836,1,10,0:0:0:0:
68,69,108036,1,2,3:0:0:0:
68,69,108136,1,0,3:0:0:0:
68,69,108236,1,2,3:0:0:0:
220,168,108436,1,2,3:0:0:0:
113,300,108636,2,0,P|79:246|101:221,1,88.000002685547,10|2,0:0|3:0,0:0:0:0:
158,213,108936,1,0,0:0:0:0:
158,213,109036,6,0,B|86:241|66:194|62:138|-26:188,1,176.000005371094,2|10,3:0|0:0,0:0:0:0:
180,207,109636,2,0,B|263:192|263:192|330:182|340:264,1,176.000005371094,2|0,3:0|3:0,0:0:0:0:
424,369,110236,2,0,P|386:345|414:284,1,88.000002685547,10|0,0:0|0:0,0:0:0:0:
417,293,110536,1,0,0:0:0:0:
417,293,110636,6,0,L|456:140,1,132.00000402832,2|0,3:0|0:0,0:0:0:0:
480,145,111036,1,10,0:0:0:0:
435,8,111236,1,2,3:0:0:0:
435,8,111336,1,0,3:0:0:0:
435,8,111436,1,0,3:0:0:0:
495,46,111636,1,2,3:0:0:0:
360,110,111836,2,0,B|337:150|337:150|375:198,1,88.000002685547,8|2,0:0|0:0,0:0:0:0:
386,215,112136,1,0,0:0:0:0:
386,215,112236,5,0,3:0:0:0:
336,271,112436,1,0,3:0:0:0:
179,193,112636,1,8,0:0:0:0:
239,355,112836,1,2,3:0:0:0:
239,355,112936,1,0,3:0:0:0:
239,355,113036,1,2,3:0:0:0:
259,281,113236,1,2,3:0:0:0:
92,213,113436,2,0,L|74:120,1,88.000002685547,8|2,0:0|0:0,0:0:0:0:
107,104,113736,1,0,0:0:0:0:
107,104,113836,6,0,B|145:70|145:70|93:-1,1,132.00000402832,6|0,3:0|0:0,0:0:0:0:
61,11,114236,1,10,0:0:0:0:
198,122,114436,1,2,3:0:0:0:
198,122,114536,1,0,3:0:0:0:
198,122,114636,1,2,3:0:0:0:
270,148,114836,1,2,3:0:0:0:
369,35,115036,2,0,P|417:62|407:108,1,88.000002685547,10|2,0:0|3:0,0:0:0:0:
366,147,115336,1,0,0:0:0:0:
366,147,115436,6,0,B|412:134|461:117|461:117|492:165|492:165|461:174|436:188,1,176.000005371094,2|10,3:0|0:0,0:0:0:0:
353,146,116036,2,0,P|268:126|174:112,1,176.000005371094,2|0,3:0|3:0,0:0:0:0:
115,32,116636,2,0,P|162:41|209:47,1,88.000002685547,8|2,0:0|0:0,0:0:0:0:
228,22,116936,1,0,0:0:0:0:
228,22,117036,5,2,3:0:0:0:
92,137,117236,1,2,3:0:0:0:
206,234,117436,2,0,P|216:286|177:317,1,88.000002685547,10|2,0:0|3:0,0:0:0:0:
167,322,117736,1,0,3:0:0:0:
167,322,117836,2,0,P|138:313|99:304,1,44.0000013427735,2|0,3:0|0:0,0:0:0:0:
309,259,118036,2,0,P|338:250|377:241,1,44.0000013427735,2|0,3:0|0:0,0:0:0:0:
152,182,118236,1,10,0:0:0:0:
269,366,118436,1,2,0:0:0:0:
269,366,118536,1,0,0:0:0:0:
269,366,118636,6,0,B|329:351|374:336|374:336|387:366|419:389,1,176.000005371094,2|10,3:0|0:0,0:0:0:0:
416,384,119236,1,2,3:0:0:0:
506,290,119436,2,0,B|500:266|481:260|481:260|386:239|386:239|355:228|358:195,1,176.000005371094,0|8,3:0|0:0,0:0:0:0:
328,154,120036,1,2,0:0:0:0:
466,112,120236,6,0,P|483:63|435:28,1,88.000002685547,6|2,3:0|0:0,0:0:0:0:
404,6,120636,1,8,0:0:0:0:
328,154,120836,2,0,L|347:211,2,44.0000013427735,2|0|2,3:0|3:0|3:0,0:0:0:0:
278,101,121236,1,2,3:0:0:0:
187,181,121436,2,0,P|129:189|77:204,1,88.000002685547,10|2,0:0|3:0,0:0:0:0:
62,253,121736,1,0,0:0:0:0:
62,253,121836,6,0,P|86:203|-15:166,1,176.000005371094,2|10,3:0|0:0,0:0:0:0:
48,267,122436,2,0,P|33:345|110:365,1,176.000005371094,2|0,3:0|3:0,0:0:0:0:
195,214,123036,2,0,P|242:235|233:287,1,88.000002685547,10|0,0:0|0:0,0:0:0:0:
183,315,123336,1,0,0:0:0:0:
183,315,123436,6,0,P|256:295|320:284,1,132.00000402832,2|0,3:0|0:0,0:0:0:0:
330,253,123836,1,10,0:0:0:0:
474,358,124036,1,2,3:0:0:0:
474,358,124136,1,0,3:0:0:0:
474,358,124236,1,0,3:0:0:0:
429,298,124436,1,2,3:0:0:0:
496,201,124636,2,0,P|509:168|458:127,1,88.000002685547,8|2,0:0|0:0,0:0:0:0:
447,109,124936,1,0,0:0:0:0:
447,109,125036,6,0,L|370:127,1,47.9999985351563,4|0,3:0|0:0,0:0:0:0:
333,51,125236,2,0,B|311:5|311:5|436:35,1,143.999995605469,10|0,0:0|0:0,0:0:0:0:
401,26,125636,1,2,3:0:0:0:
341,119,125836,1,10,0:0:0:0:
300,177,126036,1,8,0:0:0:0:
421,229,126236,1,0,3:0:0:0:
462,287,126436,1,0,3:0:0:0:
355,384,126636,6,0,P|316:373|253:356,1,80,6|2,3:0|0:0,0:0:0:0:
303,276,127036,2,0,P|341:286|380:297,1,80,2|2,3:0|0:0,0:0:0:0:
194,323,127436,1,8,0:0:0:0:
160,260,127636,1,2,0:0:0:0:
200,199,127836,1,0,3:0:0:0:
160,260,128036,1,0,0:0:0:0:
34,211,128236,6,0,P|3:235|8:289,2,80,2|2|2,3:0|0:0|3:0,0:0:0:0:
90,157,128836,1,2,0:0:0:0:
18,87,129036,1,8,0:0:0:0:
78,52,129236,1,2,0:0:0:0:
168,110,129436,2,0,L|254:91,1,80,10|0,0:0|3:0,0:0:0:0:
284,75,129736,1,8,0:0:0:0:
284,75,129836,6,0,B|310:113|310:113|287:161,1,80,6|0,3:0|0:0,0:0:0:0:
373,244,130236,2,0,B|343:217|343:217|378:140,1,120,2|0,3:0|0:0,0:0:0:0:
375,144,130636,2,0,B|455:120|455:120|513:134|504:182,1,160,10|2,0:0|3:0,0:0:0:0:
505,169,131236,1,8,0:0:0:0:
373,244,131436,2,0,B|352:295|392:323|451:319|411:414,2,160,0|2|8,3:0|3:0|0:0,0:0:0:0:
439,217,132436,1,0,0:0:0:0:
494,263,132636,1,8,0:0:0:0:
316,345,132836,1,0,3:0:0:0:
316,345,132936,1,8,0:0:0:0:
316,345,133036,6,0,P|288:299|302:269,1,80,6|2,3:0|0:0,0:0:0:0:
220,247,133436,2,0,P|245:199|278:196,1,80,2|2,3:0|0:0,0:0:0:0:
393,61,133836,1,8,0:0:0:0:
450,109,134036,1,2,0:0:0:0:
395,161,134236,2,0,P|346:145|298:133,1,80,0|8,3:0|0:0,0:0:0:0:
300,106,134536,1,0,0:0:0:0:
300,106,134636,6,0,P|261:96|222:126,1,80,2|2,3:0|0:0,0:0:0:0:
119,177,135036,2,0,P|158:167|197:197,1,80,2|2,3:0|0:0,0:0:0:0:
256,296,135436,1,8,0:0:0:0:
284,229,135636,1,2,0:0:0:0:
184,317,135836,1,10,0:0:0:0:
327,368,136036,1,0,3:0:0:0:
327,368,136136,1,8,0:0:0:0:
327,368,136236,6,0,P|393:351|460:342,1,120,6|0,3:0|0:0,0:0:0:0:
444,343,136636,2,0,P|414:295|429:269,1,80,2|0,3:0|0:0,0:0:0:0:
438,144,137036,1,10,0:0:0:0:
493,194,137236,1,0,0:0:0:0:
362,233,137436,2,0,L|273:213,1,80,2|8,3:0|0:0,0:0:0:0:
266,183,137736,1,0,0:0:0:0:
266,183,137836,6,0,B|206:203|206:203|187:236|187:236|158:240|126:257,2,160,2|2|10,3:0|3:0|0:0,0:0:0:0:
266,183,138836,1,0,0:0:0:0:
126,115,139036,1,8,0:0:0:0:
104,86,139136,1,8,0:0:0:0:
107,50,139236,1,8,0:0:0:0:
132,24,139336,1,8,0:0:0:0:
149,19,139436,6,0,P|176:27|213:40,1,44.0000013427735,6|0,3:0|0:0,0:0:0:0:
238,83,139636,2,0,P|265:91|302:104,1,44.0000013427735,8|0,0:0|0:0,0:0:0:0:
168,206,139836,2,0,P|83:221|26:236,1,132.00000402832,8|0,0:0|0:0,0:0:0:0:
38,232,140236,2,0,P|93:257|77:323,2,132.00000402832,8|8|8,0:0|0:0|0:0,0:0:0:0:
15,199,140936,1,8,0:0:0:0:
15,199,141036,1,2,3:0:0:0:
146,114,141236,1,8,0:0:0:0:
176,182,141436,6,0,B|193:214|193:214|300:180,1,132.00000402832,8|0,0:0|0:0,0:0:0:0:
310,160,141836,2,0,L|407:181,1,88.000002685547,8|0,0:0|0:0,0:0:0:0:
425,207,142136,1,8,0:0:0:0:
425,207,142236,1,2,3:0:0:0:
376,259,142436,1,8,0:0:0:0:
464,346,142636,5,6,3:0:0:0:
376,259,142836,1,8,0:0:0:0:
376,259,142936,1,0,0:0:0:0:
376,259,143036,2,0,P|304:263|286:320,1,120,10|0,0:0|0:0,0:0:0:0:
284,299,143436,2,0,P|169:277|160:276,2,120,10|8|8,0:0|0:0|0:0,0:0:0:0:
312,336,144136,1,0,0:0:0:0:
312,336,144236,5,10,0:0:0:0:
199,210,144436,2,0,P|194:183|186:148,2,40,0|8|2,0:0|0:0|3:0,0:0:0:0:
167,276,144836,1,8,0:0:0:0:
269,168,145036,2,0,P|280:124|245:87,1,80,2|8,3:0|0:0,0:0:0:0:
238,64,145336,1,0,0:0:0:0:
238,64,145436,2,0,L|222:9,1,40,10|0,0:0|0:0,0:0:0:0:
159,165,145636,2,0,L|170:203,1,40,8|0,0:0|0:0,0:0:0:0:
334,25,145836,6,0,B|421:40|421:40|416:75|432:113,1,143.999995605469,6|0,3:0|0:0,0:0:0:0:
452,129,146236,1,10,0:0:0:0:
507,20,146436,1,2,3:0:0:0:
358,145,146636,2,0,B|331:191|331:191|376:249,1,95.9999970703126,10|2,0:0|3:0,0:0:0:0:
483,311,147036,2,0,B|510:265|510:265|465:207,1,95.9999970703126,10|2,0:0|3:0,0:0:0:0:
456,197,147336,1,0,3:0:0:0:
456,197,147436,5,10,0:0:0:0:
295,290,147636,1,2,0:0:0:0:
358,145,147836,1,10,0:0:0:0:
420,349,148036,1,2,3:0:0:0:
420,349,148136,1,0,0:0:0:0:
420,349,148236,1,8,0:0:0:0:
483,311,148436,1,0,3:0:0:0:
286,214,148636,2,0,L|169:238,1,95.9999970703126,8|2,0:0|3:0,0:0:0:0:
164,199,148936,1,0,3:0:0:0:
164,199,149036,5,2,3:0:0:0:
306,28,149236,1,2,3:0:0:0:
330,95,149436,1,2,3:0:0:0:
357,161,149636,1,2,3:0:0:0:
240,328,149836,5,10,0:0:0:0:
421,247,150036,1,0,3:0:0:0:
421,247,150136,1,0,3:0:0:0:
421,247,150236,1,2,3:0:0:0:
460,185,150436,1,2,3:0:0:0:
255,85,150636,5,14,0:0:0:0:
455,42,150836,2,0,P|442:71|431:111,1,47.9999985351563,2|2,3:0|3:0,0:0:0:0:
347,245,151036,1,0,3:0:0:0:
179,109,151236,2,0,B|150:106|111:134|111:134|50:118|66:64,1,155.999992858887,10|0,0:0|0:0,0:0:0:0:
93,42,151636,1,8,0:0:0:0:
222,177,151836,1,8,0:0:0:0:
247,216,151936,1,8,0:0:0:0:
243,262,152036,1,8,0:0:0:0:
206,291,152136,1,8,0:0:0:0:
187,294,152236,6,0,P|129:280|72:268,1,111.999996582031,6|2,3:0|0:0,0:0:0:0:
248,354,152636,2,0,P|319:335|372:325,1,111.999996582031,10|2,0:0|3:0,0:0:0:0:
379,300,152936,1,0,3:0:0:0:
379,300,153036,2,0,L|443:320,1,55.9999982910157,2|0,3:0|0:0,0:0:0:0:
314,198,153236,2,0,L|260:181,1,55.9999982910157,2|0,3:0|0:0,0:0:0:0:
404,384,153436,1,10,0:0:0:0:
512,234,153636,1,2,0:0:0:0:
512,234,153736,1,0,0:0:0:0:
512,234,153836,5,2,3:0:0:0:
464,161,154036,1,2,3:0:0:0:
260,181,154236,1,10,0:0:0:0:
420,42,154436,1,2,3:0:0:0:
420,42,154536,1,0,3:0:0:0:
420,42,154636,1,0,3:0:0:0:
378,112,154836,1,0,3:0:0:0:
219,101,155036,2,0,P|217:160|261:180,1,111.999996582031,8|2,0:0|3:0,0:0:0:0:
324,214,155336,1,0,0:0:0:0:
324,214,155436,6,0,P|231:235|199:245,1,111.999996582031,2|2,3:0|0:0,0:0:0:0:
110,126,155836,2,0,P|164:115|218:100,1,111.999996582031,10|2,0:0|3:0,0:0:0:0:
276,47,156136,1,0,3:0:0:0:
276,47,156236,2,0,B|219:27|219:27|248:152,1,167.999994873047,2|0,3:0|0:0,0:0:0:0:
274,155,156636,1,10,0:0:0:0:
112,252,156836,6,0,P|82:240|52:232,2,55.9999982910157,2|0|2,0:0|0:0|3:0,0:0:0:0:
159,308,157236,1,2,3:0:0:0:
266,234,157436,1,10,0:0:0:0:
133,149,157636,1,2,3:0:0:0:
133,149,157736,1,0,3:0:0:0:
133,149,157836,1,0,3:0:0:0:
93,91,158036,1,0,3:0:0:0:
244,0,158236,2,0,B|294:33|294:33|270:93,1,111.999996582031,8|2,0:0|3:0,0:0:0:0:
217,152,158536,1,0,0:0:0:0:
217,152,158636,6,0,B|273:166|295:122|283:64|383:91,1,167.999994873047,6|0,3:0|0:0,0:0:0:0:
377,58,159036,1,10,0:0:0:0:
480,195,159236,1,0,3:0:0:0:
480,195,159336,1,0,3:0:0:0:
480,195,159436,1,2,3:0:0:0:
364,319,159636,5,0,3:0:0:0:
324,252,159836,1,10,0:0:0:0:
481,324,160036,1,2,0:0:0:0:
324,252,160236,2,0,P|265:259|204:272,1,111.999996582031,2|2,3:0|3:0,0:0:0:0:
374,141,160636,2,0,P|432:152|492:163,1,111.999996582031,10|2,0:0|3:0,0:0:0:0:
495,189,160936,1,0,3:0:0:0:
495,189,161036,1,2,3:0:0:0:
405,68,161236,1,2,3:0:0:0:
279,155,161436,1,10,0:0:0:0:
405,68,161636,2,0,P|393:36|385:4,1,55.9999982910157,2|0,3:0|0:0,0:0:0:0:
220,202,161836,5,0,3:0:0:0:
354,333,162036,1,2,0:0:0:0:
220,202,162236,2,0,P|153:191|120:248,1,111.999996582031,8|2,0:0|3:0,0:0:0:0:
113,251,162536,1,0,3:0:0:0:
113,251,162636,1,2,3:0:0:0:
223,129,162836,1,2,3:0:0:0:
0,60,163036,2,0,P|60:48|115:35,1,111.999996582031,10|2,0:0|3:0,0:0:0:0:
186,31,163336,1,0,3:0:0:0:
186,31,163436,6,0,P|172:69|154:111,1,60.0000022888184,4|0,3:0|0:0,0:0:0:0:
27,250,163636,2,0,P|37:276|51:309,1,60.0000022888184,0|0,3:0|0:0,0:0:0:0:
229,225,163836,1,8,0:0:0:0:
5,145,164036,1,8,0:0:0:0:
5,145,164136,1,8,0:0:0:0:
5,145,164236,5,4,3:0:0:0:
123,356,164436,1,0,3:0:0:0:
235,94,164636,1,8,0:0:0:0:
278,68,164736,1,8,0:0:0:0:
326,80,164836,1,10,0:0:0:0:
346,125,164936,1,8,0:0:0:0:
339,149,165036,6,0,P|341:225|372:235,1,111.999996582031,6|2,3:0|0:0,0:0:0:0:
512,121,165436,2,0,P|437:136|433:168,1,111.999996582031,10|2,0:0|3:0,0:0:0:0:
451,195,165736,1,0,3:0:0:0:
451,195,165836,1,2,3:0:0:0:
506,246,166036,1,2,3:0:0:0:
390,362,166236,2,0,L|254:331,1,111.999996582031,10|2,0:0|0:0,0:0:0:0:
252,315,166536,1,0,0:0:0:0:
252,315,166636,6,0,B|207:352|207:352|190:338|155:324,2,111.999996582031,2|2|10,3:0|3:0|0:0,0:0:0:0:
60,279,167236,1,2,3:0:0:0:
60,279,167336,1,0,3:0:0:0:
60,279,167436,1,0,3:0:0:0:
113,231,167636,1,0,3:0:0:0:
29,155,167836,2,0,L|0:46,1,111.999996582031,8|2,0:0|3:0,0:0:0:0:
27,21,168136,1,0,0:0:0:0:
27,21,168236,5,2,3:0:0:0:
158,110,168436,1,2,0:0:0:0:
105,159,168636,1,10,0:0:0:0:
161,281,168836,1,2,3:0:0:0:
161,281,168936,1,0,3:0:0:0:
161,281,169036,1,2,3:0:0:0:
20,213,169236,1,2,3:0:0:0:
161,281,169436,2,0,P|235:297|244:334,1,111.999996582031,10|2,0:0|0:0,0:0:0:0:
238,362,169736,1,0,0:0:0:0:
238,362,169836,5,2,3:0:0:0:
173,192,170036,1,2,3:0:0:0:
366,295,170236,1,10,0:0:0:0:
173,192,170436,2,0,P|144:200|111:210,2,55.9999982910157,2|0|2,3:0|3:0|3:0,0:0:0:0:
214,130,170836,1,0,3:0:0:0:
354,68,171036,2,0,L|472:95,1,111.999996582031,8|2,0:0|3:0,0:0:0:0:
477,130,171336,1,0,0:0:0:0:
477,130,171436,6,0,B|460:143|460:143|490:224,2,103.999995239258,6|2|2,3:0|0:0|0:0,0:0:0:0:
475,57,172036,1,2,3:0:0:0:
358,163,172236,1,10,0:0:0:0:
302,121,172436,1,2,0:0:0:0:
257,38,172636,1,2,0:0:0:0:
166,112,172836,1,10,0:0:0:0:
332,48,173036,5,2,3:0:0:0:
300,216,173236,1,2,3:0:0:0:
166,112,173436,1,10,0:0:0:0:
166,112,173536,2,0,P|113:154|123:187,1,103.999995239258,8|0,0:0|0:0,0:0:0:0:
175,230,173836,1,8,0:0:0:0:
175,230,173936,1,8,0:0:0:0:
175,230,174036,2,0,P|200:235|227:243,1,51.999997619629,0|0,3:0|0:0,0:0:0:0:
64,137,174236,2,0,P|39:129|8:122,1,51.999997619629,8|0,0:0|0:0,0:0:0:0:
221,61,174436,2,0,P|246:55|271:48,1,51.999997619629,0|0,3:0|3:0,0:0:0:0:
96,372,174636,6,0,B|120:363|122:331|122:331|89:254|89:254|87:225|112:212,1,176.000005371094,6|2,3:0|0:0,0:0:0:0:
103,217,175236,1,2,3:0:0:0:
209,320,175436,2,0,P|271:325|288:294,1,88.000002685547,10|2,0:0|3:0,0:0:0:0:
375,324,175836,2,0,P|298:296|323:232,1,132.00000402832,2|0,3:0|0:0,0:0:0:0:
299,258,176236,6,0,B|353:214|353:214|326:171|306:108,1,176.000005371094,2|2,3:0|3:0,0:0:0:0:
425,36,176836,2,0,B|371:80|371:80|398:123|418:186,1,176.000005371094,2|0,3:0|0:0,0:0:0:0:
508,305,177436,2,0,L|409:283,1,88.000002685547,10|0,0:0|0:0,0:0:0:0:
382,287,177736,1,0,0:0:0:0:
382,287,177836,6,0,P|349:342|371:368,1,88.000002685547,2|2,3:0|0:0,0:0:0:0:
499,195,178236,1,2,0:0:0:0:
467,132,178436,1,2,3:0:0:0:
382,287,178636,1,10,0:0:0:0:
441,247,178836,1,2,3:0:0:0:
392,122,179036,1,2,3:0:0:0:
479,319,179236,1,10,0:0:0:0:
479,319,179336,1,0,3:0:0:0:
479,319,179436,5,2,3:0:0:0:
304,237,179636,1,10,0:0:0:0:
372,215,179836,1,2,3:0:0:0:
269,384,180036,1,2,3:0:0:0:
269,384,180136,1,0,0:0:0:0:
269,384,180236,2,0,P|210:371|131:357,1,132.00000402832,8|0,0:0|0:0,0:0:0:0:
139,358,180636,2,0,P|139:313|101:289,1,88.000002685547,8|0,0:0|0:0,0:0:0:0:
69,279,180936,1,0,0:0:0:0:
69,279,181036,5,14,0:0:0:0:
110,220,181236,1,0,3:0:0:0:
291,153,181436,1,10,0:0:0:0:
266,88,181636,1,0,3:0:0:0:
185,253,181836,5,10,0:0:0:0:
88,130,182036,1,0,3:0:0:0:
88,130,182136,1,0,3:0:0:0:
88,130,182236,1,10,0:0:0:0:
305,14,182436,1,2,3:0:0:0:
305,14,182536,1,0,0:0:0:0:
305,14,182636,6,0,B|350:8|389:0|389:0|413:43|413:43|376:52,1,155.999992858887,10|0,0:0|0:0,0:0:0:0:
381,74,183036,2,0,B|353:112|353:112|390:180,1,103.999995239258,10|0,0:0|3:0,0:0:0:0:
380,161,183336,1,0,0:0:0:0:
380,161,183436,5,10,0:0:0:0:
447,127,183636,1,0,3:0:0:0:
263,227,183836,1,10,0:0:0:0:
425,371,184036,1,0,3:0:0:0:
425,371,184136,1,0,0:0:0:0:
425,371,184236,6,0,B|416:307|468:304|513:302|496:200,1,155.999992858887,14|0,0:0|0:0,0:0:0:0:
485,216,184636,1,8,0:0:0:0:
333,289,184836,1,0,3:0:0:0:
502,375,185036,5,8,0:0:0:0:
333,289,185236,2,0,P|295:295|249:309,2,51.999997619629,0|0|8,3:0|3:0|0:0,0:0:0:0:
367,225,185636,1,2,3:0:0:0:
160,95,185836,6,0,P|109:145|120:171,1,103.999995239258,10|2,0:0|3:0,0:0:0:0:
233,220,186236,2,0,P|284:270|275:299,1,103.999995239258,10|2,0:0|3:0,0:0:0:0:
248,327,186536,1,0,3:0:0:0:
248,327,186636,1,10,0:0:0:0:
367,225,186836,1,2,3:0:0:0:
158,143,187036,5,10,0:0:0:0:
134,111,187136,1,8,0:0:0:0:
133,71,187236,1,10,0:0:0:0:
151,36,187336,1,8,0:0:0:0:
170,24,187436,6,0,P|220:42|294:58,1,111.999996582031,6|2,3:0|0:0,0:0:0:0:
308,77,187736,1,2,0:0:0:0:
308,77,187836,1,10,0:0:0:0:
380,28,188036,1,2,3:0:0:0:
475,196,188236,2,0,B|437:196|392:224|392:224|328:198|364:121,1,167.999994873047,2|0,3:0|0:0,0:0:0:0:
378,139,188636,1,10,0:0:0:0:
498,294,188836,1,2,3:0:0:0:
498,294,188936,1,0,0:0:0:0:
498,294,189036,5,0,3:0:0:0:
453,349,189236,1,2,3:0:0:0:
386,330,189436,1,8,0:0:0:0:
460,229,189636,2,0,P|471:199|486:163,2,55.9999982910157,2|0|0,3:0|0:0|3:0,0:0:0:0:
498,294,190036,1,2,3:0:0:0:
354,186,190236,2,0,P|284:180|272:246,1,111.999996582031,8|2,0:0|3:0,0:0:0:0:
298,275,190536,1,0,0:0:0:0:
298,275,190636,6,0,B|281:234|281:234|205:217|205:217|173:262,1,167.999994873047,2|0,3:0|0:0,0:0:0:0:
162,287,191036,2,0,B|112:313|112:313|67:262,1,111.999996582031,8|0,0:0|3:0,0:0:0:0:
75,271,191336,1,0,0:0:0:0:
75,271,191436,1,2,3:0:0:0:
124,210,191636,1,0,3:0:0:0:
50,84,191836,2,0,P|71:22|125:29,1,111.999996582031,10|0,0:0|3:0,0:0:0:0:
140,137,192136,1,0,0:0:0:0:
140,137,192236,6,0,P|69:118|19:109,1,111.999996582031,6|0,3:0|3:0,0:0:0:0:
191,47,192636,2,0,P|262:66|312:75,1,111.999996582031,10|0,0:0|3:0,0:0:0:0:
321,48,192936,1,0,0:0:0:0:
321,48,193036,1,4,3:0:0:0:
203,169,193236,1,0,3:0:0:0:
386,219,193436,2,0,B|353:226|322:241|322:241|304:280|304:280|277:283|235:304,1,167.999994873047,8|0,0:0|0:0,0:0:0:0:
189,260,193836,5,6,3:0:0:0:
189,260,193936,1,2,0:0:0:0:
189,260,194036,1,2,3:0:0:0:
342,377,194236,2,0,P|362:314|367:301,1,55.9999982910157,10|0,0:0|0:0,0:0:0:0:
480,258,194436,5,2,3:0:0:0:
480,258,194536,1,2,0:0:0:0:
480,258,194636,1,2,3:0:0:0:
288,320,194836,2,0,P|268:257|263:244,1,55.9999982910157,2|0,3:0|0:0,0:0:0:0:
133,210,195036,5,10,0:0:0:0:
133,210,195136,1,2,0:0:0:0:
133,210,195236,1,2,3:0:0:0:
94,145,195436,1,2,3:0:0:0:
330,96,195636,5,2,3:0:0:0:
330,96,195736,1,2,0:0:0:0:
330,96,195836,1,10,0:0:0:0:
381,34,196036,1,2,3:0:0:0:
211,104,196236,5,2,3:0:0:0:
211,104,196336,1,2,0:0:0:0:
211,104,196436,1,2,3:0:0:0:
440,161,196636,1,10,0:0:0:0:
211,104,196836,2,0,L|116:134,1,55.9999982910157,2|0,3:0|0:0,0:0:0:0:
376,232,197036,5,14,0:0:0:0:
242,316,197236,1,0,3:0:0:0:
373,156,197436,1,8,0:0:0:0:
507,242,197636,1,2,3:0:0:0:
333,66,197836,5,10,0:0:0:0:
311,273,198036,1,0,3:0:0:0:
311,273,198136,1,2,0:0:0:0:
311,273,198236,1,8,0:0:0:0:
501,168,198436,1,2,3:0:0:0:
249,37,198636,6,0,P|217:46|154:62,2,74.6666643880209,6|2|2,3:0|0:0|0:0,0:0:0:0:
318,91,199036,2,0,P|327:54|337:18,2,74.6666643880209,2|0|0,3:0|0:0|0:0,0:0:0:0:
243,123,199436,2,0,P|269:149|295:175,2,74.6666643880209,0|0|0,3:0|0:0|0:0,0:0:0:0:
171,170,199836,5,8,0:0:0:0:
143,164,199936,1,8,0:0:0:0:
115,159,200036,1,8,0:0:0:0:
87,153,200136,1,8,0:0:0:0:
59,147,200236,5,4,3:0:0:0:
67,126,200636,1,0,3:0:0:0:
74,102,201036,1,0,3:0:0:0:
82,81,201436,1,0,3:0:0:0:
243,123,201836,5,0,3:0:0:0:
251,144,202236,1,0,3:0:0:0:
258,168,202636,1,0,3:0:0:0:
266,189,203036,2,0,P|334:175|412:161,1,120,8|0,0:0|0:0,0:0:0:0:
383,165,203436,6,0,P|390:108|365:89,1,80,2|0,3:0|0:0,0:0:0:0:
454,57,203836,2,0,P|407:22|378:34,1,80,2|0,3:0|0:0,0:0:0:0:
468,126,204236,2,0,B|509:209|509:209|501:268|448:265,1,160,2|2,3:0|3:0,0:0:0:0:
475,263,204836,1,0,0:0:0:0:
351,324,205036,6,0,B|416:295|433:337|441:386|506:358,2,160,0|2|0,3:0|3:0|3:0,0:0:0:0:
351,324,206236,1,0,3:0:0:0:
351,324,206436,1,0,0:0:0:0:
163,346,206636,6,0,P|178:283|187:246,1,80,4|0,3:0|0:0,0:0:0:0:
255,268,207036,2,0,P|270:205|279:168,1,80,0|0,3:0|0:0,0:0:0:0:
163,190,207436,2,0,P|178:253|187:290,2,80,0|0|0,3:0|0:0|3:0,0:0:0:0:
163,190,208036,1,0,0:0:0:0:
307,110,208236,6,0,P|294:63|256:57,1,80,0|0,3:0|0:0,0:0:0:0:
212,13,208636,2,0,P|163:9|144:42,1,80,0|0,3:0|0:0,0:0:0:0:
87,91,209036,1,0,3:0:0:0:
50,29,209236,1,0,0:0:0:0:
87,91,209436,2,0,P|107:147|48:188,1,120,10|0,0:0|0:0,0:0:0:0:
69,186,209836,6,0,L|99:289,1,80,2|0,3:0|0:0,0:0:0:0:
204,315,210236,2,0,L|174:212,1,80,2|0,3:0|0:0,0:0:0:0:
16,301,210636,2,0,B|35:363|35:363|133:338,1,160,10|2,0:0|3:0,0:0:0:0:
127,339,211236,1,0,0:0:0:0:
290,233,211436,6,0,B|313:266|313:266|289:320,1,80,2|0,3:0|0:0,0:0:0:0:
181,238,211836,2,0,B|158:205|158:205|182:151,1,80,2|0,3:0|0:0,0:0:0:0:
254,104,212236,2,0,B|284:70|284:70|165:102,1,160,10|0,0:0|3:0,0:0:0:0:
126,48,212836,1,8,0:0:0:0:
324,126,213036,6,0,B|424:97|424:97|445:131|478:144,1,176.000005371094,6|0,3:0|0:0,0:0:0:0:
477,143,213636,1,0,3:0:0:0:
426,193,213836,1,8,0:0:0:0:
504,280,214036,2,0,P|492:344|396:326,1,176.000005371094,0|0,3:0|0:0,0:0:0:0:
289,278,214636,6,0,P|301:231|312:191,1,88.000002685547,2|0,3:0|0:0,0:0:0:0:
339,192,214936,2,0,P|351:145|362:105,1,88.000002685547,0|0,3:0|0:0,0:0:0:0:
347,70,215236,1,0,3:0:0:0:
238,14,215436,2,0,B|190:27|190:27|168:64|168:64|112:81,1,132.00000402832,8|0,0:0|0:0,0:0:0:0:
103,48,215836,2,0,L|-6:26,1,88.000002685547,2|8,3:0|0:0,0:0:0:0:
101,186,216236,6,0,B|148:195|148:195|178:145,1,88.000002685547,6|0,3:0|0:0,0:0:0:0:
247,153,216636,2,0,B|271:111|271:111|234:66,1,88.000002685547,2|0,0:0|3:0,0:0:0:0:
341,0,217036,2,0,B|327:30|311:53|311:53|365:121,1,132.00000402832,10|0,0:0|0:0,0:0:0:0:
376,129,217436,1,2,0:0:0:0:
325,180,217636,1,0,0:0:0:0:
422,308,217836,6,0,P|465:270|444:224,1,88.000002685547,2|0,3:0|0:0,0:0:0:0:
441,215,218136,1,0,3:0:0:0:
441,215,218236,1,2,0:0:0:0:
351,309,218436,1,0,3:0:0:0:
256,240,218636,2,0,P|199:250|89:273,1,132.00000402832,10|0,0:0|0:0,0:0:0:0:
51,311,219036,5,10,0:0:0:0:
84,279,219136,1,8,0:0:0:0:
86,234,219236,1,8,0:0:0:0:
60,199,219336,1,8,0:0:0:0:
42,191,219436,6,0,B|9:186|6:152|6:152|58:60,1,143.999995605469,4|0,3:0|0:0,0:0:0:0:
34,47,219836,1,10,0:0:0:0:
149,136,220036,1,2,3:0:0:0:
276,32,220236,2,0,P|341:53|343:100,1,95.9999970703126,10|2,0:0|3:0,0:0:0:0:
429,228,220636,2,0,P|494:207|496:160,1,95.9999970703126,10|0,0:0|3:0,0:0:0:0:
486,150,220936,1,0,3:0:0:0:
486,150,221036,5,10,0:0:0:0:
303,267,221236,1,2,0:0:0:0:
341,135,221436,1,10,0:0:0:0:
450,331,221636,2,0,P|438:359|431:393,2,47.9999985351563,2|0|8,3:0|0:0|0:0,0:0:0:0:
507,284,222036,1,0,3:0:0:0:
308,351,222236,2,0,P|209:330|187:326,1,95.9999970703126,8|2,0:0|3:0,0:0:0:0:
196,303,222536,1,0,3:0:0:0:
196,303,222636,5,6,3:0:0:0:
56,159,222836,1,2,3:0:0:0:
17,224,223036,1,2,3:0:0:0:
126,333,223236,1,2,3:0:0:0:
231,81,223436,5,10,0:0:0:0:
358,243,223636,1,2,3:0:0:0:
405,187,223836,1,2,3:0:0:0:
307,62,224036,1,2,3:0:0:0:
495,172,224236,5,14,0:0:0:0:
299,292,224436,1,2,3:0:0:0:
495,172,224636,1,2,3:0:0:0:
215,107,224836,2,0,B|125:90|125:90|135:56|116:21,1,143.999995605469,10|0,0:0|0:0,0:0:0:0:
148,9,225236,1,8,0:0:0:0:
3,188,225436,1,8,0:0:0:0:
3,188,225836,6,0,P|46:176|91:165,1,80,12|0,0:0|3:0,0:0:0:0:
103,136,226136,1,0,3:0:0:0:
103,136,226236,1,0,3:0:0:0:
148,9,226436,6,0,P|191:21|236:32,1,80,8|0,0:0|3:0,0:0:0:0:
248,61,226736,1,0,3:0:0:0:
248,61,226836,2,0,P|277:54|321:42,1,40,0|0,3:0|0:0,0:0:0:0:
434,17,227036,1,8,0:0:0:0:
473,42,227136,1,8,0:0:0:0:
489,85,227236,1,8,0:0:0:0:
470,126,227336,1,8,0:0:0:0:
451,140,227436,6,0,P|386:123|336:112,1,111.999996582031,4|2,3:0|0:0,0:0:0:0:
400,229,227836,2,0,P|454:241|508:255,1,111.999996582031,10|2,0:0|3:0,0:0:0:0:
512,294,228136,1,0,3:0:0:0:
512,294,228236,1,2,3:0:0:0:
485,360,228436,1,2,3:0:0:0:
357,293,228636,2,0,P|296:303|282:352,1,111.999996582031,10|2,0:0|0:0,0:0:0:0:
313,373,228936,1,0,0:0:0:0:
313,373,229036,5,2,3:0:0:0:
199,289,229236,1,2,3:0:0:0:
176,221,229436,1,10,0:0:0:0:
63,337,229636,1,2,3:0:0:0:
63,337,229736,1,0,3:0:0:0:
63,337,229836,5,0,3:0:0:0:
176,221,230036,1,0,3:0:0:0:
117,99,230236,2,0,B|97:49|97:49|149:10,1,111.999996582031,8|2,0:0|3:0,0:0:0:0:
207,45,230536,1,0,0:0:0:0:
207,45,230636,6,0,P|271:41|280:2,1,111.999996582031,2|2,3:0|0:0,0:0:0:0:
81,196,231036,2,0,P|17:192|8:153,1,111.999996582031,10|2,0:0|3:0,0:0:0:0:
24,116,231336,1,0,3:0:0:0:
24,116,231436,2,0,L|5:49,1,55.9999982910157,2|0,3:0|0:0,0:0:0:0:
175,235,231636,2,0,L|156:302,1,55.9999982910157,2|0,3:0|0:0,0:0:0:0:
0,266,231836,1,10,0:0:0:0:
183,142,232036,1,2,0:0:0:0:
183,142,232136,1,0,0:0:0:0:
183,142,232236,5,2,3:0:0:0:
122,105,232436,1,2,3:0:0:0:
209,290,232636,1,10,0:0:0:0:
349,200,232836,2,0,P|377:209|415:225,2,55.9999982910157,2|0|0,3:0|3:0|3:0,0:0:0:0:
298,148,233236,1,0,3:0:0:0:
365,345,233436,2,0,P|421:355|443:287,1,111.999996582031,8|2,0:0|3:0,0:0:0:0:
512,270,233736,1,0,0:0:0:0:
512,270,233836,6,0,B|505:292|473:294|473:294|395:263|395:263|366:261|354:286,1,167.999994873047,6|0,3:0|0:0,0:0:0:0:
296,259,234236,2,0,L|267:134,1,111.999996582031,10|0,0:0|3:0,0:0:0:0:
289,122,234536,1,0,3:0:0:0:
289,122,234636,1,2,3:0:0:0:
384,29,234836,1,2,3:0:0:0:
289,122,235036,2,0,P|219:91|225:46,1,111.999996582031,10|0,0:0|0:0,0:0:0:0:
195,0,235336,1,0,0:0:0:0:
195,0,235436,6,0,P|142:15|49:33,1,111.999996582031,2|0,3:0|3:0,0:0:0:0:
289,122,235836,2,0,P|342:107|435:89,1,111.999996582031,10|0,0:0|3:0,0:0:0:0:
426,63,236136,1,0,3:0:0:0:
426,63,236236,1,2,3:0:0:0:
295,212,236436,1,2,3:0:0:0:
426,63,236636,1,10,0:0:0:0:
209,17,236836,2,0,P|181:28|146:36,1,55.9999982910157,2|0,3:0|0:0,0:0:0:0:
16,163,237036,5,0,3:0:0:0:
73,214,237236,1,2,0:0:0:0:
195,156,237436,1,10,0:0:0:0:
29,278,237636,1,2,3:0:0:0:
29,278,237736,1,0,3:0:0:0:
29,278,237836,1,2,3:0:0:0:
89,128,238036,1,2,3:0:0:0:
29,278,238236,2,0,P|19:339|55:363,1,111.999996582031,10|2,0:0|3:0,0:0:0:0:
116,326,238536,1,0,3:0:0:0:
116,326,238636,6,0,P|149:335|188:352,1,60.0000022888184,4|0,3:0|0:0,0:0:0:0:
275,187,238836,2,0,P|248:179|212:165,1,60.0000022888184,0|0,3:0|0:0,0:0:0:0:
345,384,239036,1,8,0:0:0:0:
173,249,239236,1,8,0:0:0:0:
173,249,239336,1,8,0:0:0:0:
173,249,239436,5,4,3:0:0:0:
308,77,239636,1,0,3:0:0:0:
480,212,239836,1,8,0:0:0:0:
500,259,239936,1,8,0:0:0:0:
486,299,240036,1,10,0:0:0:0:
446,321,240136,1,8,0:0:0:0:
429,321,240236,6,0,P|362:304|320:296,1,111.999996582031,6|2,3:0|0:0,0:0:0:0:
480,212,240636,2,0,P|512:161|470:121,1,111.999996582031,10|2,0:0|3:0,0:0:0:0:
450,116,240936,1,0,3:0:0:0:
450,116,241036,1,2,3:0:0:0:
396,159,241236,1,2,3:0:0:0:
263,244,241436,2,0,P|196:209|214:165,1,111.999996582031,10|2,0:0|0:0,0:0:0:0:
229,155,241736,1,0,0:0:0:0:
229,155,241836,6,0,P|240:103|252:46,2,111.999996582031,2|2|10,3:0|3:0|0:0,0:0:0:0:
149,299,242436,2,0,P|157:324|170:366,2,55.9999982910157,2|0|0,3:0|3:0|3:0,0:0:0:0:
192,247,242836,1,0,3:0:0:0:
71,106,243036,2,0,B|23:139|23:139|49:202,1,111.999996582031,8|2,0:0|3:0,0:0:0:0:
61,210,243336,1,0,0:0:0:0:
61,210,243436,5,2,3:0:0:0:
190,98,243636,1,2,0:0:0:0:
252,136,243836,1,8,0:0:0:0:
338,234,244036,1,2,3:0:0:0:
338,234,244136,1,0,3:0:0:0:
338,234,244236,1,2,3:0:0:0:
318,97,244436,1,2,3:0:0:0:
196,238,244636,2,0,P|217:315|227:362,1,111.999996582031,10|2,0:0|0:0,0:0:0:0:
295,344,244936,1,0,0:0:0:0:
295,344,245036,6,0,P|326:353|359:364,1,55.9999982910157,2|0,3:0|0:0,0:0:0:0:
129,280,245236,2,0,P|102:288|75:296,1,55.9999982910157,2|0,3:0|0:0,0:0:0:0:
248,151,245436,1,10,0:0:0:0:
190,348,245636,1,2,3:0:0:0:
190,348,245736,1,0,3:0:0:0:
190,348,245836,1,2,3:0:0:0:
394,290,246036,1,0,3:0:0:0:
187,111,246236,2,0,P|148:60|176:19,1,111.999996582031,8|2,0:0|3:0,0:0:0:0:
210,4,246536,1,0,0:0:0:0:
210,4,246636,6,0,P|305:29|316:31,1,80,6|2,3:0|0:0,0:0:0:0:
359,125,247036,2,0,P|264:100|253:98,1,80,2|2,0:0|3:0,0:0:0:0:
281,103,247336,1,0,0:0:0:0:
281,103,247436,1,10,0:0:0:0:
378,39,247636,1,2,0:0:0:0:
281,103,247836,1,2,0:0:0:0:
454,203,248036,1,10,0:0:0:0:
454,203,248136,1,0,0:0:0:0:
454,203,248236,6,0,B|382:251|327:207|341:94|230:151,1,256,6|2,3:0|0:0,0:0:0:0:
235,148,249236,1,2,0:0:0:0:
141,251,249436,2,0,P|100:219|124:176,1,96,2|0,0:0|0:0,0:0:0:0:
121,165,249836,6,0,B|168:161|162:114|162:114|100:10,1,155.999992858887,4|0,3:0|0:0,0:0:0:0:
104,17,250236,1,10,0:0:0:0:
242,148,250436,1,0,3:0:0:0:
242,148,250536,1,0,3:0:0:0:
242,148,250636,1,2,3:0:0:0:
273,79,250836,1,0,3:0:0:0:
121,174,251036,2,0,P|108:231|143:257,1,103.999995239258,10|0,0:0|3:0,0:0:0:0:
120,323,251336,1,0,0:0:0:0:
120,323,251436,6,0,B|157:316|157:316|189:266|189:266|216:269|244:250,1,155.999992858887,2|0,3:0|0:0,0:0:0:0:
300,211,251836,2,0,L|420:243,1,103.999995239258,10|0,0:0|3:0,0:0:0:0:
430,210,252136,1,0,3:0:0:0:
430,210,252236,1,2,3:0:0:0:
509,117,252436,1,0,3:0:0:0:
430,210,252636,2,0,B|400:251|400:251|445:309,1,103.999995239258,10|0,0:0|3:0,0:0:0:0:
439,384,252936,1,0,3:0:0:0:
439,384,253036,6,0,B|405:366|354:372|354:372|323:322|372:289,1,155.999992858887,2|0,3:0|0:0,0:0:0:0:
325,278,253436,1,8,0:0:0:0:
199,346,253636,2,0,P|167:338|134:332,2,51.999997619629,0|0|2,3:0|3:0|3:0,0:0:0:0:
243,287,254036,1,0,3:0:0:0:
169,91,254236,1,10,0:0:0:0:
247,193,254436,1,0,3:0:0:0:
247,193,254536,1,0,3:0:0:0:
247,193,254636,5,0,3:0:0:0:
182,231,254836,1,0,3:0:0:0:
76,78,255036,2,0,P|28:95|22:150,1,103.999995239258,10|0,0:0|3:0,0:0:0:0:
45,168,255336,1,0,3:0:0:0:
45,168,255436,2,0,P|78:160|126:149,1,51.999997619629,2|0,3:0|0:0,0:0:0:0:
150,112,255636,2,0,P|175:106|200:99,1,51.999997619629,0|0,3:0|0:0,0:0:0:0:
324,27,255836,2,0,L|443:54,1,103.999995239258,10|0,0:0|3:0,0:0:0:0:
512,33,256136,1,0,3:0:0:0:
512,33,256236,6,0,P|437:46|454:124,1,155.999992858887,6|0,3:0|0:0,0:0:0:0:
460,137,256636,1,8,0:0:0:0:
351,176,256836,1,0,3:0:0:0:
351,176,256936,2,0,P|263:152|235:148,1,103.999995239258,0|0,3:0|0:0,0:0:0:0:
250,150,257236,2,0,P|267:219|263:225,1,51.999997619629,0|0,3:0|0:0,0:0:0:0:
141,267,257436,1,8,0:0:0:0:
115,202,257636,1,0,3:0:0:0:
255,309,257836,6,0,B|348:277|348:277|350:317|382:339,1,155.999992858887,2|0,3:0|0:0,0:0:0:0:
396,360,258236,1,8,0:0:0:0:
468,252,258436,1,2,3:0:0:0:
468,252,258536,2,0,P|476:189|434:170,1,103.999995239258,0|0,3:0|0:0,0:0:0:0:
447,170,258836,1,0,3:0:0:0:
348,109,259036,2,0,P|340:46|382:27,1,103.999995239258,10|0,0:0|3:0,0:0:0:0:
405,37,259336,1,0,3:0:0:0:
405,37,259436,5,14,0:0:0:0:
252,124,259636,1,0,3:0:0:0:
235,52,259836,1,0,3:0:0:0:
385,187,260036,5,14,0:0:0:0:
135,109,260236,1,0,3:0:0:0:
111,179,260436,1,0,3:0:0:0:
312,346,260636,2,0,P|293:266|277:218,1,103.999995239258,14|0,0:0|3:0,0:0:0:0:
312,211,260936,1,0,0:0:0:0:
312,211,261036,1,12,0:0:0:0:
169,302,261236,2,0,P|115:288|102:286,1,51.999997619629,0|0,3:0|0:0,0:0:0:0:
73,238,261436,1,0,3:0:0:0:
256,149,261636,2,0,P|281:143|306:135,1,51.999997619629,0|0,3:0|0:0,0:0:0:0:
70,120,261836,5,2,0:0:0:0:
29,50,262036,1,2,3:0:0:0:
99,9,262236,1,2,0:0:0:0:
140,79,262436,1,2,0:0:0:0:
7,179,262636,5,4,3:0:0:0:
269,101,262836,1,0,3:0:0:0:
99,9,263036,1,0,3:0:0:0:
176,271,263236,2,0,B|208:257|244:252|244:252|273:259|300:277|300:277|329:264|364:259,1,191.999994140625,12|0,0:0|0:0,0:0:0:0:
469,327,263836,5,4,3:0:0:0:
380,185,264036,1,0,3:0:0:0:
504,72,264236,1,0,3:0:0:0:
380,185,264436,2,0,P|343:111|273:133,1,155.999992858887,12|0,0:0|0:0,0:0:0:0:
282,122,264836,5,8,0:0:0:0:
343,25,265036,1,0,3:0:0:0:
407,272,265236,1,0,3:0:0:0:
161,203,265436,1,0,3:0:0:0:
450,99,265636,1,0,3:0:0:0:
