osu file format v14

[General]
AudioFilename: audio.mp3
AudioLeadIn: 0
PreviewTime: 65811
Countdown: 0
SampleSet: Soft
StackLeniency: 0.7
Mode: 0
LetterboxInBreaks: 0
WidescreenStoryboard: 1

[Editor]
Bookmarks: 114236
DistanceSpacing: 1.1
BeatDivisor: 4
GridSize: 32
TimelineZoom: 2

[Metadata]
Title:Boku no Friend
TitleUnicode:ぼくのフレンド
Artist:Doubutsu Biscuits & Kaban (CV: Uchida Aya)
ArtistUnicode:どうぶつビスケッツ & かばん (CV: 内田彩)
Creator:rosario wknd
Version:Hard
Source:けものフレンズ
Tags:kemono friends furenzu ending ed japanese pop jpop j-pop cover full version ver サーバル serval cat フェネック fennec fox アライグマ common raccoon 尾崎由香 yuka ozaki 本宮佳奈 kana motomiya 小野早稀 saki ono さふぁりどらいぶ♪ safari drive みゆはん mewhan lets rock jrock j-rock
BeatmapID:3373170
BeatmapSetID:1650932

[Difficulty]
HPDrainRate:5
CircleSize:4
OverallDifficulty:6
ApproachRate:8
SliderMultiplier:1.3
SliderTickRate:1

[Events]
//Background and Video events
0,0,"62209428_p0_master1200.jpg",0,0
//Break Periods
//Storyboard Layer 0 (Background)
//Storyboard Layer 1 (Fail)
//Storyboard Layer 2 (Pass)
//Storyboard Layer 3 (Foreground)
//Storyboard Layer 4 (Overlay)
//Storyboard Sound Samples

[TimingPoints]
236,400,4,2,1,30,1,0
1036,-76.9230769230769,4,2,1,40,0,0
1336,-76.9230769230769,4,2,1,40,0,0
1436,-76.9230769230769,4,2,1,40,0,0
1836,400,4,2,1,50,1,0
1836,-83.3333333333333,4,2,1,50,0,0
11436,-76.9230769230769,4,2,1,55,0,0
12936,-76.9230769230769,4,2,1,5,0,0
13036,-76.9230769230769,4,2,1,55,0,0
14636,-90.9090909090909,4,2,1,40,0,0
14736,-90.9090909090909,4,2,1,5,0,0
14836,-90.9090909090909,4,2,1,40,0,0
22536,-90.9090909090909,4,2,1,5,0,0
22636,-90.9090909090909,4,2,1,40,0,0
27436,-83.3333333333333,4,2,1,45,0,0
27736,-83.3333333333333,4,2,1,45,0,0
27836,-83.3333333333333,4,2,1,45,0,0
38736,-83.3333333333333,4,2,1,5,0,0
38836,-83.3333333333333,4,2,1,45,0,0
40236,-90.9090909090909,4,2,1,40,0,0
56136,-90.9090909090909,4,2,1,5,0,0
56236,-90.9090909090909,4,2,1,45,0,0
58936,-90.9090909090909,4,2,1,5,0,0
59036,-90.9090909090909,4,2,1,45,0,0
59436,-83.3333333333333,4,2,1,55,0,0
59736,-83.3333333333333,4,2,1,5,0,0
59836,-83.3333333333333,4,2,1,55,0,0
65136,-83.3333333333333,4,2,1,5,0,0
65236,-83.3333333333333,4,2,1,55,0,0
65836,-76.9230769230769,4,2,1,65,0,1
70136,-76.9230769230769,4,2,1,5,0,1
70236,-76.9230769230769,4,2,1,65,0,1
74136,-76.9230769230769,4,2,1,5,0,1
74236,-76.9230769230769,4,2,1,65,0,1
76936,-76.9230769230769,4,2,1,65,0,1
77036,-71.4285714285714,4,2,1,65,0,1
78636,-76.9230769230769,4,2,1,65,0,1
78936,-76.9230769230769,4,2,1,5,0,1
79036,-76.9230769230769,4,2,1,65,0,1
84536,-76.9230769230769,4,2,1,5,0,1
84636,-76.9230769230769,4,2,1,65,0,1
86636,-71.4285714285714,4,2,1,65,0,1
87136,-71.4285714285714,4,2,1,65,0,1
87236,-71.4285714285714,4,2,1,65,0,1
87436,-71.4285714285714,4,2,1,65,0,1
88236,-83.3333333333333,4,2,1,50,0,0
93836,-83.3333333333333,4,2,1,50,0,0
97836,-76.9230769230769,4,2,1,50,0,0
101036,-83.3333333333333,4,2,1,45,0,0
102536,-83.3333333333333,4,2,1,5,0,0
102636,-83.3333333333333,4,2,1,45,0,0
108236,-83.3333333333333,4,2,1,45,0,0
118136,-83.3333333333333,4,2,1,5,0,0
118236,-83.3333333333333,4,2,1,45,0,0
118536,-83.3333333333333,4,2,1,5,0,0
118636,-83.3333333333333,4,2,1,45,0,0
124936,-83.3333333333333,4,2,1,5,0,0
125036,-83.3333333333333,4,2,1,45,0,0
126336,-83.3333333333333,4,2,1,5,0,0
126436,-83.3333333333333,4,2,1,45,0,0
126636,-83.3333333333333,4,2,1,40,0,0
130136,-83.3333333333333,4,2,1,5,0,0
130236,-83.3333333333333,4,2,1,40,0,0
142636,-83.3333333333333,4,2,1,45,0,0
142736,-83.3333333333333,4,2,1,5,0,0
142836,-83.3333333333333,4,2,1,45,0,0
145836,-83.3333333333333,4,2,1,55,0,0
146136,-83.3333333333333,4,2,1,5,0,0
146236,-83.3333333333333,4,2,1,55,0,0
151536,-83.3333333333333,4,2,1,5,0,0
151636,-83.3333333333333,4,2,1,55,0,0
152236,-76.9230769230769,4,2,1,65,0,1
152936,-76.9230769230769,4,2,1,5,0,1
153036,-76.9230769230769,4,2,1,65,0,1
160536,-76.9230769230769,4,2,1,5,0,1
160636,-76.9230769230769,4,2,1,65,0,1
163336,-76.9230769230769,4,2,1,65,0,1
163436,-71.4285714285714,4,2,1,65,0,1
165036,-76.9230769230769,4,2,1,65,0,1
167736,-76.9230769230769,4,2,1,5,0,1
167836,-76.9230769230769,4,2,1,65,0,1
174036,-76.9230769230769,4,2,1,65,0,1
174636,-90.9090909090909,4,2,1,50,0,0
176136,-90.9090909090909,4,2,1,5,0,0
176236,-90.9090909090909,4,2,1,50,0,0
181036,-83.3333333333333,4,2,1,55,0,0
184136,-83.3333333333333,4,2,1,55,0,0
184236,-83.3333333333333,4,2,1,55,0,0
185736,-83.3333333333333,4,2,1,5,0,0
185836,-83.3333333333333,4,2,1,55,0,0
187436,-76.9230769230769,4,2,1,60,0,0
190936,-76.9230769230769,4,2,1,5,0,0
191036,-76.9230769230769,4,2,1,60,0,0
191736,-76.9230769230769,4,2,1,5,0,0
191836,-76.9230769230769,4,2,1,60,0,0
200236,-90.9090909090909,4,2,1,40,0,0
203336,-90.9090909090909,4,2,1,5,0,0
203436,-90.9090909090909,4,2,1,40,0,0
209736,-90.9090909090909,4,2,1,5,0,0
209836,-90.9090909090909,4,2,1,40,0,0
212736,-90.9090909090909,4,2,1,5,0,0
212836,-90.9090909090909,4,2,1,40,0,0
213036,-90.9090909090909,4,2,1,45,0,0
215736,-90.9090909090909,4,2,1,5,0,0
215836,-90.9090909090909,4,2,1,45,0,0
218936,-90.9090909090909,4,2,1,5,0,0
219036,-90.9090909090909,4,2,1,45,0,0
219436,-83.3333333333333,4,2,1,55,0,0
219736,-83.3333333333333,4,2,1,5,0,0
219836,-83.3333333333333,4,2,1,55,0,0
225136,-83.3333333333333,4,2,1,5,0,0
225236,-83.3333333333333,4,2,1,55,0,0
227436,-76.9230769230769,4,2,1,65,0,1
228936,-76.9230769230769,4,2,1,5,0,1
229036,-76.9230769230769,4,2,1,65,0,1
235736,-76.9230769230769,4,2,1,5,0,1
235836,-76.9230769230769,4,2,1,65,0,1
236536,-76.9230769230769,4,2,1,5,0,1
236636,-76.9230769230769,4,2,1,65,0,1
238636,-71.4285714285714,4,2,1,65,0,1
240636,-76.9230769230769,4,2,1,65,0,1
244536,-76.9230769230769,4,2,1,5,0,1
244636,-76.9230769230769,4,2,1,65,0,1
246636,-83.3333333333333,4,2,1,65,0,1
248236,-100,4,2,1,65,0,1
249736,-100,4,2,1,5,0,1
249836,-83.3333333333333,4,2,1,55,0,0
262536,-83.3333333333333,4,2,1,5,0,0
262636,-76.9230769230769,4,2,1,50,0,0
263636,-76.9230769230769,4,2,1,50,0,0
263836,-76.9230769230769,4,2,1,50,0,0
264736,-76.9230769230769,4,2,1,5,0,0
264836,-76.9230769230769,4,2,1,50,0,0

[Colours]
Combo1 : 255,0,0
Combo2 : 0,255,64
Combo3 : 0,128,192
Combo4 : 255,255,0

[HitObjects]
285,113,236,5,0,3:0:0:0:
285,113,636,1,0,3:0:0:0:
285,113,1036,6,0,B|303:67|303:67|386:97,1,126.749994197846,4|0,3:0|3:0,0:0:0:0:
412,72,1436,2,0,L|401:31,3,42.2499980659486,8|8|0|0,0:0|0:0|3:0|3:0,0:0:0:0:
432,4,1836,6,0,P|443:50|453:101,1,77.999997619629,6|0,3:0|3:0,0:0:0:0:
512,137,2236,2,0,P|501:183|490:236,1,77.999997619629,10|0,0:0|3:0,0:0:0:0:
465,245,2536,1,0,3:0:0:0:
465,245,2636,2,0,P|392:238|378:313,1,155.999995239258,2|10,3:0|0:0,0:0:0:0:
317,376,3236,1,0,3:0:0:0:
228,337,3436,6,0,B|177:323|177:323|145:348|145:348|85:367,1,155.999995239258,2|10,3:0|0:0,0:0:0:0:
37,293,4036,2,0,P|15:287|-23:282,2,38.9999988098145,0|0|2,3:0|3:0|3:0,0:0:0:0:
89,224,4436,1,0,3:0:0:0:
43,150,4636,2,0,P|30:98|13:55,1,77.999997619629,10|0,0:0|3:0,0:0:0:0:
37,35,4936,1,0,3:0:0:0:
37,35,5036,6,0,B|88:51|88:51|111:94|111:94|169:112,1,155.999995239258,2|8,3:0|0:0,0:0:0:0:
226,167,5636,1,0,3:0:0:0:
294,115,5836,1,2,3:0:0:0:
294,115,6036,1,0,3:0:0:0:
226,167,6236,2,0,P|242:223|247:251,1,77.999997619629,10|0,0:0|3:0,0:0:0:0:
257,283,6536,1,0,3:0:0:0:
257,283,6636,6,0,P|296:271|354:263,1,77.999997619629,0|0,3:0|3:0,0:0:0:0:
387,198,7036,1,10,0:0:0:0:
451,254,7236,2,0,P|479:262|512:273,2,38.9999988098145,0|0|2,3:0|3:0|3:0,0:0:0:0:
387,198,7636,1,0,3:0:0:0:
443,133,7836,2,0,B|471:102|471:102|445:49,1,77.999997619629,10|0,0:0|3:0,0:0:0:0:
430,34,8136,1,0,3:0:0:0:
430,34,8236,6,0,B|345:61|345:61|317:93|355:136,1,155.999995239258,6|8,3:0|0:0,0:0:0:0:
270,41,8836,1,0,3:0:0:0:
270,41,8936,1,0,3:0:0:0:
270,41,9036,2,0,L|184:18,1,77.999997619629,0|0,3:0|3:0,0:0:0:0:
128,75,9436,2,0,P|96:41|108:3,1,77.999997619629,8|0,0:0|3:0,0:0:0:0:
195,120,9836,6,0,P|166:186|143:277,1,155.999995239258,2|8,3:0|0:0,0:0:0:0:
93,335,10436,1,2,3:0:0:0:
93,335,10536,1,0,3:0:0:0:
93,335,10636,1,0,3:0:0:0:
24,283,10836,1,0,3:0:0:0:
79,222,11036,2,0,P|65:180|53:138,1,77.999997619629,10|0,0:0|3:0,0:0:0:0:
61,113,11336,1,0,3:0:0:0:
61,113,11436,6,0,P|112:97|140:126,2,84.4999961318971,14|0|0,0:0|3:0|3:0,0:0:0:0:
195,195,12036,2,0,B|144:154|144:154|196:57,1,168.999992263794,14|0,0:0|3:0,0:0:0:0:
268,97,12636,2,0,B|363:67|363:67|362:31,1,126.749994197846,14|0,0:0|0:0,0:0:0:0:
362,39,13036,5,12,0:0:0:0:
439,4,13236,1,0,3:0:0:0:
482,76,13436,2,0,P|465:129|456:163,1,84.4999961318971,0|0,3:0|3:0,0:0:0:0:
447,198,13736,1,0,0:0:0:0:
447,198,13836,5,2,0:0:0:0:
483,274,14036,1,6,3:0:0:0:
407,310,14236,1,2,0:0:0:0:
371,234,14436,1,10,0:0:0:0:
296,260,14636,6,0,L|254:251,1,35.7500010910034,6|0,3:0|0:0,0:0:0:0:
230,273,14836,2,0,P|210:186|191:132,1,143.000004364014,2|2,0:0|0:0,0:0:0:0:
205,57,15436,2,0,P|185:119|90:107,1,143.000004364014,2|2,0:0|0:0,0:0:0:0:
50,168,16036,1,2,0:0:0:0:
50,168,16236,2,0,L|72:248,2,71.5000021820069,2|2|2,0:0|0:0|0:0,0:0:0:0:
23,90,16836,2,0,B|37:74|37:74|135:105|135:105|140:141|140:141,2,143.000004364014,2|0|2,0:0|3:0|3:0,0:0:0:0:
54,163,17836,5,2,3:0:0:0:
54,163,18036,1,2,3:0:0:0:
12,229,18236,1,2,0:0:0:0:
63,288,18436,2,0,P|146:264|236:256,1,143.000004364014,2|2,0:0|0:0,0:0:0:0:
275,286,19036,2,0,P|291:245|270:212,1,71.5000021820069,2|2,0:0|0:0,0:0:0:0:
212,333,19436,1,2,0:0:0:0:
212,333,19636,2,0,P|172:336|121:357,1,71.5000021820069,2|2,0:0|0:0,0:0:0:0:
275,286,20036,2,0,B|299:291|327:295|327:295|366:326|366:326|395:319|430:323,2,143.000004364014,0|0|2,0:0|3:0|3:0,0:0:0:0:
207,245,21036,6,0,L|191:163,1,71.5000021820069,2|2,3:0|3:0,0:0:0:0:
250,120,21436,2,0,L|234:38,1,71.5000021820069,2|2,0:0|0:0,0:0:0:0:
304,9,21836,1,2,0:0:0:0:
380,47,22036,1,2,0:0:0:0:
460,16,22236,2,0,B|500:42|500:42|466:110,1,107.25000327301,2|0,0:0|0:0,0:0:0:0:
443,127,22636,2,0,L|348:146,2,71.5000021820069,2|2|2,0:0|0:0|0:0,0:0:0:0:
484,217,23236,2,0,P|459:273|434:358,1,143.000004364014,2|0,0:0|3:0,0:0:0:0:
364,311,23836,2,0,P|381:257|388:233,1,71.5000021820069,2|0,0:0|3:0,0:0:0:0:
364,384,24236,6,0,P|315:326|252:347,1,143.000004364014,2|2,3:0|0:0,0:0:0:0:
181,381,24836,2,0,B|168:368|168:368|193:301,1,71.5000021820069,2|0,0:0|0:0,0:0:0:0:
250,260,25236,2,0,B|268:210|268:210|255:197,1,71.5000021820069,2|0,0:0|0:0,0:0:0:0:
170,214,25636,1,2,0:0:0:0:
276,108,25836,6,0,L|207:127,1,71.5000021820069,0|0,3:0|0:0,0:0:0:0:
240,40,26236,2,0,L|157:63,1,71.5000021820069,0|2,3:0|0:0,0:0:0:0:
91,148,26636,1,0,3:0:0:0:
42,86,26836,1,2,0:0:0:0:
91,25,27036,1,8,0:0:0:0:
107,38,27136,1,8,0:0:0:0:
127,44,27236,1,10,0:0:0:0:
148,44,27336,1,8,0:0:0:0:
170,38,27436,6,0,P|225:44|232:126,1,116.999996429443,6|0,3:0|0:0,0:0:0:0:
246,95,27836,2,0,P|221:147|211:184,1,77.999997619629,10|2,0:0|0:0,0:0:0:0:
277,226,28236,1,2,3:0:0:0:
277,226,28436,1,2,3:0:0:0:
348,179,28636,2,0,B|386:165|386:165|418:195,1,77.999997619629,10|2,0:0|0:0,0:0:0:0:
430,221,28936,1,0,0:0:0:0:
430,221,29036,6,0,B|431:160|431:160|457:136|457:136|462:102|458:67,1,155.999995239258,2|10,3:0|0:0,0:0:0:0:
399,16,29636,2,0,P|329:17|356:78,1,155.999995239258,2|0,0:0|3:0,0:0:0:0:
350,76,30236,1,8,0:0:0:0:
274,116,30436,1,2,0:0:0:0:
226,44,30636,6,0,L|140:62,1,77.999997619629,2|2,3:0|0:0,0:0:0:0:
120,145,31036,2,0,L|34:163,1,77.999997619629,10|2,0:0|0:0,0:0:0:0:
6,138,31336,1,0,0:0:0:0:
6,138,31436,1,2,3:0:0:0:
53,66,31636,1,2,3:0:0:0:
6,138,31836,2,0,P|18:180|25:214,1,77.999997619629,10|2,0:0|0:0,0:0:0:0:
8,253,32136,1,0,0:0:0:0:
8,253,32236,6,0,B|27:209|27:209|139:240,1,155.999995239258,2|10,3:0|0:0,0:0:0:0:
215,223,32836,1,2,0:0:0:0:
215,223,33036,2,0,B|237:286|196:305|154:307|202:396,1,155.999995239258,0|8,3:0|0:0,0:0:0:0:
188,366,33636,1,2,0:0:0:0:
274,325,33836,6,0,P|338:341|366:351,2,77.999997619629,2|2|10,3:0|0:0|0:0,0:0:0:0:
212,264,34436,1,2,0:0:0:0:
212,264,34636,2,0,B|188:229|188:229|213:192,1,77.999997619629,2|2,3:0|3:0,0:0:0:0:
169,122,35036,2,0,B|199:92|199:92|240:110,1,77.999997619629,10|2,0:0|0:0,0:0:0:0:
263,136,35336,1,0,0:0:0:0:
263,136,35436,6,0,B|351:120|351:120|381:86|349:40,1,155.999995239258,2|10,3:0|0:0,0:0:0:0:
432,13,36036,2,0,B|451:19|454:36|454:36|433:135|433:135|435:149|458:160,1,155.999995239258,2|0,0:0|3:0,0:0:0:0:
494,221,36636,2,0,L|392:244,1,77.999997619629,10|0,0:0|0:0,0:0:0:0:
367,307,37036,6,0,L|405:149,1,155.999995239258,2|10,3:0|0:0,0:0:0:0:
331,109,37636,2,0,P|280:129|283:163,1,77.999997619629,2|0,0:0|3:0,0:0:0:0:
227,215,38036,1,2,3:0:0:0:
285,277,38236,2,0,P|267:335|261:362,1,77.999997619629,8|2,0:0|0:0,0:0:0:0:
229,378,38536,1,0,0:0:0:0:
229,378,38636,6,0,L|172:361,1,38.9999988098145,4|0,3:0|0:0,0:0:0:0:
175,326,38836,1,0,3:0:0:0:
96,360,39036,1,8,0:0:0:0:
37,297,39236,2,0,P|14:303|-11:311,2,38.9999988098145,2|8|6,3:0|0:0|3:0,0:0:0:0:
64,263,39536,1,0,3:0:0:0:
64,263,39636,2,0,L|149:241,1,77.999997619629,2|8,3:0|0:0,0:0:0:0:
49,182,40036,1,8,0:0:0:0:
49,182,40136,1,8,0:0:0:0:
49,182,40236,6,0,P|32:127|14:84,2,71.5000021820069,6|2|2,3:0|0:0|0:0,0:0:0:0:
95,61,40836,2,0,P|4:57|8:9,2,143.000004364014,2|2|0,3:0|3:0|0:0,0:0:0:0:
173,25,41836,2,0,L|258:49,1,71.5000021820069,2|2,3:0|0:0,0:0:0:0:
241,44,42136,1,0,3:0:0:0:
241,44,42236,1,2,0:0:0:0:
306,118,42436,2,0,B|354:95|354:95|314:7,1,143.000004364014,2|2,3:0|0:0,0:0:0:0:
316,13,43036,2,0,L|415:34,1,71.5000021820069,2|8,3:0|0:0,0:0:0:0:
493,101,43436,6,0,B|466:113|439:120|439:120|416:153|416:153|346:176,1,143.000004364014,6|2,3:0|0:0,0:0:0:0:
287,172,44036,1,0,3:0:0:0:
287,172,44236,2,0,L|310:76,1,71.5000021820069,10|0,0:0|3:0,0:0:0:0:
372,167,44636,1,2,0:0:0:0:
372,167,45036,2,0,P|430:189|428:251,2,107.25000327301,0|0|0,3:0|3:0|3:0,0:0:0:0:
344,248,45836,2,0,P|283:261|260:269,1,71.5000021820069,8|0,0:0|0:0,0:0:0:0:
215,326,46236,1,0,3:0:0:0:
121,285,46436,1,8,0:0:0:0:
121,285,46536,1,0,0:0:0:0:
121,285,46636,6,0,L|39:305,2,71.5000021820069,6|2|2,3:0|0:0|0:0,0:0:0:0:
156,216,47236,2,0,P|232:237|309:258,1,143.000004364014,2|2,3:0|3:0,0:0:0:0:
345,322,47836,2,0,B|372:296|372:296|425:314,1,71.5000021820069,0|0,0:0|0:0,0:0:0:0:
472,253,48236,1,2,3:0:0:0:
405,198,48436,2,0,P|384:207|357:213,2,35.7500010910034,2|0|2,0:0|3:0|0:0,0:0:0:0:
457,139,48836,2,0,B|462:117|474:93|474:93|359:123,1,143.000004364014,2|2,3:0|0:0,0:0:0:0:
300,92,49436,2,0,P|277:49|287:21,1,71.5000021820069,2|8,3:0|0:0,0:0:0:0:
383,116,49836,6,0,L|355:218,1,71.5000021820069,6|0,3:0|0:0,0:0:0:0:
280,206,50236,2,0,L|252:308,1,71.5000021820069,2|0,0:0|3:0,0:0:0:0:
326,325,50636,2,0,P|257:296|216:356,1,143.000004364014,10|2,0:0|0:0,0:0:0:0:
132,352,51236,1,0,0:0:0:0:
66,296,51436,2,0,B|52:275|36:264|36:264|79:198,2,107.25000327301,2|0|0,3:0|3:0|3:0,0:0:0:0:
1,185,52236,2,0,B|112:160|112:160|121:123,1,143.000004364014,10|0,0:0|3:0,0:0:0:0:
118,132,52836,1,8,0:0:0:0:
230,195,53036,6,0,P|286:180|323:177,2,71.5000021820069,6|2|2,3:0|0:0|0:0,0:0:0:0:
167,253,53636,2,0,B|191:337|191:337|223:357|267:325,2,143.000004364014,2|2|0,3:0|3:0|0:0,0:0:0:0:
230,195,54636,2,0,P|238:155|247:98,1,71.5000021820069,2|2,3:0|0:0,0:0:0:0:
243,124,54936,1,0,3:0:0:0:
243,124,55036,1,2,0:0:0:0:
309,70,55236,1,2,3:0:0:0:
309,70,55436,2,0,P|305:22|281:5,1,71.5000021820069,8|2,0:0|0:0,0:0:0:0:
210,43,55836,2,0,P|156:28|94:19,1,107.25000327301,2|0,3:0|0:0,0:0:0:0:
105,20,56236,6,0,P|87:70|65:110,1,71.5000021820069,6|0,3:0|0:0,0:0:0:0:
16,144,56636,2,0,P|31:176|42:210,1,71.5000021820069,2|0,0:0|3:0,0:0:0:0:
10,290,57036,2,0,B|39:233|39:233|142:262,1,143.000004364014,10|2,0:0|0:0,0:0:0:0:
115,254,57636,1,0,0:0:0:0:
196,317,57836,2,0,P|249:299|283:296,1,71.5000021820069,2|0,3:0|0:0,0:0:0:0:
331,243,58236,1,2,0:0:0:0:
331,243,58436,1,0,3:0:0:0:
410,260,58636,2,0,P|451:207|418:169,1,107.25000327301,10|0,0:0|0:0,0:0:0:0:
407,151,59036,1,10,0:0:0:0:
387,159,59136,1,8,0:0:0:0:
365,163,59236,1,8,0:0:0:0:
343,161,59336,1,8,0:0:0:0:
329,153,59436,6,0,B|294:103|294:103|335:31,1,116.999996429443,6|0,3:0|0:0,0:0:0:0:
321,54,59836,2,0,L|406:36,1,77.999997619629,10|2,0:0|3:0,0:0:0:0:
466,90,60236,1,10,0:0:0:0:
466,90,60436,1,2,3:0:0:0:
426,166,60636,2,0,P|443:226|455:272,1,77.999997619629,10|0,0:0|3:0,0:0:0:0:
468,278,60936,1,0,3:0:0:0:
468,278,61036,6,0,P|452:333|443:369,2,77.999997619629,10|2|10,0:0|0:0|0:0,0:0:0:0:
376,307,61636,1,2,3:0:0:0:
376,307,61836,2,0,B|325:321|325:321|293:296|293:296|270:288|233:277,1,155.999995239258,8|8,0:0|0:0,0:0:0:0:
144,336,62436,1,2,3:0:0:0:
144,336,62536,1,0,3:0:0:0:
144,336,62636,6,0,L|126:250,1,77.999997619629,6|2,3:0|3:0,0:0:0:0:
183,194,63036,1,2,3:0:0:0:
183,194,63236,1,2,3:0:0:0:
289,201,63436,2,0,L|307:115,1,77.999997619629,14|2,0:0|3:0,0:0:0:0:
248,60,63836,1,2,3:0:0:0:
248,60,64036,1,2,3:0:0:0:
179,132,64236,5,14,0:0:0:0:
236,57,64436,1,2,3:0:0:0:
161,1,64636,1,2,3:0:0:0:
105,75,64836,2,0,B|87:98|87:98|-16:65,1,116.999996429443,10|0,0:0|0:0,0:0:0:0:
4,71,65236,1,8,0:0:0:0:
53,165,65436,1,8,0:0:0:0:
53,165,65836,6,0,P|112:184|145:203,1,84.4999961318971,4|2,3:0|0:0,0:0:0:0:
210,258,66236,2,0,P|264:240|303:234,1,84.4999961318971,10|2,0:0|3:0,0:0:0:0:
320,193,66536,1,0,3:0:0:0:
320,193,66636,2,0,P|254:138|295:75,1,168.999992263794,2|10,3:0|0:0,0:0:0:0:
370,17,67236,1,2,0:0:0:0:
457,92,67436,6,0,P|470:41|483:-2,2,84.4999961318971,2|2|10,3:0|3:0|0:0,0:0:0:0:
381,158,68036,1,2,3:0:0:0:
381,158,68136,1,0,3:0:0:0:
381,158,68236,1,0,3:0:0:0:
451,230,68436,1,0,3:0:0:0:
381,158,68636,2,0,P|338:161|312:228,1,84.4999961318971,8|2,0:0|3:0,0:0:0:0:
263,208,68936,1,0,0:0:0:0:
263,208,69036,6,0,P|281:265|285:301,1,84.4999961318971,2|2,3:0|0:0,0:0:0:0:
348,368,69436,1,10,0:0:0:0:
421,298,69636,2,0,P|425:280|435:253,2,42.2499980659486,2|0|2,3:0|3:0|3:0,0:0:0:0:
348,368,70036,2,0,P|330:371|293:380,1,42.2499980659486,2|0,3:0|0:0,0:0:0:0:
257,361,70236,1,10,0:0:0:0:
183,290,70436,1,2,0:0:0:0:
97,344,70636,6,0,L|-6:323,2,84.4999961318971,2|2|10,3:0|3:0|0:0,0:0:0:0:
61,250,71236,1,2,3:0:0:0:
61,250,71336,1,0,3:0:0:0:
61,250,71436,1,0,3:0:0:0:
123,169,71636,1,0,3:0:0:0:
32,123,71836,2,0,L|7:28,1,84.4999961318971,8|2,0:0|3:0,0:0:0:0:
44,3,72136,1,0,0:0:0:0:
44,3,72236,6,0,B|63:56|63:56|206:22,1,168.999992263794,6|10,3:0|0:0,0:0:0:0:
261,78,72836,1,0,3:0:0:0:
261,78,72936,1,0,3:0:0:0:
261,78,73036,2,0,L|351:61,1,84.4999961318971,2|0,3:0|3:0,0:0:0:0:
420,129,73436,1,10,0:0:0:0:
489,55,73636,1,2,0:0:0:0:
420,129,73836,6,0,P|467:152|460:229,1,126.749994197846,2|0,3:0|0:0,0:0:0:0:
467,219,74236,2,0,P|422:226|368:242,1,84.4999961318971,10|2,0:0|3:0,0:0:0:0:
346,202,74536,1,0,3:0:0:0:
346,202,74636,1,2,3:0:0:0:
401,310,74836,2,0,P|442:299|484:292,2,84.4999961318971,2|10|2,3:0|0:0|3:0,0:0:0:0:
315,363,75436,5,0,3:0:0:0:
236,298,75636,1,2,0:0:0:0:
236,298,75836,2,0,B|216:260|216:260|253:223,1,84.4999961318971,10|2,0:0|3:0,0:0:0:0:
245,230,76136,1,0,3:0:0:0:
245,230,76236,1,2,3:0:0:0:
324,167,76436,1,2,3:0:0:0:
263,85,76636,2,0,B|257:124|257:124|185:147,1,84.4999961318971,10|2,0:0|3:0,0:0:0:0:
141,167,77036,6,0,L|48:142,1,90.9999972229005,4|0,3:0|3:0,0:0:0:0:
23,51,77436,1,8,0:0:0:0:
133,77,77636,1,8,0:0:0:0:
133,77,77736,1,8,0:0:0:0:
133,77,77836,1,4,3:0:0:0:
219,8,78036,1,0,3:0:0:0:
306,75,78236,1,8,0:0:0:0:
288,115,78336,1,8,0:0:0:0:
278,143,78436,1,10,0:0:0:0:
260,183,78536,1,8,0:0:0:0:
248,219,78636,6,0,B|321:196|321:196|365:254,1,126.749994197846,6|0,3:0|0:0,0:0:0:0:
351,236,79036,1,10,0:0:0:0:
399,308,79236,1,2,3:0:0:0:
312,358,79436,2,0,B|245:372|240:332|231:290|141:316,1,168.999992263794,2|10,3:0|0:0,0:0:0:0:
75,254,80036,1,2,0:0:0:0:
143,179,80236,6,0,P|138:121|107:108,2,84.4999961318971,2|2|10,3:0|3:0|0:0,0:0:0:0:
228,235,80836,2,0,P|279:221|296:221,2,42.2499980659486,2|0|0,3:0|3:0|3:0,0:0:0:0:
312,290,81236,1,0,3:0:0:0:
312,290,81436,2,0,P|363:266|357:218,1,84.4999961318971,8|2,0:0|3:0,0:0:0:0:
342,198,81736,1,0,0:0:0:0:
342,198,81836,6,0,L|318:105,1,84.4999961318971,2|2,3:0|0:0,0:0:0:0:
421,129,82236,2,0,L|397:36,1,84.4999961318971,10|2,0:0|3:0,0:0:0:0:
399,47,82536,1,0,3:0:0:0:
399,47,82636,1,0,3:0:0:0:
303,12,82836,1,2,3:0:0:0:
228,80,83036,1,10,0:0:0:0:
110,17,83236,1,2,0:0:0:0:
110,17,83336,1,0,0:0:0:0:
110,17,83436,6,0,B|127:72|127:72|97:111|97:111|110:137|115:170,1,168.999992263794,2|10,3:0|0:0,0:0:0:0:
115,170,84036,1,2,3:0:0:0:
171,247,84236,2,0,P|230:211|181:169,1,126.749994197846,2|0,3:0|0:0,0:0:0:0:
208,173,84636,1,8,0:0:0:0:
310,185,84836,1,2,3:0:0:0:
310,185,84936,1,0,0:0:0:0:
310,185,85036,6,0,P|356:174|402:166,1,84.4999961318971,6|2,3:0|0:0,0:0:0:0:
401,87,85436,2,0,P|447:76|493:68,1,84.4999961318971,2|0,0:0|3:0,0:0:0:0:
512,100,85736,1,0,0:0:0:0:
512,100,85836,1,10,0:0:0:0:
465,170,86036,1,2,0:0:0:0:
504,244,86236,2,0,B|523:269|523:269|492:330,1,84.4999961318971,2|10,0:0|0:0,0:0:0:0:
498,317,86536,1,0,0:0:0:0:
498,317,86636,6,0,B|453:309|415:340|415:340|358:329|367:272,1,181.999994445801,6|10,3:0|0:0,0:0:0:0:
323,259,87136,2,0,L|262:275,1,45.4999986114502,8|10,0:0|0:0,0:0:0:0:
192,309,87436,1,10,0:0:0:0:
182,293,87536,1,8,0:0:0:0:
186,275,87636,1,2,3:0:0:0:
248,198,87836,2,0,P|260:149|222:120,1,90.9999972229005,10|10,0:0|0:0,0:0:0:0:
204,82,88136,1,8,0:0:0:0:
204,82,88236,6,0,L|111:100,1,77.999997619629,6|0,3:0|3:0,0:0:0:0:
80,24,88636,2,0,L|-13:42,1,77.999997619629,10|0,0:0|3:0,0:0:0:0:
16,79,88936,1,0,3:0:0:0:
16,79,89036,2,0,B|37:96|37:96|22:210|22:210|41:231,1,155.999995239258,2|10,3:0|0:0,0:0:0:0:
85,287,89636,1,0,3:0:0:0:
158,243,89836,6,0,B|224:260|224:260|247:295|247:295|322:313,1,155.999995239258,2|10,3:0|0:0,0:0:0:0:
353,246,90436,1,0,3:0:0:0:
353,246,90536,1,0,3:0:0:0:
353,246,90636,1,2,3:0:0:0:
419,299,90836,1,0,3:0:0:0:
353,246,91036,2,0,B|327:213|327:213|360:157,1,77.999997619629,10|0,0:0|3:0,0:0:0:0:
370,146,91336,1,0,3:0:0:0:
370,146,91436,6,0,B|274:175|274:175|277:143|243:117,1,155.999995239258,6|8,3:0|0:0,0:0:0:0:
194,63,92036,1,0,3:0:0:0:
269,22,92236,2,0,L|360:40,1,77.999997619629,2|0,3:0|3:0,0:0:0:0:
403,100,92636,1,10,0:0:0:0:
481,64,92836,1,0,3:0:0:0:
481,64,92936,1,0,3:0:0:0:
481,64,93036,6,0,P|510:102|501:134,1,77.999997619629,0|0,3:0|3:0,0:0:0:0:
403,100,93436,1,10,0:0:0:0:
345,163,93636,2,0,B|320:153|274:141|283:142,1,38.9999988098145,0|0,3:0|3:0,0:0:0:0:
276,179,93836,1,2,3:0:0:0:
201,136,94036,1,0,3:0:0:0:
141,197,94236,2,0,P|132:249|121:291,1,77.999997619629,10|0,0:0|3:0,0:0:0:0:
157,301,94536,1,0,3:0:0:0:
157,301,94636,6,0,B|179:327|179:327|269:309|269:309|277:279,1,155.999995239258,6|8,3:0|0:0,0:0:0:0:
342,224,95236,1,0,3:0:0:0:
342,224,95336,1,0,3:0:0:0:
342,224,95436,2,0,L|368:329,1,77.999997619629,0|0,3:0|3:0,0:0:0:0:
427,353,95836,2,0,P|474:339|487:309,1,77.999997619629,8|0,0:0|3:0,0:0:0:0:
449,237,96236,6,0,B|419:226|419:226|379:232|379:232|355:209|355:209|316:199|277:183,1,155.999995239258,2|8,3:0|0:0,0:0:0:0:
251,128,96836,2,0,P|259:106|265:81,2,38.9999988098145,2|0|0,3:0|3:0|3:0,0:0:0:0:
192,191,97236,1,0,3:0:0:0:
118,146,97436,2,0,P|73:155|9:169,1,77.999997619629,10|0,0:0|3:0,0:0:0:0:
17,197,97736,1,0,3:0:0:0:
17,197,97836,6,0,P|6:250|38:278,2,84.4999961318971,14|0|0,0:0|3:0|3:0,0:0:0:0:
101,268,98436,2,0,B|175:264|181:309|169:350|268:342,1,168.999992263794,14|0,0:0|3:0,0:0:0:0:
331,365,99036,2,0,L|309:274,1,84.4999961318971,14|0,0:0|3:0,0:0:0:0:
371,211,99436,5,8,0:0:0:0:
371,211,99636,1,0,3:0:0:0:
296,155,99836,1,8,0:0:0:0:
296,155,100036,1,0,3:0:0:0:
357,85,100236,2,0,P|405:78|440:121,1,84.4999961318971,10|2,0:0|3:0,0:0:0:0:
495,166,100636,1,10,0:0:0:0:
475,188,100736,1,8,0:0:0:0:
467,216,100836,1,10,0:0:0:0:
471,245,100936,1,8,0:0:0:0:
489,270,101036,6,0,P|475:320|470:362,1,77.999997619629,6|2,3:0|0:0,0:0:0:0:
392,380,101436,1,10,0:0:0:0:
332,318,101636,1,2,3:0:0:0:
332,318,101736,1,0,3:0:0:0:
332,318,101836,2,0,P|344:273|354:222,1,77.999997619629,2|2,3:0|3:0,0:0:0:0:
393,167,102236,2,0,B|374:133|374:133|274:154,1,116.999996429443,10|0,0:0|0:0,0:0:0:0:
297,149,102636,6,0,B|290:127|261:103|261:103|272:58|272:58|242:-13,1,155.999995239258,2|10,3:0|0:0,0:0:0:0:
174,48,103236,2,0,P|121:62|0:99,1,155.999995239258,2|0,3:0|3:0,0:0:0:0:
78,158,103836,2,0,P|76:204|43:224,1,77.999997619629,8|2,0:0|0:0,0:0:0:0:
23,252,104136,1,0,0:0:0:0:
23,252,104236,6,0,L|45:341,1,77.999997619629,2|2,3:0|3:0,0:0:0:0:
120,291,104636,2,0,L|142:380,1,77.999997619629,10|2,0:0|3:0,0:0:0:0:
138,366,104936,1,0,3:0:0:0:
138,366,105036,1,2,3:0:0:0:
215,329,105236,1,2,3:0:0:0:
292,365,105436,2,0,P|338:357|347:325,1,77.999997619629,10|2,0:0|0:0,0:0:0:0:
430,311,105836,6,0,B|331:283|331:283|325:211,1,155.999995239258,2|10,3:0|0:0,0:0:0:0:
326,230,106436,1,2,3:0:0:0:
400,186,106636,2,0,B|432:159|432:159|406:75|406:75|396:102,1,155.999995239258,0|8,3:0|0:0,0:0:0:0:
319,137,107236,1,2,0:0:0:0:
319,137,107336,1,0,0:0:0:0:
319,137,107436,6,0,L|232:117,2,77.999997619629,6|2|10,3:0|0:0|0:0,0:0:0:0:
367,207,108036,2,0,L|355:257,1,38.9999988098145,2|0,3:0|3:0,0:0:0:0:
339,284,108236,2,0,P|351:328|362:379,1,77.999997619629,2|2,3:0|3:0,0:0:0:0:
273,373,108636,2,0,P|209:359|207:325,1,77.999997619629,10|2,0:0|3:0,0:0:0:0:
182,320,108936,1,0,0:0:0:0:
182,320,109036,6,0,B|146:313|112:285|112:285|88:323|41:339,1,155.999995239258,2|10,3:0|0:0,0:0:0:0:
0,271,109636,1,2,3:0:0:0:
0,271,109736,1,0,3:0:0:0:
0,271,109836,1,0,3:0:0:0:
59,209,110036,1,0,3:0:0:0:
0,271,110236,2,0,P|33:340|39:364,1,77.999997619629,10|0,0:0|0:0,0:0:0:0:
114,368,110636,6,0,P|164:304|252:334,1,155.999995239258,2|10,3:0|0:0,0:0:0:0:
302,264,111236,2,0,P|319:257|349:251,2,38.9999988098145,2|0|0,3:0|3:0|3:0,0:0:0:0:
242,201,111636,1,2,3:0:0:0:
242,201,111836,2,0,P|243:155|289:142,1,77.999997619629,8|2,0:0|0:0,0:0:0:0:
334,87,112236,5,0,3:0:0:0:
334,87,112436,1,0,3:0:0:0:
276,23,112636,2,0,L|193:45,1,77.999997619629,8|2,0:0|3:0,0:0:0:0:
200,42,112936,1,0,3:0:0:0:
200,42,113036,1,2,3:0:0:0:
123,3,113236,1,2,3:0:0:0:
45,40,113436,2,0,B|20:55|20:55|52:122,1,77.999997619629,8|2,0:0|0:0,0:0:0:0:
59,138,113736,1,0,0:0:0:0:
59,138,113836,6,0,L|36:226,1,77.999997619629,6|0,3:0|0:0,0:0:0:0:
100,273,114236,1,10,0:0:0:0:
172,227,114436,1,2,3:0:0:0:
172,227,114536,1,0,3:0:0:0:
172,227,114636,2,0,P|218:238|266:252,1,77.999997619629,2|2,3:0|3:0,0:0:0:0:
326,287,115036,2,0,P|355:265|344:201,1,77.999997619629,10|2,0:0|3:0,0:0:0:0:
327,146,115436,6,0,B|293:107|293:107|413:140,1,155.999995239258,2|10,3:0|0:0,0:0:0:0:
412,51,116036,2,0,L|450:210,1,155.999995239258,2|0,3:0|3:0,0:0:0:0:
510,262,116636,2,0,B|507:291|507:291|438:316,1,77.999997619629,8|2,0:0|0:0,0:0:0:0:
461,307,116936,1,0,0:0:0:0:
461,307,117036,5,2,3:0:0:0:
391,358,117236,1,2,3:0:0:0:
313,321,117436,2,0,L|331:240,1,77.999997619629,10|2,0:0|3:0,0:0:0:0:
329,244,117736,1,0,3:0:0:0:
329,244,117836,1,2,3:0:0:0:
294,177,118036,2,0,L|279:125,1,38.9999988098145,2|0,3:0|0:0,0:0:0:0:
312,107,118236,2,0,P|330:59|269:17,1,116.999996429443,10|0,0:0|0:0,0:0:0:0:
288,18,118636,6,0,B|255:22|226:38|226:38|176:31|176:31|130:57,1,155.999995239258,2|10,3:0|0:0,0:0:0:0:
141,50,119236,1,2,3:0:0:0:
36,113,119436,2,0,P|-2:57|71:47,1,155.999995239258,0|8,3:0|0:0,0:0:0:0:
118,147,120036,1,2,0:0:0:0:
118,147,120136,1,0,0:0:0:0:
118,147,120236,5,6,3:0:0:0:
41,198,120436,1,2,0:0:0:0:
41,198,120636,2,0,L|69:289,1,77.999997619629,8|2,0:0|3:0,0:0:0:0:
73,315,120936,1,0,3:0:0:0:
73,315,121036,1,2,3:0:0:0:
141,275,121236,1,2,3:0:0:0:
213,320,121436,2,0,P|290:299|304:298,1,77.999997619629,10|2,0:0|3:0,0:0:0:0:
287,299,121736,1,0,0:0:0:0:
287,299,121836,6,0,B|302:289|303:271|303:271|258:181|258:181|259:165|279:149,1,155.999995239258,2|10,3:0|0:0,0:0:0:0:
328,100,122436,2,0,L|314:47,2,38.9999988098145,2|0|0,3:0|3:0|3:0,0:0:0:0:
402,143,122836,1,0,3:0:0:0:
402,143,123036,2,0,P|448:144|470:170,1,77.999997619629,10|0,0:0|0:0,0:0:0:0:
484,250,123436,6,0,B|468:263|459:278|459:278|377:259|377:259|380:235|367:211,1,155.999995239258,2|10,3:0|0:0,0:0:0:0:
293,257,124036,1,2,3:0:0:0:
293,257,124136,1,0,3:0:0:0:
293,257,124236,1,0,3:0:0:0:
339,329,124436,1,2,3:0:0:0:
293,257,124636,2,0,P|241:215|185:241,1,116.999996429443,8|0,0:0|0:0,0:0:0:0:
197,227,125036,5,4,3:0:0:0:
138,163,125236,1,10,0:0:0:0:
207,112,125436,2,0,L|232:27,1,77.999997619629,0|2,0:0|3:0,0:0:0:0:
192,13,125736,1,0,0:0:0:0:
192,13,125836,1,10,0:0:0:0:
119,59,126036,1,8,0:0:0:0:
31,28,126236,2,0,P|40:54|46:82,1,38.9999988098145,0|0,3:0|0:0,0:0:0:0:
54,106,126436,1,0,3:0:0:0:
27,187,126636,6,0,P|75:202|91:240,1,77.999997619629,6|2,3:0|0:0,0:0:0:0:
166,261,127036,2,0,P|145:316|137:352,1,77.999997619629,2|2,3:0|0:0,0:0:0:0:
219,369,127436,1,8,0:0:0:0:
219,369,127636,1,2,0:0:0:0:
252,293,127836,2,0,P|294:278|303:235,1,77.999997619629,0|0,3:0|0:0,0:0:0:0:
257,177,128236,6,0,P|242:120|230:91,2,77.999997619629,2|2|2,3:0|0:0|3:0,0:0:0:0:
304,249,128836,1,2,0:0:0:0:
304,249,129036,2,0,P|364:239|388:240,1,77.999997619629,8|2,0:0|0:0,0:0:0:0:
421,163,129436,1,10,0:0:0:0:
364,98,129636,1,0,3:0:0:0:
364,98,129736,1,8,0:0:0:0:
364,98,129836,6,0,P|360:40|418:26,1,116.999996429443,6|0,3:0|0:0,0:0:0:0:
408,22,130236,2,0,P|459:42|495:53,1,77.999997619629,2|0,3:0|0:0,0:0:0:0:
511,130,130636,2,0,B|524:192|482:207|441:213|473:303,1,155.999995239258,10|2,0:0|3:0,0:0:0:0:
464,270,131236,1,8,0:0:0:0:
512,344,131436,6,0,P|436:325|423:403,2,155.999995239258,0|2|8,3:0|3:0|0:0,0:0:0:0:
376,273,132436,1,0,0:0:0:0:
376,273,132636,2,0,P|299:286|265:296,1,77.999997619629,8|0,0:0|3:0,0:0:0:0:
299,285,132936,1,8,0:0:0:0:
299,285,133036,5,6,3:0:0:0:
232,232,133236,1,2,0:0:0:0:
291,170,133436,1,2,3:0:0:0:
251,93,133636,1,2,0:0:0:0:
251,93,133836,2,0,P|210:101|167:112,1,77.999997619629,8|2,0:0|0:0,0:0:0:0:
146,28,134236,2,0,P|191:19|230:9,1,77.999997619629,0|8,3:0|0:0,0:0:0:0:
314,32,134636,5,2,3:0:0:0:
314,32,134836,1,2,0:0:0:0:
366,105,135036,2,0,P|351:153|342:187,1,77.999997619629,2|2,3:0|0:0,0:0:0:0:
261,205,135436,1,8,0:0:0:0:
261,205,135636,1,2,0:0:0:0:
180,176,135836,2,0,B|158:186|158:186|183:249,1,77.999997619629,10|0,0:0|3:0,0:0:0:0:
197,274,136136,1,8,0:0:0:0:
197,274,136236,6,0,L|106:255,1,77.999997619629,6|0,3:0|0:0,0:0:0:0:
77,183,136636,2,0,L|-13:164,1,77.999997619629,2|0,3:0|0:0,0:0:0:0:
26,84,137036,2,0,B|79:76|79:76|112:55|112:55|132:96|178:114,1,155.999995239258,10|2,0:0|3:0,0:0:0:0:
153,101,137636,1,8,0:0:0:0:
223,22,137836,6,0,P|238:96|255:183,2,155.999995239258,2|2|10,3:0|3:0|0:0,0:0:0:0:
334,87,138836,1,0,0:0:0:0:
417,46,139036,2,0,P|412:32|409:1,2,38.9999988098145,8|8|8,0:0|0:0|0:0,0:0:0:0:
446,62,139336,1,8,0:0:0:0:
446,62,139436,5,6,3:0:0:0:
512,117,139636,1,8,0:0:0:0:
444,181,139836,2,0,P|384:187|350:199,1,77.999997619629,8|0,0:0|0:0,0:0:0:0:
334,202,140136,1,0,0:0:0:0:
334,202,140236,2,0,P|383:224|391:292,2,116.999996429443,8|8|8,0:0|0:0|0:0,0:0:0:0:
295,222,140936,1,8,0:0:0:0:
295,222,141036,5,2,3:0:0:0:
228,167,141236,1,8,0:0:0:0:
153,210,141436,2,0,P|143:162|134:131,1,77.999997619629,8|0,0:0|0:0,0:0:0:0:
49,124,141836,2,0,P|72:60|89:9,2,116.999996429443,8|8|8,0:0|0:0|0:0,0:0:0:0:
75,158,142536,1,0,0:0:0:0:
75,158,142636,6,0,L|94:217,1,38.9999988098145,6|0,3:0|0:0,0:0:0:0:
60,229,142836,1,8,0:0:0:0:
122,287,143036,1,10,0:0:0:0:
122,287,143236,1,0,0:0:0:0:
200,253,143436,2,0,L|337:285,2,116.999996429443,10|8|8,0:0|0:0|0:0,0:0:0:0:
183,213,144136,1,0,0:0:0:0:
183,213,144236,5,10,0:0:0:0:
241,150,144436,1,0,0:0:0:0:
241,150,144636,2,0,P|229:108|212:60,1,77.999997619629,2|8,3:0|0:0,0:0:0:0:
240,40,144936,1,0,0:0:0:0:
240,40,145036,2,0,P|290:46|307:77,1,77.999997619629,2|8,3:0|0:0,0:0:0:0:
375,115,145436,1,10,0:0:0:0:
335,191,145636,1,8,0:0:0:0:
446,255,145836,6,0,L|307:283,1,116.999996429443,6|0,3:0|0:0,0:0:0:0:
331,278,146236,2,0,P|362:322|354:357,1,77.999997619629,10|2,0:0|3:0,0:0:0:0:
282,380,146636,1,10,0:0:0:0:
282,380,146836,1,2,3:0:0:0:
218,322,147036,2,0,L|111:300,1,77.999997619629,10|2,0:0|3:0,0:0:0:0:
102,324,147336,1,0,3:0:0:0:
102,324,147436,6,0,P|48:297|49:267,2,77.999997619629,10|2|10,0:0|0:0|0:0,0:0:0:0:
164,237,148036,1,2,3:0:0:0:
164,237,148236,2,0,B|165:219|144:180|144:180|159:140|159:140|143:111|137:78,1,155.999995239258,8|8,0:0|0:0,0:0:0:0:
62,15,148836,1,2,3:0:0:0:
62,15,148936,1,0,3:0:0:0:
62,15,149036,6,0,L|41:103,1,77.999997619629,2|2,3:0|3:0,0:0:0:0:
109,145,149436,1,2,3:0:0:0:
109,145,149636,1,2,3:0:0:0:
196,67,149836,2,0,L|218:166,1,77.999997619629,10|0,0:0|3:0,0:0:0:0:
278,196,150236,1,2,3:0:0:0:
278,196,150436,1,2,3:0:0:0:
183,267,150636,5,14,0:0:0:0:
247,345,150836,2,0,P|235:370|225:401,2,38.9999988098145,2|2|0,3:0|3:0|3:0,0:0:0:0:
326,284,151236,2,0,P|398:296|412:345,1,116.999996429443,10|0,0:0|0:0,0:0:0:0:
412,330,151636,1,8,0:0:0:0:
459,249,151836,1,8,0:0:0:0:
447,216,151936,1,8,0:0:0:0:
437,183,152036,1,8,0:0:0:0:
426,151,152136,1,8,0:0:0:0:
415,122,152236,6,0,P|369:119|340:155,1,84.4999961318971,6|2,3:0|0:0,0:0:0:0:
284,211,152636,1,10,0:0:0:0:
210,154,152836,2,0,P|183:147|147:136,1,42.2499980659486,2|0,3:0|3:0,0:0:0:0:
135,110,153036,2,0,P|92:122|41:133,1,84.4999961318971,2|2,3:0|3:0,0:0:0:0:
96,212,153436,2,0,P|52:220|2:235,1,84.4999961318971,10|2,0:0|0:0,0:0:0:0:
11,278,153736,1,0,0:0:0:0:
11,278,153836,6,0,P|60:324|58:349,2,84.4999961318971,2|2|10,3:0|3:0|0:0,0:0:0:0:
138,281,154436,1,2,3:0:0:0:
138,281,154536,1,0,3:0:0:0:
138,281,154636,1,0,3:0:0:0:
227,325,154836,1,0,3:0:0:0:
279,248,155036,2,0,L|246:160,1,84.4999961318971,8|2,0:0|3:0,0:0:0:0:
233,125,155336,1,0,0:0:0:0:
233,125,155436,6,0,B|245:98|245:98|311:113,1,84.4999961318971,2|2,3:0|0:0,0:0:0:0:
369,171,155836,1,10,0:0:0:0:
444,116,156036,1,2,3:0:0:0:
444,116,156136,1,0,3:0:0:0:
444,116,156236,2,0,B|393:169|393:169|428:238|428:238|453:217,1,168.999992263794,2|10,3:0|0:0,0:0:0:0:
503,296,156836,1,2,0:0:0:0:
425,346,157036,6,0,L|322:325,2,84.4999961318971,2|2|10,3:0|3:0|0:0,0:0:0:0:
503,296,157636,2,0,P|496:273|486:245,2,42.2499980659486,2|0|0,3:0|3:0|3:0,0:0:0:0:
412,238,158036,1,0,3:0:0:0:
477,172,158236,2,0,P|475:116|444:97,1,84.4999961318971,8|2,0:0|3:0,0:0:0:0:
441,55,158536,1,0,0:0:0:0:
441,55,158636,6,0,B|396:46|358:77|358:77|301:66|310:9,1,168.999992263794,6|10,3:0|0:0,0:0:0:0:
245,92,159236,1,0,3:0:0:0:
245,92,159336,1,0,3:0:0:0:
245,92,159436,2,0,L|271:187,1,84.4999961318971,2|0,3:0|3:0,0:0:0:0:
225,256,159836,1,10,0:0:0:0:
293,318,160036,1,2,0:0:0:0:
225,256,160236,6,0,B|178:244|178:244|133:266|133:266|111:257|80:249,1,126.749994197846,2|0,3:0|0:0,0:0:0:0:
107,256,160636,2,0,P|95:210|71:160,1,84.4999961318971,10|2,0:0|3:0,0:0:0:0:
114,145,160936,1,0,3:0:0:0:
114,145,161036,1,2,3:0:0:0:
40,87,161236,2,0,P|29:37|63:10,2,84.4999961318971,2|10|2,3:0|0:0|3:0,0:0:0:0:
114,145,161836,5,0,3:0:0:0:
187,87,162036,1,2,0:0:0:0:
187,87,162236,2,0,P|245:108|276:118,1,84.4999961318971,8|2,0:0|3:0,0:0:0:0:
266,115,162536,1,0,3:0:0:0:
266,115,162636,1,2,3:0:0:0:
332,180,162836,1,2,3:0:0:0:
257,235,163036,2,0,B|248:254|248:254|175:231,1,84.4999961318971,10|2,0:0|3:0,0:0:0:0:
119,273,163436,6,0,L|149:381,1,90.9999972229005,4|0,3:0|3:0,0:0:0:0:
245,384,163836,1,8,0:0:0:0:
329,311,164036,1,8,0:0:0:0:
329,311,164136,1,8,0:0:0:0:
329,311,164236,1,4,3:0:0:0:
289,216,164436,1,0,3:0:0:0:
345,124,164636,1,8,0:0:0:0:
380,138,164736,1,8,0:0:0:0:
414,153,164836,1,10,0:0:0:0:
449,167,164936,1,8,0:0:0:0:
478,181,165036,6,0,P|489:233|508:283,1,84.4999961318971,6|2,3:0|0:0,0:0:0:0:
444,348,165436,2,0,P|390:332|380:302,1,84.4999961318971,10|2,0:0|3:0,0:0:0:0:
389,264,165736,1,0,3:0:0:0:
389,264,165836,1,2,3:0:0:0:
323,197,166036,1,2,3:0:0:0:
233,221,166236,2,0,P|185:207|145:199,1,84.4999961318971,10|2,0:0|0:0,0:0:0:0:
125,160,166536,1,0,0:0:0:0:
125,160,166636,6,0,P|120:102|89:89,2,84.4999961318971,2|2|10,3:0|3:0|0:0,0:0:0:0:
46,210,167236,2,0,P|-16:196|-22:195,2,42.2499980659486,2|0|0,3:0|3:0|3:0,0:0:0:0:
99,286,167636,2,0,P|80:333|79:338,1,42.2499980659486,0|0,3:0|0:0,0:0:0:0:
107,363,167836,1,8,0:0:0:0:
188,317,168036,1,2,3:0:0:0:
188,317,168136,1,0,0:0:0:0:
188,317,168236,6,0,L|295:346,1,84.4999961318971,2|2,3:0|0:0,0:0:0:0:
304,253,168636,2,0,L|411:282,1,84.4999961318971,10|2,0:0|3:0,0:0:0:0:
385,275,168936,1,0,3:0:0:0:
385,275,169036,1,2,3:0:0:0:
440,200,169236,1,2,3:0:0:0:
390,121,169436,1,10,0:0:0:0:
304,157,169636,1,2,0:0:0:0:
304,157,169736,1,0,0:0:0:0:
304,157,169836,6,0,P|256:131|256:75,1,84.4999961318971,2|2,3:0|3:0,0:0:0:0:
157,83,170236,2,0,P|174:31|229:21,1,84.4999961318971,10|2,0:0|3:0,0:0:0:0:
198,18,170536,1,0,3:0:0:0:
198,18,170636,2,0,B|208:29|222:31|222:31|336:5|336:5|359:4|363:31,1,168.999992263794,2|8,3:0|0:0,0:0:0:0:
431,72,171236,1,2,3:0:0:0:
431,72,171336,1,0,0:0:0:0:
431,72,171436,6,0,B|451:93|451:93|424:154,1,84.4999961318971,6|2,3:0|0:0,0:0:0:0:
389,227,171836,2,0,L|289:199,1,84.4999961318971,2|2,0:0|3:0,0:0:0:0:
244,135,172236,1,10,0:0:0:0:
244,135,172436,1,2,0:0:0:0:
175,198,172636,2,0,P|188:229|201:279,1,84.4999961318971,2|10,0:0|0:0,0:0:0:0:
239,304,172936,1,0,0:0:0:0:
239,304,173036,5,2,3:0:0:0:
181,377,173236,1,2,3:0:0:0:
103,326,173436,2,0,P|83:331|45:346,2,42.2499980659486,10|8|2,0:0|0:0|3:0,0:0:0:0:
138,240,173836,2,0,P|154:195|161:186,1,42.2499980659486,8|8,0:0|0:0,0:0:0:0:
122,163,174036,1,0,3:0:0:0:
191,101,174236,1,8,0:0:0:0:
122,37,174436,1,0,3:0:0:0:
122,37,174536,1,0,3:0:0:0:
122,37,174636,6,0,B|150:0|150:0|252:39,1,143.000004364014,6|2,3:0|0:0,0:0:0:0:
240,34,175236,1,2,3:0:0:0:
307,88,175436,2,0,L|394:74,1,71.5000021820069,10|2,0:0|3:0,0:0:0:0:
443,21,175836,2,0,P|489:43|474:105,1,107.25000327301,2|0,3:0|0:0,0:0:0:0:
486,94,176236,6,0,B|469:114|469:114|492:211|492:211|464:238,1,143.000004364014,2|2,3:0|3:0,0:0:0:0:
504,306,176836,2,0,P|474:253|390:271,1,143.000004364014,2|0,3:0|0:0,0:0:0:0:
341,338,177436,2,0,L|325:260,1,71.5000021820069,10|0,0:0|0:0,0:0:0:0:
372,195,177836,6,0,B|392:178|392:178|364:117,1,71.5000021820069,2|2,3:0|0:0,0:0:0:0:
333,60,178236,1,2,0:0:0:0:
333,60,178436,1,2,3:0:0:0:
259,104,178636,1,10,0:0:0:0:
259,104,178836,1,2,3:0:0:0:
179,71,179036,2,0,P|149:76|94:90,1,71.5000021820069,2|10,3:0|0:0,0:0:0:0:
76,57,179336,1,0,3:0:0:0:
76,57,179436,6,0,P|70:19|103:-2,2,71.5000021820069,2|10|2,3:0|0:0|3:0,0:0:0:0:
18,120,180036,1,2,3:0:0:0:
18,120,180236,2,0,B|32:140|34:172|34:172|14:206|14:206|31:232|36:275,1,143.000004364014,8|8,0:0|0:0,0:0:0:0:
79,322,180836,1,0,0:0:0:0:
79,322,180936,1,0,0:0:0:0:
79,322,181036,6,0,L|165:305,1,77.999997619629,14|0,0:0|3:0,0:0:0:0:
190,227,181436,2,0,L|276:210,1,77.999997619629,10|0,0:0|3:0,0:0:0:0:
320,278,181836,1,10,0:0:0:0:
386,224,182036,1,0,3:0:0:0:
386,224,182136,1,0,3:0:0:0:
386,224,182236,1,10,0:0:0:0:
337,152,182436,1,2,3:0:0:0:
337,152,182636,6,0,P|322:90|314:65,1,77.999997619629,10|0,0:0|3:0,0:0:0:0:
396,31,183036,2,0,P|411:93|419:118,1,77.999997619629,10|0,0:0|3:0,0:0:0:0:
480,162,183436,1,10,0:0:0:0:
423,232,183636,1,0,3:0:0:0:
423,232,183736,1,0,3:0:0:0:
423,232,183836,2,0,B|384:217|384:217|337:262,1,77.999997619629,10|0,0:0|3:0,0:0:0:0:
319,260,184136,1,0,0:0:0:0:
319,260,184236,6,0,L|339:341,1,77.999997619629,14|0,0:0|3:0,0:0:0:0:
266,383,184636,2,0,P|193:358|174:354,1,77.999997619629,8|0,0:0|3:0,0:0:0:0:
131,297,185036,1,8,0:0:0:0:
64,351,185236,2,0,P|44:358|8:367,2,38.9999988098145,0|0|8,3:0|3:0|0:0,0:0:0:0:
131,297,185636,2,0,P|137:275|145:252,1,38.9999988098145,2|0,3:0|0:0,0:0:0:0:
178,235,185836,6,0,B|194:222|194:222|159:136,1,77.999997619629,10|2,0:0|3:0,0:0:0:0:
90,141,186236,2,0,B|74:128|74:128|109:42,1,77.999997619629,10|2,0:0|3:0,0:0:0:0:
118,37,186536,1,0,3:0:0:0:
118,37,186636,1,10,0:0:0:0:
195,94,186836,1,2,3:0:0:0:
117,151,187036,1,10,0:0:0:0:
90,141,187136,1,8,0:0:0:0:
62,132,187236,1,10,0:0:0:0:
36,123,187336,1,8,0:0:0:0:
9,111,187436,6,0,L|31:206,1,84.4999961318971,6|2,3:0|0:0,0:0:0:0:
42,237,187736,1,2,0:0:0:0:
42,237,187836,1,10,0:0:0:0:
109,300,188036,1,2,3:0:0:0:
45,368,188236,2,0,B|87:356|115:336|115:336|174:377|174:377|187:367|208:360,1,168.999992263794,2|10,3:0|0:0,0:0:0:0:
267,313,188836,1,2,3:0:0:0:
267,313,188936,1,0,0:0:0:0:
267,313,189036,6,0,L|251:217,1,84.4999961318971,0|2,3:0|3:0,0:0:0:0:
321,165,189436,1,8,0:0:0:0:
390,227,189636,2,0,P|432:244|442:251,2,42.2499980659486,2|0|0,3:0|0:0|3:0,0:0:0:0:
321,165,190036,1,2,3:0:0:0:
399,113,190236,2,0,P|397:63|368:37,1,84.4999961318971,8|2,0:0|3:0,0:0:0:0:
329,28,190536,1,0,0:0:0:0:
329,28,190636,6,0,B|302:64|302:64|188:33,1,126.749994197846,2|0,3:0|0:0,0:0:0:0:
223,42,191036,1,8,0:0:0:0:
135,72,191236,1,0,3:0:0:0:
135,72,191336,1,0,0:0:0:0:
135,72,191436,1,2,3:0:0:0:
175,155,191636,2,0,L|195:221,1,42.2499980659486,0|0,3:0|0:0,0:0:0:0:
202,239,191836,2,0,L|171:344,1,84.4999961318971,10|0,0:0|3:0,0:0:0:0:
247,382,192236,6,0,B|322:388|327:338|315:298|418:319,1,168.999992263794,6|10,3:0|0:0,0:0:0:0:
471,271,192836,1,0,3:0:0:0:
471,271,192936,1,0,0:0:0:0:
471,271,193036,2,0,L|488:369,1,84.4999961318971,4|0,3:0|3:0,0:0:0:0:
389,314,193436,2,0,L|374:230,1,84.4999961318971,8|0,0:0|3:0,0:0:0:0:
441,166,193836,5,6,3:0:0:0:
441,166,193936,1,2,0:0:0:0:
441,166,194036,1,2,3:0:0:0:
367,109,194236,1,10,0:0:0:0:
284,152,194436,2,0,P|257:158|234:166,2,42.2499980659486,2|2|2,3:0|0:0|3:0,0:0:0:0:
367,109,194836,1,2,3:0:0:0:
307,37,195036,1,10,0:0:0:0:
307,37,195136,1,2,0:0:0:0:
307,37,195236,6,0,B|291:14|291:14|217:35,1,84.4999961318971,2|2,3:0|3:0,0:0:0:0:
149,60,195636,2,0,L|97:46,2,42.2499980659486,2|2|10,3:0|0:0|0:0,0:0:0:0:
215,124,196036,1,2,3:0:0:0:
150,190,196236,1,2,3:0:0:0:
150,190,196336,1,2,0:0:0:0:
150,190,196436,1,2,3:0:0:0:
196,273,196636,2,0,P|182:317|172:360,1,84.4999961318971,10|2,0:0|3:0,0:0:0:0:
138,384,196936,1,0,0:0:0:0:
138,384,197036,6,0,P|83:370|73:334,1,84.4999961318971,14|0,0:0|3:0,0:0:0:0:
112,269,197436,1,8,0:0:0:0:
112,269,197636,1,2,3:0:0:0:
222,235,197836,6,0,P|268:202|264:165,1,84.4999961318971,10|0,0:0|3:0,0:0:0:0:
205,118,198236,1,8,0:0:0:0:
205,118,198436,1,2,3:0:0:0:
71,150,198636,6,0,P|6:135|-3:135,2,56.3333307545981,6|2|2,3:0|0:0|0:0,0:0:0:0:
111,197,199036,2,0,P|176:182|185:182,2,56.3333307545981,2|0|0,3:0|0:0|0:0,0:0:0:0:
67,241,199436,2,0,P|2:226|-7:226,2,56.3333307545981,0|0|0,3:0|0:0|0:0,0:0:0:0:
99,287,199836,2,0,P|91:311|86:345,3,42.2499980659486,8|8|8|8,0:0|0:0|0:0|0:0,0:0:0:0:
99,287,200236,5,4,3:0:0:0:
112,283,200636,1,0,3:0:0:0:
126,278,201036,1,0,3:0:0:0:
140,274,201436,1,0,3:0:0:0:
243,338,201836,5,0,3:0:0:0:
256,341,202236,1,0,3:0:0:0:
270,344,202636,1,0,3:0:0:0:
282,348,203036,2,0,P|299:288|257:256,1,107.25000327301,8|0,0:0|0:0,0:0:0:0:
242,227,203436,6,0,L|264:145,1,71.5000021820069,2|0,3:0|0:0,0:0:0:0:
340,191,203836,2,0,L|362:109,1,71.5000021820069,2|0,3:0|0:0,0:0:0:0:
318,46,204236,2,0,B|340:99|340:99|428:79,1,143.000004364014,2|2,3:0|3:0,0:0:0:0:
423,80,204836,1,0,0:0:0:0:
479,144,205036,2,0,B|461:178|444:198|444:198|470:240|470:240|470:283,2,143.000004364014,0|2|0,3:0|3:0|3:0,0:0:0:0:
410,92,206236,1,0,3:0:0:0:
410,92,206436,1,0,0:0:0:0:
410,92,206636,6,0,P|376:101|325:111,1,71.5000021820069,4|0,3:0|0:0,0:0:0:0:
261,143,207036,2,0,P|200:128|173:125,1,71.5000021820069,0|0,3:0|0:0,0:0:0:0:
116,84,207436,2,0,P|106:44|146:11,2,71.5000021820069,0|0|0,3:0|0:0|3:0,0:0:0:0:
191,126,208036,1,0,0:0:0:0:
191,126,208236,6,0,L|211:218,1,71.5000021820069,0|0,3:0|0:0,0:0:0:0:
137,248,208636,2,0,L|157:340,1,71.5000021820069,0|0,3:0|0:0,0:0:0:0:
72,349,209036,2,0,P|32:331|24:299,1,71.5000021820069,0|0,3:0|0:0,0:0:0:0:
50,225,209436,2,0,B|69:201|69:201|26:111,1,107.25000327301,10|0,0:0|0:0,0:0:0:0:
35,131,209836,6,0,L|123:160,1,71.5000021820069,2|0,3:0|0:0,0:0:0:0:
160,88,210236,1,2,3:0:0:0:
160,88,210436,1,0,0:0:0:0:
229,138,210636,2,0,P|211:188|200:229,1,71.5000021820069,10|0,0:0|0:0,0:0:0:0:
137,258,211036,2,0,P|139:303|182:323,1,71.5000021820069,2|0,3:0|0:0,0:0:0:0:
235,354,211436,6,0,B|315:335|315:335|345:301|313:255,2,143.000004364014,2|2|10,3:0|3:0|0:0,0:0:0:0:
157,318,212436,1,0,0:0:0:0:
221,261,212636,2,0,P|228:241|238:220,1,35.7500010910034,0|0,3:0|0:0,0:0:0:0:
266,199,212836,1,8,0:0:0:0:
334,147,213036,6,0,P|354:90|269:50,1,143.000004364014,6|0,3:0|0:0,0:0:0:0:
297,43,213636,1,0,3:0:0:0:
224,89,213836,2,0,L|124:67,1,71.5000021820069,8|0,0:0|3:0,0:0:0:0:
82,25,214236,1,0,0:0:0:0:
82,25,214636,6,0,B|51:49|51:49|91:131,2,107.25000327301,2|0|0,3:0|3:0|3:0,0:0:0:0:
157,132,215436,2,0,L|129:248,1,107.25000327301,8|0,0:0|0:0,0:0:0:0:
131,236,215836,1,2,3:0:0:0:
190,297,216036,1,8,0:0:0:0:
126,354,216236,6,0,P|63:336|42:333,1,71.5000021820069,6|0,3:0|0:0,0:0:0:0:
3,267,216636,2,0,P|-11:221|17:190,1,71.5000021820069,2|0,0:0|3:0,0:0:0:0:
23,120,217036,2,0,B|57:118|82:109|82:109|115:127|115:127|170:116,1,143.000004364014,10|2,0:0|0:0,0:0:0:0:
159,118,217636,1,0,0:0:0:0:
223,174,217836,6,0,L|312:195,1,71.5000021820069,2|0,3:0|0:0,0:0:0:0:
359,136,218236,1,2,0:0:0:0:
359,136,218436,1,0,3:0:0:0:
420,196,218636,2,0,P|489:180|487:131,1,107.25000327301,10|0,0:0|0:0,0:0:0:0:
476,131,219036,1,10,0:0:0:0:
458,106,219136,1,8,0:0:0:0:
454,74,219236,1,8,0:0:0:0:
464,49,219336,1,8,0:0:0:0:
487,28,219436,6,0,L|365:54,1,116.999996429443,4|0,3:0|0:0,0:0:0:0:
338,78,219836,2,0,P|293:42|252:54,1,77.999997619629,10|2,0:0|3:0,0:0:0:0:
213,103,220236,1,10,0:0:0:0:
213,103,220436,1,2,3:0:0:0:
277,160,220636,2,0,P|294:220|306:266,1,77.999997619629,10|0,0:0|3:0,0:0:0:0:
313,275,220936,1,0,3:0:0:0:
313,275,221036,6,0,P|369:276|382:234,2,77.999997619629,10|2|10,0:0|0:0|0:0,0:0:0:0:
253,337,221636,1,2,3:0:0:0:
253,337,221836,2,0,B|212:327|177:355|177:355|120:351|126:290,1,155.999995239258,8|8,0:0|0:0,0:0:0:0:
185,248,222436,1,2,3:0:0:0:
185,248,222536,1,0,3:0:0:0:
185,248,222636,6,0,L|288:229,1,77.999997619629,6|2,3:0|3:0,0:0:0:0:
318,169,223036,1,2,3:0:0:0:
318,169,223236,1,2,3:0:0:0:
325,78,223436,2,0,L|428:97,1,77.999997619629,10|2,0:0|3:0,0:0:0:0:
458,157,223836,1,2,3:0:0:0:
458,157,224036,1,2,3:0:0:0:
393,238,224236,5,14,0:0:0:0:
445,324,224436,1,2,3:0:0:0:
393,238,224636,1,2,3:0:0:0:
305,289,224836,2,0,P|250:274|179:259,1,116.999996429443,10|0,0:0|0:0,0:0:0:0:
191,261,225236,1,8,0:0:0:0:
274,187,225436,1,8,0:0:0:0:
274,187,225836,6,0,P|264:149|256:93,1,77.999997619629,12|0,0:0|3:0,0:0:0:0:
257,110,226136,1,0,3:0:0:0:
257,110,226236,1,0,3:0:0:0:
158,57,226436,6,0,P|168:95|176:151,1,77.999997619629,8|0,0:0|3:0,0:0:0:0:
174,133,226736,1,0,3:0:0:0:
174,133,226836,1,0,3:0:0:0:
98,174,227036,1,8,0:0:0:0:
62,163,227136,1,8,0:0:0:0:
28,174,227236,1,8,0:0:0:0:
10,206,227336,1,8,0:0:0:0:
11,240,227436,6,0,P|37:296|44:328,1,84.4999961318971,4|2,3:0|0:0,0:0:0:0:
121,367,227836,1,10,0:0:0:0:
189,304,228036,1,2,3:0:0:0:
189,304,228136,1,0,3:0:0:0:
189,304,228236,2,0,P|231:268|273:277,2,84.4999961318971,2|2|10,3:0|3:0|0:0,0:0:0:0:
134,228,228836,2,0,L|120:178,1,42.2499980659486,2|0,0:0|0:0,0:0:0:0:
157,156,229036,5,2,3:0:0:0:
91,89,229236,1,2,3:0:0:0:
168,38,229436,2,0,L|272:61,1,84.4999961318971,10|2,0:0|3:0,0:0:0:0:
250,56,229736,1,0,3:0:0:0:
250,56,229836,1,0,3:0:0:0:
313,124,230036,1,0,3:0:0:0:
374,54,230236,2,0,B|388:34|388:34|469:52,1,84.4999961318971,8|2,0:0|3:0,0:0:0:0:
491,60,230536,1,0,0:0:0:0:
491,60,230636,6,0,L|461:167,1,84.4999961318971,2|2,3:0|0:0,0:0:0:0:
506,227,231036,1,10,0:0:0:0:
443,295,231236,2,0,P|455:320|467:349,2,42.2499980659486,2|0|2,3:0|3:0|3:0,0:0:0:0:
364,245,231636,1,2,3:0:0:0:
364,245,231836,2,0,P|376:193|388:152,1,84.4999961318971,10|2,0:0|0:0,0:0:0:0:
351,130,232136,1,0,0:0:0:0:
351,130,232236,5,2,3:0:0:0:
269,174,232436,1,2,3:0:0:0:
351,130,232636,2,0,P|337:83|332:38,1,84.4999961318971,10|2,0:0|3:0,0:0:0:0:
332,47,232936,1,0,3:0:0:0:
332,47,233036,1,0,3:0:0:0:
247,84,233236,1,0,3:0:0:0:
161,48,233436,2,0,P|108:66|101:103,1,84.4999961318971,8|2,0:0|3:0,0:0:0:0:
125,128,233736,1,0,0:0:0:0:
125,128,233836,6,0,B|170:202|170:202|125:227|122:292,1,168.999992263794,6|10,3:0|0:0,0:0:0:0:
53,326,234436,1,0,3:0:0:0:
53,326,234536,1,0,3:0:0:0:
53,326,234636,1,2,3:0:0:0:
133,372,234836,2,0,P|205:352|231:351,2,84.4999961318971,2|10|0,3:0|0:0|0:0,0:0:0:0:
53,326,235436,6,0,B|19:307|19:307|60:211,1,126.749994197846,2|0,3:0|0:0,0:0:0:0:
53,226,235836,2,0,P|104:215|146:205,1,84.4999961318971,10|0,0:0|3:0,0:0:0:0:
162,169,236136,1,0,3:0:0:0:
162,169,236236,1,2,3:0:0:0:
227,235,236436,2,0,P|254:244|292:259,1,42.2499980659486,2|0,3:0|0:0,0:0:0:0:
308,229,236636,1,10,0:0:0:0:
366,156,236836,1,2,3:0:0:0:
366,156,236936,1,0,0:0:0:0:
366,156,237036,5,0,3:0:0:0:
455,182,237236,1,2,0:0:0:0:
455,182,237436,2,0,P|466:129|435:95,1,84.4999961318971,10|2,0:0|3:0,0:0:0:0:
451,106,237736,1,0,3:0:0:0:
451,106,237836,1,2,3:0:0:0:
402,26,238036,1,2,3:0:0:0:
320,70,238236,1,10,0:0:0:0:
320,70,238436,1,2,3:0:0:0:
214,12,238636,6,0,L|188:115,1,90.9999972229005,4|0,3:0|3:0,0:0:0:0:
256,176,239036,1,8,0:0:0:0:
175,235,239236,1,8,0:0:0:0:
175,235,239336,1,8,0:0:0:0:
175,235,239436,1,4,3:0:0:0:
105,162,239636,1,0,3:0:0:0:
175,235,239836,1,8,0:0:0:0:
197,268,239936,1,8,0:0:0:0:
203,303,240036,1,10,0:0:0:0:
195,335,240136,1,8,0:0:0:0:
169,360,240236,6,0,P|87:334|64:330,1,90.9999972229005,6|2,3:0|0:0,0:0:0:0:
12,271,240636,2,0,P|-9:226|30:185,1,84.4999961318971,10|2,0:0|3:0,0:0:0:0:
5,197,240936,1,0,3:0:0:0:
5,197,241036,1,2,3:0:0:0:
77,138,241236,1,2,3:0:0:0:
155,188,241436,2,0,P|217:172|249:167,1,84.4999961318971,10|2,0:0|0:0,0:0:0:0:
272,138,241736,1,0,0:0:0:0:
272,138,241836,6,0,P|325:144|339:188,2,84.4999961318971,2|2|10,3:0|3:0|0:0,0:0:0:0:
214,64,242436,2,0,P|152:50|146:49,2,42.2499980659486,2|0|0,3:0|3:0|3:0,0:0:0:0:
297,22,242836,1,0,3:0:0:0:
378,67,243036,2,0,P|425:62|466:52,1,84.4999961318971,8|2,0:0|3:0,0:0:0:0:
495,83,243336,1,0,0:0:0:0:
495,83,243436,6,0,L|466:174,1,84.4999961318971,2|2,3:0|0:0,0:0:0:0:
506,249,243836,2,0,L|477:340,1,84.4999961318971,8|2,0:0|3:0,0:0:0:0:
443,358,244136,1,0,3:0:0:0:
443,358,244236,1,2,3:0:0:0:
374,294,244436,2,0,L|305:315,1,42.2499980659486,2|0,3:0|0:0,0:0:0:0:
295,333,244636,1,10,0:0:0:0:
228,268,244836,1,2,0:0:0:0:
228,268,244936,1,0,0:0:0:0:
228,268,245036,5,2,3:0:0:0:
155,326,245236,1,2,3:0:0:0:
228,268,245436,2,0,L|210:167,1,84.4999961318971,10|2,0:0|3:0,0:0:0:0:
213,184,245736,1,0,3:0:0:0:
213,184,245836,2,0,B|184:152|184:152|105:176|105:176|93:239,1,168.999992263794,2|8,3:0|0:0,0:0:0:0:
4,215,246436,1,2,3:0:0:0:
4,215,246536,1,0,0:0:0:0:
4,215,246636,6,0,B|-16:194|-16:194|11:139,1,77.999997619629,6|2,3:0|0:0,0:0:0:0:
51,77,247036,2,0,L|130:64,1,77.999997619629,2|2,0:0|3:0,0:0:0:0:
204,24,247436,2,0,P|238:52|238:91,2,77.999997619629,10|2|2,0:0|0:0|0:0,0:0:0:0:
127,64,248036,1,10,0:0:0:0:
185,142,248236,6,0,B|270:94|310:153|308:250|420:199,1,260,6|2,3:0|0:0,0:0:0:0:
409,203,249236,1,2,0:0:0:0:
495,177,249436,2,0,P|484:212|467:289,1,97.5,2|0,0:0|0:0,0:0:0:0:
448,308,249836,6,0,L|347:331,1,77.999997619629,4|0,3:0|3:0,0:0:0:0:
298,280,250236,2,0,L|197:303,1,77.999997619629,10|0,0:0|3:0,0:0:0:0:
193,264,250536,1,0,3:0:0:0:
193,264,250636,2,0,B|242:252|242:252|210:121,1,155.999995239258,2|10,3:0|0:0,0:0:0:0:
274,76,251236,1,0,3:0:0:0:
201,29,251436,6,0,B|209:37|184:12|184:12|89:38|89:38|82:73,1,155.999995239258,2|10,3:0|0:0,0:0:0:0:
141,129,252036,1,0,3:0:0:0:
141,129,252136,1,0,3:0:0:0:
141,129,252236,1,2,3:0:0:0:
85,194,252436,1,0,3:0:0:0:
146,254,252636,2,0,P|230:277|239:280,1,77.999997619629,10|0,0:0|3:0,0:0:0:0:
261,257,252936,1,0,3:0:0:0:
261,257,253036,6,0,P|323:274|296:360,1,155.999995239258,2|8,3:0|0:0,0:0:0:0:
231,381,253636,1,0,3:0:0:0:
161,330,253836,1,2,3:0:0:0:
161,330,254036,1,0,3:0:0:0:
75,332,254236,2,0,P|37:287|47:264,1,77.999997619629,10|0,0:0|3:0,0:0:0:0:
69,243,254536,1,0,3:0:0:0:
69,243,254636,6,0,P|112:234|159:223,1,77.999997619629,0|0,3:0|3:0,0:0:0:0:
183,149,255036,1,10,0:0:0:0:
112,100,255236,2,0,P|84:91|50:82,2,38.9999988098145,0|0|2,3:0|3:0|3:0,0:0:0:0:
183,149,255636,1,0,3:0:0:0:
229,76,255836,2,0,P|280:85|295:122,1,77.999997619629,10|0,0:0|3:0,0:0:0:0:
308,144,256136,1,0,3:0:0:0:
308,144,256236,6,0,B|303:77|343:77|386:73|371:-18,1,155.999995239258,6|8,3:0|0:0,0:0:0:0:
458,25,256836,1,0,3:0:0:0:
458,25,256936,1,0,3:0:0:0:
458,25,257036,2,0,L|434:118,1,77.999997619629,0|0,3:0|3:0,0:0:0:0:
455,184,257436,2,0,P|505:169|511:133,1,77.999997619629,8|0,0:0|3:0,0:0:0:0:
380,173,257836,6,0,B|360:176|352:198|352:198|387:277|387:277|385:297|365:300,1,155.999995239258,2|8,3:0|0:0,0:0:0:0:
298,347,258436,1,2,3:0:0:0:
298,347,258536,1,0,3:0:0:0:
298,347,258636,1,0,3:0:0:0:
227,298,258836,1,0,3:0:0:0:
287,236,259036,2,0,L|265:143,1,77.999997619629,10|0,0:0|3:0,0:0:0:0:
291,123,259336,1,0,3:0:0:0:
291,123,259436,6,0,P|322:78|303:46,2,77.999997619629,14|0|0,0:0|3:0|3:0,0:0:0:0:
219,75,260036,2,0,B|204:30|204:30|94:60,1,155.999995239258,14|0,0:0|3:0,0:0:0:0:
33,132,260636,2,0,P|25:92|14:45,1,77.999997619629,14|0,0:0|3:0,0:0:0:0:
119,143,261036,5,12,0:0:0:0:
119,143,261236,1,0,3:0:0:0:
58,204,261436,1,0,3:0:0:0:
58,204,261636,1,0,3:0:0:0:
114,268,261836,2,0,P|99:326|89:370,2,77.999997619629,2|2|2,0:0|3:0|0:0,0:0:0:0:
179,326,262436,2,0,P|229:313|241:311,1,38.9999988098145,2|0,0:0|0:0,0:0:0:0:
246,280,262636,5,4,3:0:0:0:
316,352,262836,1,0,3:0:0:0:
246,280,263036,1,0,3:0:0:0:
330,205,263236,2,0,B|351:159|351:159|214:199,1,168.999992263794,12|0,0:0|0:0,0:0:0:0:
157,154,263836,5,4,3:0:0:0:
125,55,264036,1,0,3:0:0:0:
157,154,264236,1,0,3:0:0:0:
248,94,264436,2,0,B|301:115|301:115|313:144|313:144|385:171,1,126.749994197846,12|0,0:0|0:0,0:0:0:0:
348,157,264836,1,8,0:0:0:0:
425,95,265036,5,0,3:0:0:0:
510,148,265236,1,0,3:0:0:0:
430,209,265436,1,0,3:0:0:0:
425,95,265636,1,0,3:0:0:0:
