osu file format v14

[General]
AudioFilename: audio.mp3
AudioLeadIn: 0
PreviewTime: 65811
Countdown: 0
SampleSet: Soft
StackLeniency: 0.7
Mode: 0
LetterboxInBreaks: 0
WidescreenStoryboard: 1

[Editor]
DistanceSpacing: 0.9
BeatDivisor: 4
GridSize: 32
TimelineZoom: 1.6

[Metadata]
Title:Boku no Friend
TitleUnicode:ぼくのフレンド
Artist:Doubutsu Biscuits & Kaban (CV: Uchida Aya)
ArtistUnicode:どうぶつビスケッツ & かばん (CV: 内田彩)
Creator:rosario wknd
Version:Easy
Source:けものフレンズ
Tags:kemono friends furenzu ending ed japanese pop jpop j-pop cover full version ver サーバル serval cat フェネック fennec fox アライグマ common raccoon 尾崎由香 yuka ozaki 本宮佳奈 kana motomiya 小野早稀 saki ono さふぁりどらいぶ♪ safari drive みゆはん mewhan lets rock jrock j-rock
BeatmapID:3370268
BeatmapSetID:1650932

[Difficulty]
HPDrainRate:2
CircleSize:3.8
OverallDifficulty:3
ApproachRate:4
SliderMultiplier:0.899999999999999
SliderTickRate:1

[Events]
//Background and Video events
0,0,"62209428_p0_master1200.jpg",0,0
//Break Periods
//Storyboard Layer 0 (Background)
//Storyboard Layer 1 (Fail)
//Storyboard Layer 2 (Pass)
//Storyboard Layer 3 (Foreground)
//Storyboard Layer 4 (Overlay)
//Storyboard Sound Samples

[TimingPoints]
236,400,4,2,1,30,1,0
1836,400,4,2,1,50,1,0
65836,-100,4,2,1,65,0,1
88236,-100,4,2,1,50,0,0
101036,-100,4,2,1,45,0,0
126636,-100,4,2,1,40,0,0
142636,-100,4,2,1,45,0,0
145836,-100,4,2,1,55,0,0
152236,-100,4,2,1,65,0,1
174636,-100,4,2,1,50,0,0
181036,-100,4,2,1,55,0,0
187436,-100,4,2,1,60,0,0
200236,-100,4,2,1,40,0,0
213036,-100,4,2,1,45,0,0
219436,-100,4,2,1,55,0,0
227436,-100,4,2,1,65,0,1
248236,-100,4,2,1,65,0,0
249836,-100,4,2,1,55,0,0
262636,-100,4,2,1,50,0,0

[Colours]
Combo1 : 255,0,0
Combo2 : 0,255,64
Combo3 : 0,128,192
Combo4 : 255,255,0

[HitObjects]
1,79,1836,6,0,L|91:56,1,89.9999999999999,6|10,3:0|0:0,0:0:0:0:
146,0,2636,2,0,L|249:19,1,89.9999999999999,2|10,3:0|0:0,0:0:0:0:
290,75,3436,2,0,P|340:62|356:8,2,89.9999999999999,2|10|2,3:0|0:0|3:0,0:0:0:0:
227,125,4636,1,10,0:0:0:0:
274,190,5036,6,0,B|291:258|252:280|209:281|233:369,1,180,2|2,3:0|3:0,0:0:0:0:
307,379,6236,1,10,0:0:0:0:
368,325,6636,2,0,P|420:337|470:350,1,89.9999999999999,0|10,3:0|0:0,0:0:0:0:
499,278,7436,2,0,P|500:224|458:198,1,89.9999999999999,2|10,3:0|0:0,0:0:0:0:
426,137,8236,6,0,B|390:147|359:151|359:151|334:184|334:184|298:185|250:204,1,180,6|0,3:0|3:0,0:0:0:0:
188,173,9436,1,8,0:0:0:0:
232,105,9836,2,0,P|231:46|186:28,1,89.9999999999999,2|8,3:0|0:0,0:0:0:0:
142,76,10636,1,0,3:0:0:0:
68,42,11036,1,10,0:0:0:0:
11,99,11436,6,0,B|-25:166|-25:166|9:191|22:227,1,135,14|14,0:0|0:0,0:0:0:0:
105,289,12636,1,14,0:0:0:0:
175,248,13036,2,0,P|223:258|266:271,1,89.9999999999999,12|0,0:0|3:0,0:0:0:0:
331,227,13836,1,2,0:0:0:0:
281,162,14236,1,2,0:0:0:0:
325,94,14636,6,0,P|404:84|426:175,1,180,6|2,3:0|0:0,0:0:0:0:
373,224,15836,1,2,0:0:0:0:
431,280,16236,2,0,P|453:348|459:368,2,89.9999999999999,2|2|0,0:0|0:0|0:0,0:0:0:0:
373,224,17436,1,0,0:0:0:0:
308,273,17836,6,0,P|244:289|210:302,1,89.9999999999999,2|2,3:0|0:0,0:0:0:0:
156,346,18636,2,0,P|107:352|75:307,1,89.9999999999999,0|2,0:0|0:0,0:0:0:0:
129,262,19436,1,2,0:0:0:0:
76,200,19836,1,2,0:0:0:0:
134,144,20236,2,0,L|157:52,1,89.9999999999999,0|0,0:0|0:0,0:0:0:0:
232,83,21036,6,0,P|278:75|300:36,2,89.9999999999999,2|2|2,3:0|0:0|0:0,0:0:0:0:
155,56,22236,1,2,0:0:0:0:
94,110,22636,2,0,B|59:155|59:155|83:234|83:234|136:253,1,180,2|0,0:0|0:0,0:0:0:0:
165,321,23836,1,2,0:0:0:0:
224,266,24236,6,0,L|320:289,1,89.9999999999999,2|2,3:0|0:0,0:0:0:0:
365,226,25036,2,0,L|461:249,1,89.9999999999999,0|0,0:0|0:0,0:0:0:0:
501,182,25836,1,0,3:0:0:0:
442,125,26236,1,0,3:0:0:0:
499,66,26636,1,0,3:0:0:0:
442,7,27036,1,8,0:0:0:0:
367,39,27436,6,0,L|259:16,1,89.9999999999999,6|10,3:0|0:0,0:0:0:0:
214,68,28236,1,2,3:0:0:0:
270,126,28636,1,10,0:0:0:0:
228,195,29036,2,0,P|180:240|115:203,1,135,2|2,3:0|0:0,0:0:0:0:
20,282,30236,1,8,0:0:0:0:
76,340,30636,6,0,P|124:328|175:320,1,89.9999999999999,2|10,3:0|0:0,0:0:0:0:
238,351,31436,2,0,P|285:340|293:295,1,89.9999999999999,2|10,3:0|0:0,0:0:0:0:
240,244,32236,2,0,B|226:209|186:192|186:192|238:162|267:102,1,180,2|0,3:0|3:0,0:0:0:0:
316,64,33436,1,8,0:0:0:0:
377,116,33836,6,0,P|425:101|468:95,2,89.9999999999999,2|10|2,3:0|0:0|3:0,0:0:0:0:
338,187,35036,1,10,0:0:0:0:
399,240,35436,2,0,B|439:318|439:318|389:362,1,135,2|2,3:0|0:0,0:0:0:0:
301,282,36636,1,10,0:0:0:0:
251,346,37036,6,0,B|177:367|175:316|156:269|90:294,1,180,2|0,3:0|3:0,0:0:0:0:
20,258,38236,1,8,0:0:0:0:
71,195,38636,2,0,P|88:146|60:116,1,89.9999999999999,4|8,3:0|0:0,0:0:0:0:
8,63,39436,1,6,3:0:0:0:
68,8,39836,1,8,0:0:0:0:
134,53,40236,6,0,B|226:29|226:29|284:44|277:96,1,180,6|8,3:0|0:0,0:0:0:0:
314,157,41436,1,0,0:0:0:0:
261,218,41836,2,0,P|280:274|288:317,1,89.9999999999999,2|2,3:0|0:0,0:0:0:0:
341,363,42636,1,8,0:0:0:0:
402,309,43036,1,2,3:0:0:0:
474,345,43436,6,0,P|502:297|485:261,2,89.9999999999999,6|2|10,3:0|0:0|0:0,0:0:0:0:
402,309,44636,1,2,0:0:0:0:
341,363,45036,2,0,B|307:351|275:347|275:347|250:311|250:311|217:302|173:287,1,180,0|8,3:0|0:0,0:0:0:0:
134,227,46236,1,0,3:0:0:0:
193,171,46636,6,0,B|240:123|240:123|172:20,1,180,6|8,3:0|0:0,0:0:0:0:
111,75,47836,1,0,0:0:0:0:
40,35,48236,2,0,P|1:65|8:109,1,89.9999999999999,2|2,3:0|0:0,0:0:0:0:
51,167,49036,2,0,P|34:213|20:268,1,89.9999999999999,8|2,0:0|3:0,0:0:0:0:
69,319,49836,5,6,3:0:0:0:
137,275,50236,1,2,0:0:0:0:
208,313,50636,2,0,P|259:301|308:297,1,89.9999999999999,10|2,0:0|0:0,0:0:0:0:
364,342,51436,2,0,P|420:330|432:290,2,89.9999999999999,2|2|10,3:0|0:0|0:0,0:0:0:0:
296,297,52636,1,0,3:0:0:0:
357,244,53036,6,0,B|372:200|405:183|405:183|408:114|348:98,1,180,6|8,3:0|0:0,0:0:0:0:
310,37,54236,1,0,0:0:0:0:
384,4,54636,2,0,P|430:20|475:29,1,89.9999999999999,2|2,3:0|0:0,0:0:0:0:
503,102,55436,1,8,0:0:0:0:
453,165,55836,1,2,3:0:0:0:
496,233,56236,6,0,P|481:284|472:327,1,89.9999999999999,6|2,3:0|0:0,0:0:0:0:
405,364,57036,2,0,P|350:349|343:316,1,89.9999999999999,10|2,0:0|0:0,0:0:0:0:
380,251,57836,1,2,3:0:0:0:
327,189,58236,1,2,0:0:0:0:
249,212,58636,2,0,P|211:197|152:182,1,89.9999999999999,10|10,0:0|0:0,0:0:0:0:
96,138,59436,6,0,P|45:137|23:172,2,89.9999999999999,6|10|10,3:0|0:0|0:0,0:0:0:0:
163,184,60636,1,10,0:0:0:0:
229,138,61036,2,0,P|280:137|302:172,2,89.9999999999999,10|10|8,0:0|0:0|0:0,0:0:0:0:
163,184,62236,1,8,0:0:0:0:
108,244,62636,6,0,P|135:307|143:344,1,89.9999999999999,6|2,3:0|3:0,0:0:0:0:
214,360,63436,1,14,0:0:0:0:
276,308,63836,1,2,3:0:0:0:
353,330,64236,2,0,B|430:312|430:312|431:280|443:249,1,135,14|10,0:0|0:0,0:0:0:0:
379,203,65236,2,0,L|360:146,1,45,8|8,0:0|0:0,0:0:0:0:
418,100,65836,5,4,3:0:0:0:
355,48,66236,1,10,0:0:0:0:
283,85,66636,2,0,P|232:83|208:49,1,89.9999999999999,2|10,3:0|0:0,0:0:0:0:
134,24,67436,2,0,L|32:52,2,89.9999999999999,2|10|0,3:0|0:0|3:0,0:0:0:0:
209,54,68636,1,8,0:0:0:0:
165,122,69036,6,0,B|148:190|187:212|230:213|215:301,1,180,2|2,3:0|3:0,0:0:0:0:
278,337,70236,1,10,0:0:0:0:
344,290,70636,2,0,L|449:311,1,89.9999999999999,2|10,3:0|0:0,0:0:0:0:
482,244,71436,2,0,P|490:189|452:160,1,89.9999999999999,0|8,3:0|0:0,0:0:0:0:
411,108,72236,6,0,B|376:108|342:126|342:126|324:154|324:154|292:158|251:179,1,180,6|2,3:0|3:0,0:0:0:0:
190,228,73436,1,10,0:0:0:0:
131,171,73836,2,0,P|147:126|163:85,1,89.9999999999999,2|10,3:0|0:0,0:0:0:0:
107,26,74636,2,0,P|53:25|33:63,1,89.9999999999999,2|10,3:0|0:0,0:0:0:0:
5,126,75436,5,0,3:0:0:0:
52,191,75836,1,10,0:0:0:0:
20,265,76236,2,0,P|44:335|49:360,1,89.9999999999999,2|10,3:0|0:0,0:0:0:0:
126,334,77036,2,0,P|178:338|199:375,2,89.9999999999999,4|8|4,3:0|0:0|3:0,0:0:0:0:
47,350,78236,1,8,0:0:0:0:
62,270,78636,6,0,B|9:157|9:157|43:101,1,180,6|2,3:0|3:0,0:0:0:0:
100,58,79836,1,10,0:0:0:0:
145,125,80236,2,0,P|202:125|225:95,1,89.9999999999999,2|10,3:0|0:0,0:0:0:0:
262,32,81036,2,0,P|295:3|338:9,1,89.9999999999999,0|8,3:0|0:0,0:0:0:0:
415,36,81836,6,0,L|502:17,2,89.9999999999999,2|10|0,3:0|0:0|3:0,0:0:0:0:
369,103,83036,1,10,0:0:0:0:
430,155,83436,1,2,3:0:0:0:
387,224,83836,1,10,0:0:0:0:
445,279,84236,2,0,P|451:321|404:352,1,89.9999999999999,2|8,3:0|0:0,0:0:0:0:
349,308,85036,6,0,B|286:284|270:328|251:388|178:351,1,180,6|10,3:0|0:0,0:0:0:0:
140,292,86236,1,2,0:0:0:0:
199,237,86636,2,0,L|222:140,1,89.9999999999999,6|10,3:0|0:0,0:0:0:0:
288,106,87436,1,10,0:0:0:0:
249,34,87836,1,10,0:0:0:0:
175,67,88236,6,0,P|136:56|73:42,2,89.9999999999999,6|10|2,3:0|0:0|3:0,0:0:0:0:
249,34,89436,1,10,0:0:0:0:
306,91,89836,2,0,P|322:142|286:173,1,89.9999999999999,2|10,3:0|0:0,0:0:0:0:
251,230,90636,2,0,P|212:237|152:248,1,89.9999999999999,2|10,3:0|0:0,0:0:0:0:
93,203,91436,6,0,P|38:206|43:321,1,180,6|2,3:0|3:0,0:0:0:0:
97,349,92636,1,10,0:0:0:0:
163,303,93036,2,0,L|258:331,1,89.9999999999999,0|10,3:0|0:0,0:0:0:0:
320,367,93836,1,2,3:0:0:0:
384,317,94236,1,10,0:0:0:0:
331,255,94636,6,0,B|319:216|310:188|310:188|331:146|331:146|310:74,1,180,6|0,3:0|3:0,0:0:0:0:
376,34,95836,1,8,0:0:0:0:
439,84,96236,2,0,P|491:75|507:36,2,89.9999999999999,2|8|0,3:0|0:0|3:0,0:0:0:0:
376,34,97436,1,10,0:0:0:0:
313,85,97836,6,0,L|173:58,1,135,14|14,0:0|0:0,0:0:0:0:
84,134,99036,1,14,0:0:0:0:
147,183,99436,2,0,P|165:227|132:270,1,89.9999999999999,8|8,0:0|0:0,0:0:0:0:
92,322,100236,1,10,0:0:0:0:
21,282,100636,1,10,0:0:0:0:
65,214,101036,6,0,P|48:153|34:114,1,89.9999999999999,6|10,3:0|0:0,0:0:0:0:
68,52,101836,2,0,P|119:47|145:87,1,89.9999999999999,2|10,3:0|0:0,0:0:0:0:
179,145,102636,1,2,3:0:0:0:
237,88,103036,1,10,0:0:0:0:
308,126,103436,2,0,L|399:108,1,89.9999999999999,0|8,3:0|0:0,0:0:0:0:
459,57,104236,6,0,P|500:75|508:122,2,89.9999999999999,2|10|2,3:0|0:0|3:0,0:0:0:0:
396,108,105436,1,10,0:0:0:0:
426,183,105836,2,0,B|465:269|465:269|467:320|408:331,1,180,2|0,3:0|3:0,0:0:0:0:
348,286,107036,1,8,0:0:0:0:
283,335,107436,6,0,L|190:316,1,89.9999999999999,6|10,3:0|0:0,0:0:0:0:
135,262,108236,2,0,P|118:207|143:182,1,89.9999999999999,2|10,3:0|0:0,0:0:0:0:
216,188,109036,2,0,B|277:171|277:171|286:147|303:127|303:127|369:107,1,180,2|0,3:0|3:0,0:0:0:0:
431,61,110236,1,10,0:0:0:0:
372,7,110636,6,0,L|269:29,1,89.9999999999999,2|10,3:0|0:0,0:0:0:0:
225,81,111436,2,0,L|122:59,1,89.9999999999999,0|8,3:0|0:0,0:0:0:0:
67,104,112236,1,0,3:0:0:0:
118,166,112636,1,8,0:0:0:0:
64,226,113036,2,0,P|46:268|75:301,1,89.9999999999999,2|8,3:0|0:0,0:0:0:0:
138,343,113836,6,0,P|205:328|236:322,2,89.9999999999999,6|10|2,3:0|0:0|3:0,0:0:0:0:
70,299,115036,1,10,0:0:0:0:
125,239,115436,2,0,P|141:181|74:142,1,135,2|2,3:0|3:0,0:0:0:0:
167,49,116636,1,8,0:0:0:0:
221,109,117036,6,0,P|265:119|308:132,1,89.9999999999999,2|10,3:0|0:0,0:0:0:0:
321,212,117836,1,2,3:0:0:0:
264,269,118236,1,10,0:0:0:0:
308,336,118636,2,0,B|353:381|353:381|472:336,1,180,2|0,3:0|3:0,0:0:0:0:
503,270,119836,1,8,0:0:0:0:
452,206,120236,6,0,P|477:152|494:109,1,89.9999999999999,6|8,3:0|0:0,0:0:0:0:
451,51,121036,2,0,P|388:43|370:72,1,89.9999999999999,2|10,3:0|0:0,0:0:0:0:
308,104,121836,2,0,B|225:83|225:83|205:104|178:116,1,135,2|2,3:0|3:0,0:0:0:0:
233,224,123036,1,10,0:0:0:0:
273,293,123436,6,0,P|316:298|343:253,2,89.9999999999999,2|10|0,3:0|0:0|3:0,0:0:0:0:
233,224,124636,1,8,0:0:0:0:
167,271,125036,2,0,P|123:280|80:292,1,89.9999999999999,4|0,3:0|0:0,0:0:0:0:
22,234,125836,1,10,0:0:0:0:
74,172,126236,1,0,3:0:0:0:
48,95,126636,6,0,L|28:4,2,89.9999999999999,6|2|8,3:0|3:0|0:0,0:0:0:0:
74,172,127836,1,0,3:0:0:0:
95,250,128236,2,0,L|75:341,2,89.9999999999999,2|2|8,3:0|3:0|0:0,0:0:0:0:
157,197,129436,1,10,0:0:0:0:
216,252,129836,6,0,P|269:237|313:230,1,89.9999999999999,6|2,3:0|3:0,0:0:0:0:
374,270,130636,1,10,0:0:0:0:
428,210,131036,1,2,3:0:0:0:
380,144,131436,2,0,B|342:119|290:116|290:116|270:62|317:39,1,180,0|8,3:0|0:0,0:0:0:0:
387,15,132636,1,8,0:0:0:0:
447,68,133036,6,0,P|492:63|508:17,2,89.9999999999999,6|2|8,3:0|3:0|0:0,0:0:0:0:
387,15,134236,1,0,3:0:0:0:
317,56,134636,2,0,P|272:51|256:5,2,89.9999999999999,2|2|8,3:0|3:0|0:0,0:0:0:0:
387,15,135836,1,10,0:0:0:0:
439,79,136236,6,0,P|421:131|407:184,1,89.9999999999999,6|2,3:0|3:0,0:0:0:0:
349,216,137036,2,0,L|378:317,1,89.9999999999999,10|2,0:0|3:0,0:0:0:0:
329,371,137836,1,2,3:0:0:0:
262,324,138236,1,2,3:0:0:0:
188,363,138636,2,0,P|129:346|125:316,1,89.9999999999999,10|8,0:0|0:0,0:0:0:0:
171,259,139436,5,6,3:0:0:0:
218,193,139836,1,8,0:0:0:0:
174,124,140236,2,0,P|112:138|77:151,1,89.9999999999999,8|0,0:0|3:0,0:0:0:0:
23,96,141036,2,0,P|22:57|80:28,2,89.9999999999999,2|8|8,3:0|0:0|0:0,0:0:0:0:
87,146,142236,1,2,3:0:0:0:
31,205,142636,6,0,P|45:243|59:295,1,89.9999999999999,6|10,3:0|0:0,0:0:0:0:
109,353,143436,2,0,P|154:350|176:313,1,89.9999999999999,10|2,0:0|3:0,0:0:0:0:
242,268,144236,1,10,0:0:0:0:
310,311,144636,1,2,3:0:0:0:
367,254,145036,2,0,P|445:237|462:235,1,89.9999999999999,2|10,3:0|0:0,0:0:0:0:
496,166,145836,6,0,P|499:125|461:95,2,89.9999999999999,6|10|10,3:0|0:0|0:0,0:0:0:0:
455,235,147036,1,10,0:0:0:0:
394,180,147436,2,0,L|291:157,1,89.9999999999999,10|10,0:0|0:0,0:0:0:0:
247,216,148236,2,0,L|144:193,1,89.9999999999999,8|8,0:0|0:0,0:0:0:0:
101,139,149036,5,2,3:0:0:0:
147,72,149436,1,2,3:0:0:0:
221,104,149836,2,0,P|281:94|289:73,1,89.9999999999999,10|2,0:0|3:0,0:0:0:0:
348,18,150636,2,0,B|374:26|402:27|402:27|428:58|428:58|449:64|480:72,1,135,14|10,0:0|0:0,0:0:0:0:
396,168,151836,1,8,0:0:0:0:
447,230,152236,6,0,P|427:281|418:322,1,89.9999999999999,6|10,3:0|0:0,0:0:0:0:
347,353,153036,1,2,3:0:0:0:
280,306,153436,1,10,0:0:0:0:
208,343,153836,2,0,P|157:338|144:292,2,89.9999999999999,2|10|0,3:0|0:0|3:0,0:0:0:0:
280,306,155036,1,8,0:0:0:0:
230,241,155436,6,0,B|203:202|203:202|237:124|237:124|290:116,1,180,2|2,3:0|3:0,0:0:0:0:
348,165,156636,1,10,0:0:0:0:
415,120,157036,2,0,P|424:78|389:44,1,89.9999999999999,2|10,3:0|0:0,0:0:0:0:
327,0,157836,1,0,3:0:0:0:
256,40,158236,1,8,0:0:0:0:
181,7,158636,6,0,B|75:27|75:27|81:70|62:98,1,180,6|2,3:0|3:0,0:0:0:0:
12,159,159836,1,10,0:0:0:0:
72,213,160236,2,0,P|57:251|41:299,1,89.9999999999999,2|10,3:0|0:0,0:0:0:0:
91,361,161036,1,2,3:0:0:0:
156,313,161436,1,10,0:0:0:0:
233,335,161836,6,0,P|280:332|299:294,1,89.9999999999999,0|8,3:0|0:0,0:0:0:0:
247,235,162636,1,2,3:0:0:0:
301,173,163036,1,10,0:0:0:0:
365,224,163436,2,0,P|422:209|452:203,2,89.9999999999999,4|8|4,3:0|0:0|3:0,0:0:0:0:
301,173,164636,1,8,0:0:0:0:
246,113,165036,6,0,P|248:63|296:45,2,89.9999999999999,6|10|2,3:0|0:0|3:0,0:0:0:0:
301,173,166236,1,10,0:0:0:0:
250,236,166636,2,0,B|200:238|147:270|147:270|131:233|96:204,1,180,2|0,3:0|3:0,0:0:0:0:
67,141,167836,1,8,0:0:0:0:
118,78,168236,6,0,P|177:90|223:105,1,89.9999999999999,2|10,3:0|0:0,0:0:0:0:
260,158,169036,2,0,P|315:147|326:104,1,89.9999999999999,2|10,3:0|0:0,0:0:0:0:
394,74,169836,1,2,3:0:0:0:
450,132,170236,1,10,0:0:0:0:
395,191,170636,1,2,3:0:0:0:
451,249,171036,1,8,0:0:0:0:
403,314,171436,6,0,B|368:309|337:291|337:291|296:313|296:313|273:300|226:296,1,180,6|10,3:0|0:0,0:0:0:0:
173,243,172636,1,2,0:0:0:0:
106,289,173036,2,0,P|58:275|56:228,1,89.9999999999999,2|10,3:0|0:0,0:0:0:0:
102,177,173836,1,8,0:0:0:0:
48,116,174236,1,8,0:0:0:0:
102,56,174636,6,0,B|172:42|189:83|190:125|277:101,1,180,6|10,3:0|0:0,0:0:0:0:
324,48,175836,1,2,3:0:0:0:
362,119,176236,2,0,P|338:180|328:206,1,89.9999999999999,2|2,3:0|3:0,0:0:0:0:
374,270,177036,2,0,P|433:266|453:228,1,89.9999999999999,8|10,0:0|0:0,0:0:0:0:
501,182,177836,6,0,B|474:88|474:88|456:39|396:50,1,180,2|10,3:0|0:0,0:0:0:0:
339,90,179036,1,2,3:0:0:0:
269,48,179436,2,0,P|206:58|195:83,1,89.9999999999999,2|2,3:0|3:0,0:0:0:0:
140,134,180236,1,8,0:0:0:0:
196,192,180636,1,8,0:0:0:0:
134,244,181036,6,0,L|40:267,2,89.9999999999999,14|10|10,0:0|0:0|0:0,0:0:0:0:
196,192,182236,1,10,0:0:0:0:
256,246,182636,2,0,L|350:269,2,89.9999999999999,10|10|10,0:0|0:0|0:0,0:0:0:0:
196,192,183836,1,10,0:0:0:0:
128,147,184236,6,0,P|82:147|66:257,1,180,14|8,0:0|0:0,0:0:0:0:
113,320,185436,1,8,0:0:0:0:
187,288,185836,2,0,P|236:300|277:312,1,89.9999999999999,10|10,0:0|0:0,0:0:0:0:
335,363,186636,1,10,0:0:0:0:
386,300,187036,1,10,0:0:0:0:
336,235,187436,6,0,P|312:195|334:150,1,89.9999999999999,6|10,3:0|0:0,0:0:0:0:
388,105,188236,2,0,P|443:126|486:141,1,89.9999999999999,2|10,3:0|0:0,0:0:0:0:
500,212,189036,2,0,P|510:254|466:288,2,89.9999999999999,0|8|0,3:0|0:0|3:0,0:0:0:0:
472,136,190236,1,8,0:0:0:0:
400,174,190636,6,0,B|332:185|318:145|315:102|242:110,1,180,2|2,3:0|3:0,0:0:0:0:
175,154,191836,1,10,0:0:0:0:
98,128,192236,2,0,P|42:130|29:174,1,89.9999999999999,6|10,3:0|0:0,0:0:0:0:
72,223,193036,1,4,3:0:0:0:
22,287,193436,1,8,0:0:0:0:
84,338,193836,6,0,P|134:327|177:319,1,89.9999999999999,6|10,3:0|0:0,0:0:0:0:
245,348,194636,2,0,P|295:337|338:329,1,89.9999999999999,2|10,3:0|0:0,0:0:0:0:
381,264,195436,1,2,3:0:0:0:
327,203,195836,1,10,0:0:0:0:
258,245,196236,2,0,P|206:238|187:189,1,89.9999999999999,2|10,3:0|0:0,0:0:0:0:
148,137,197036,6,0,P|161:92|171:46,2,89.9999999999999,14|8|10,0:0|0:0|0:0,0:0:0:0:
187,208,198236,1,8,0:0:0:0:
255,164,198636,2,0,P|293:172|346:186,1,89.9999999999999,6|2,3:0|3:0,0:0:0:0:
360,263,199436,1,0,3:0:0:0:
440,270,199836,1,8,0:0:0:0:
494,210,200236,6,0,B|518:112|518:112|481:95|452:67,1,180,4|0,3:0|3:0,0:0:0:0:
395,14,201436,1,0,3:0:0:0:
330,63,201836,2,0,P|291:69|229:88,2,89.9999999999999,0|0|0,3:0|3:0|3:0,0:0:0:0:
384,123,203036,1,8,0:0:0:0:
327,180,203436,6,0,P|312:221|354:264,1,89.9999999999999,2|2,3:0|3:0,0:0:0:0:
330,338,204236,2,0,P|264:354|233:365,1,89.9999999999999,2|2,3:0|3:0,0:0:0:0:
181,308,205036,1,0,3:0:0:0:
118,359,205436,1,2,3:0:0:0:
47,318,205836,2,0,P|39:274|85:246,1,89.9999999999999,0|0,3:0|3:0,0:0:0:0:
136,199,206636,6,0,B|193:119|193:119|179:59|125:72,1,180,4|0,3:0|3:0,0:0:0:0:
65,34,207836,1,0,3:0:0:0:
9,93,208236,2,0,P|23:142|32:188,1,89.9999999999999,0|0,3:0|3:0,0:0:0:0:
71,250,209036,1,0,3:0:0:0:
23,315,209436,1,10,0:0:0:0:
96,349,209836,6,0,P|149:335|192:328,1,89.9999999999999,2|2,3:0|3:0,0:0:0:0:
257,363,210636,2,0,P|290:339|277:282,1,89.9999999999999,10|2,0:0|3:0,0:0:0:0:
230,235,211436,2,0,P|188:246|135:254,2,89.9999999999999,2|2|10,3:0|3:0|0:0,0:0:0:0:
275,168,212636,1,0,3:0:0:0:
337,219,213036,6,0,B|403:199|403:199|421:154|421:154|497:130,1,180,6|8,3:0|0:0,0:0:0:0:
501,56,214236,1,0,0:0:0:0:
427,20,214636,2,0,P|371:20|352:51,1,89.9999999999999,2|0,3:0|0:0,0:0:0:0:
287,91,215436,1,8,0:0:0:0:
342,149,215836,1,2,3:0:0:0:
295,215,216236,6,0,P|319:287|328:320,1,89.9999999999999,6|2,3:0|0:0,0:0:0:0:
273,365,217036,2,0,P|221:363|206:321,1,89.9999999999999,10|2,0:0|0:0,0:0:0:0:
171,260,217836,1,2,3:0:0:0:
99,298,218236,1,2,0:0:0:0:
34,248,218636,2,0,P|21:204|2:152,1,89.9999999999999,10|10,0:0|0:0,0:0:0:0:
59,101,219436,6,0,P|109:99|135:130,2,89.9999999999999,4|10|10,3:0|0:0|0:0,0:0:0:0:
6,162,220636,1,10,0:0:0:0:
24,240,221036,2,0,P|55:270|98:265,2,89.9999999999999,10|10|8,0:0|0:0|0:0,0:0:0:0:
6,162,222236,1,8,0:0:0:0:
59,101,222636,6,0,L|154:124,1,89.9999999999999,6|2,3:0|3:0,0:0:0:0:
204,66,223436,2,0,L|299:89,1,89.9999999999999,10|2,0:0|3:0,0:0:0:0:
344,148,224236,2,0,P|419:135|423:87,1,135,14|10,0:0|0:0,0:0:0:0:
359,37,225236,2,0,L|304:50,1,45,8|8,0:0|0:0,0:0:0:0:
249,95,225836,6,0,P|206:82|107:62,1,135,12|8,0:0|0:0,0:0:0:0:
22,139,227036,1,8,0:0:0:0:
86,187,227436,6,0,P|103:220|81:267,1,89.9999999999999,4|10,3:0|0:0,0:0:0:0:
117,339,228236,1,2,3:0:0:0:
185,295,228636,1,10,0:0:0:0:
254,336,229036,2,0,B|360:301|360:301|409:352,1,180,2|0,3:0|3:0,0:0:0:0:
467,296,230236,1,8,0:0:0:0:
420,229,230636,6,0,L|446:141,2,89.9999999999999,2|10|2,3:0|0:0|3:0,0:0:0:0:
344,258,231836,1,10,0:0:0:0:
283,204,232236,2,0,P|227:203|202:232,1,89.9999999999999,2|10,3:0|0:0,0:0:0:0:
132,260,233036,1,0,3:0:0:0:
70,207,233436,1,8,0:0:0:0:
123,146,233836,6,0,P|114:102|102:54,1,89.9999999999999,6|10,3:0|0:0,0:0:0:0:
171,14,234636,2,0,P|242:36|244:61,1,89.9999999999999,2|10,3:0|0:0,0:0:0:0:
306,90,235436,2,0,B|308:133|291:161|291:161|258:189|258:189|263:228|241:258,1,180,2|2,3:0|3:0,0:0:0:0:
297,312,236636,1,10,0:0:0:0:
375,292,237036,6,0,P|446:317|475:224,1,180,0|2,3:0|3:0,0:0:0:0:
431,173,238236,1,10,0:0:0:0:
492,120,238636,2,0,P|499:75|454:44,2,89.9999999999999,4|8|4,3:0|0:0|3:0,0:0:0:0:
431,173,239836,1,8,0:0:0:0:
359,134,240236,6,0,P|297:146|265:156,1,89.9999999999999,6|10,3:0|0:0,0:0:0:0:
209,205,241036,1,2,3:0:0:0:
143,157,241436,1,10,0:0:0:0:
83,211,241836,2,0,P|76:257|112:286,2,89.9999999999999,2|10|0,3:0|0:0|3:0,0:0:0:0:
143,157,243036,1,8,0:0:0:0:
95,91,243436,6,0,B|130:34|130:34|247:72,1,180,2|2,3:0|3:0,0:0:0:0:
288,132,244636,1,10,0:0:0:0:
235,193,245036,1,2,3:0:0:0:
285,256,245436,1,10,0:0:0:0:
235,319,245836,2,0,P|195:336|150:312,1,89.9999999999999,2|8,3:0|0:0,0:0:0:0:
106,252,246636,6,0,B|100:180|154:172|203:187|198:98,1,180,6|10,3:0|0:0,0:0:0:0:
244,47,247836,1,2,0:0:0:0:
298,106,248236,2,0,B|356:130|356:130|381:177|381:177|413:187|440:205,1,180,6|2,3:0|0:0,0:0:0:0:
502,153,249436,1,2,0:0:0:0:
446,93,249836,6,0,P|444:43|485:17,2,89.9999999999999,4|10|2,3:0|0:0|3:0,0:0:0:0:
502,153,251036,1,10,0:0:0:0:
450,215,251436,2,0,P|470:269|483:316,1,89.9999999999999,2|10,3:0|0:0,0:0:0:0:
406,335,252236,1,2,3:0:0:0:
337,291,252636,1,10,0:0:0:0:
264,327,253036,6,0,B|169:305|169:305|119:285|137:235,1,180,2|2,3:0|3:0,0:0:0:0:
196,186,254236,1,10,0:0:0:0:
153,116,254636,2,0,P|106:107|68:149,1,89.9999999999999,0|10,3:0|0:0,0:0:0:0:
33,200,255436,2,0,P|54:249|68:295,1,89.9999999999999,2|10,3:0|0:0,0:0:0:0:
144,300,256236,6,0,P|177:234|273:258,1,180,6|0,3:0|3:0,0:0:0:0:
329,197,257436,1,8,0:0:0:0:
389,250,257836,2,0,P|441:249|462:211,2,89.9999999999999,2|8|0,3:0|0:0|3:0,0:0:0:0:
329,197,259036,1,10,0:0:0:0:
383,136,259436,6,0,B|395:100|422:65|422:65|379:27,1,135,14|14,0:0|0:0,0:0:0:0:
265,66,260636,1,14,0:0:0:0:
196,23,261036,2,0,P|154:34|96:45,1,89.9999999999999,12|0,0:0|3:0,0:0:0:0:
61,109,261836,1,2,0:0:0:0:
111,172,262236,1,2,0:0:0:0:
186,141,262636,6,0,P|243:157|242:238,1,135,4|12,3:0|0:0,0:0:0:0:
157,301,263836,2,0,P|103:280|12:258,1,135,4|12,3:0|0:0,0:0:0:0:
20,139,265036,6,0,B|92:112|92:112|104:137|138:154,1,135,0|0,3:0|3:0,0:0:0:0:
