osu file format v14

[General]
AudioFilename: audio.mp3
AudioLeadIn: 0
PreviewTime: 61173
Countdown: 0
SampleSet: Normal
StackLeniency: 0.9
Mode: 0
LetterboxInBreaks: 0
WidescreenStoryboard: 0

[Editor]
Bookmarks: 41016
DistanceSpacing: 1.6
BeatDivisor: 4
GridSize: 4
TimelineZoom: 1

[Metadata]
Title:Mysterious Messenger
TitleUnicode:Mysterious Messenger
Artist:DoubleTO & Han
ArtistUnicode:DoubleTO & Han
Creator:Kirisakiii
Version:707
Source:Mystic Messenger
Tags:mystic messenger cheritz opening otome
BeatmapID:1111903
BeatmapSetID:509260

[Difficulty]
HPDrainRate:7
CircleSize:3.9
OverallDifficulty:8
ApproachRate:8
SliderMultiplier:1.3
SliderTickRate:1

[Events]
//Background and Video events
Video,0,"Mysterious Messenger.avi"
0,0,"bg.png",0,0
//Break Periods
//Storyboard Layer 0 (Background)
//Storyboard Layer 1 (Fail)
//Storyboard Layer 2 (Pass)
//Storyboard Layer 3 (Foreground)
//Storyboard Sound Samples

[TimingPoints]
1173,468.75,4,1,0,20,1,0
46173,-133.333333333333,4,1,0,20,0,0
53673,-111.111111111111,4,1,0,20,0,0
61173,-100,4,1,0,25,0,1
68673,-100,4,1,0,25,0,0
76173,-100,4,1,0,25,0,1
86016,-100,4,1,0,25,0,0
86485,-133.333333333333,4,1,0,25,0,0
87423,-100,4,1,0,25,0,0

[Colours]
Combo1 : 255,151,203
Combo2 : 255,177,100
Combo3 : 140,255,255
Combo4 : 249,134,151
Combo5 : 255,205,55
Combo6 : 151,151,255
Combo7 : 255,170,170
Combo8 : 145,255,255

[HitObjects]
200,68,938,5,0,0:0:0:0:
156,92,1055,1,0,0:0:0:0:
124,132,1173,2,0,P|112:176|120:244,1,97.5,4|8,0:2|0:0,0:0:0:0:
312,288,1876,1,0,0:0:0:0:
340,244,1993,1,0,0:0:0:0:
360,196,2110,6,0,P|368:132|364:112,1,65,8|0,0:0|0:0,0:0:0:0:
96,124,2579,6,0,P|84:172|88:212,1,65,8|0,0:0|0:0,0:0:0:0:
332,172,3048,6,0,P|344:128|340:84,1,65,12|0,0:0|0:0,0:0:0:0:
332,60,3399,1,0,0:0:0:0:
168,264,3751,1,0,0:0:0:0:
168,264,3868,1,0,0:0:0:0:
168,264,3985,1,0,0:0:0:0:
232,180,4219,1,0,0:0:0:0:
232,180,4454,2,0,P|272:212|272:276,1,97.5
316,292,4923,6,0,P|376:292|408:248,1,97.5
364,120,5391,6,0,P|332:184|344:224,1,97.5
512,208,5860,6,8,P|463:207|422:182,1,97.5
408,132,6329,1,0,0:0:0:0:
318,63,6563,2,0,P|303:91|304:124,1,65,8|0,0:0|0:0,0:0:0:0:
284,172,6915,1,0,0:0:0:0:
312,216,7032,1,8,0:0:0:0:
160,280,7266,5,8,0:0:0:0:
192,236,7384,1,0,0:0:0:0:
168,188,7501,1,0,0:0:0:0:
44,100,7735,5,0,0:0:0:0:
64,148,7852,1,0,0:0:0:0:
44,196,7970,1,8,0:0:0:0:
104,300,8204,5,0,0:0:0:0:
152,320,8322,1,0,0:0:0:0:
200,328,8439,1,0,0:0:0:0:
248,320,8555,1,0,0:0:0:0:
296,300,8673,2,0,P|336:272|352:208,1,97.5,12|0,0:0|0:0,0:0:0:0:
312,52,9141,5,8,0:0:0:0:
232,148,9376,1,0,0:0:0:0:
228,144,9610,2,0,P|192:120|120:112,1,97.5
51,112,10079,2,0,P|56:144|76:170,1,65,8|0,0:0|0:0,0:0:0:0:
224,324,10548,2,0,P|280:268|284:244,1,97.5,4|0,0:2|0:0,0:0:0:0:
256,96,11016,5,8,0:0:0:0:
188,40,11251,2,0,P|168:116|192:160,1,130
136,224,11954,1,8,0:0:0:0:
372,224,12188,1,0,0:0:0:0:
372,224,12657,5,0,0:0:0:0:
136,224,12891,1,8,0:0:0:0:
72,144,13126,1,0,0:0:0:0:
104,96,13243,1,0,0:0:0:0:
152,68,13360,1,0,0:0:0:0:
208,64,13477,1,0,0:0:0:0:
260,88,13594,2,0,P|312:120|340:120,1,65,8|0,0:0|0:0,0:0:0:0:
248,296,14063,6,0,P|212:216|168:200,1,130,4|0,0:2|0:0,0:0:0:0:
160,288,14766,1,0,0:0:0:0:
184,104,15001,2,0,P|88:168|92:244,1,195
376,68,16173,6,0,P|456:96|468:120,1,97.5,4|0,0:2|0:0,0:0:0:0:
392,260,16641,1,8,0:0:0:0:
268,204,16876,1,0,0:0:0:0:
368,304,17110,2,0,P|331:335|300:336,1,65
284,188,17579,5,8,0:0:0:0:
312,164,17696,1,0,0:0:0:0:
352,156,17813,1,0,0:0:0:0:
244,280,18048,2,0,P|184:208|184:192,1,97.5
192,172,18516,1,8,0:0:0:0:
288,48,18751,5,0,0:0:0:0:
276,200,18985,2,0,P|320:180|340:148,1,65
452,268,19454,2,0,P|421:258|397:236,1,65,8|0,0:0|0:0,0:0:0:0:
260,108,19923,6,0,P|180:112|164:116,1,97.5,4|0,0:2|0:0,0:0:0:0:
124,140,20391,1,8,0:0:0:0:
288,32,20626,1,0,0:0:0:0:
400,112,20860,6,0,P|332:144|324:152,1,65
196,92,21329,2,0,P|240:124|260:176,1,97.5,8|0,0:0|0:0,0:0:0:0:
268,196,21798,1,0,0:0:0:0:
392,128,22032,1,0,0:0:0:0:
400,280,22266,1,8,0:0:0:0:
408,96,22501,1,0,0:0:0:0:
408,96,22618,1,0,0:0:0:0:
408,96,22735,1,0,0:0:0:0:
216,176,22969,5,0,0:0:0:0:
440,260,23204,1,8,0:0:0:0:
220,132,23438,1,0,0:0:0:0:
220,132,23673,2,0,P|172:96|120:88,1,97.5,4|0,0:2|0:0,0:0:0:0:
72,232,24141,1,8,0:0:0:0:
140,288,24376,6,0,P|176:272|200:224,1,65
268,188,24844,1,0,0:0:0:0:
120,184,25079,2,0,P|156:152|180:148,1,65,8|0,0:0|0:0,0:0:0:0:
364,196,25548,6,0,P|344:252|312:276,1,97.5
292,308,26016,1,8,0:0:0:0:
232,164,26251,1,0,0:0:0:0:
156,224,26485,6,0,P|120:188|84:176,1,65
72,272,26954,1,8,0:0:0:0:
68,100,27188,2,0,P|28:136|20:208,1,130
160,100,27891,6,0,L|248:88,1,65,8|0,0:0|0:0,0:0:0:0:
360,168,28360,2,0,L|292:160,1,65
184,192,28829,1,8,0:0:0:0:
200,236,28946,1,0,0:0:0:0:
236,268,29063,1,0,0:0:0:0:
280,280,29180,1,0,0:0:0:0:
324,264,29298,2,0,P|392:268|404:328,1,130,4|8,0:2|0:0,0:0:0:0:
460,144,30001,5,0,0:0:0:0:
436,96,30118,1,0,0:0:0:0:
392,76,30235,1,0,0:0:0:0:
300,32,30469,1,0,0:0:0:0:
252,180,30704,1,8,0:0:0:0:
392,76,30938,1,0,0:0:0:0:
248,96,31173,6,0,P|201:108|170:145,1,97.5,4|0,0:2|0:0,0:0:0:0:
148,192,31641,1,8,0:0:0:0:
64,292,31876,1,0,0:0:0:0:
72,104,32110,2,0,P|120:136|128:160,1,65
0,232,32579,2,0,P|24:200|52:184,1,65,8|0,0:0|0:0,0:0:0:0:
148,284,33048,6,0,P|188:308|228:308,1,65
256,296,33399,1,0,0:0:0:0:
304,312,33516,1,8,0:0:0:0:
364,240,33751,1,0,0:0:0:0:
364,88,33985,1,0,0:0:0:0:
496,168,34219,1,0,0:0:0:0:
280,152,34454,1,8,0:0:0:0:
428,296,34688,1,0,0:0:0:0:
252,300,34923,6,0,P|192:280|168:248,1,97.5,4|0,0:2|0:0,0:0:0:0:
156,212,35391,1,8,0:0:0:0:
224,136,35626,1,0,0:0:0:0:
308,76,35860,2,0,P|328:128|316:164,1,65
224,136,36329,2,0,P|192:136|160:116,1,65,8|0,0:0|0:0,0:0:0:0:
224,36,36797,1,0,0:0:0:0:
324,60,37032,5,0,0:0:0:0:
368,80,37149,1,0,0:0:0:0:
400,116,37266,1,8,0:0:0:0:
488,172,37501,1,0,0:0:0:0:
388,256,37735,1,0,0:0:0:0:
304,152,37969,1,0,0:0:0:0:
304,152,38204,6,0,P|248:192|224:192,1,65,8|0,0:0|0:0,0:0:0:0:
212,96,38673,2,0,P|140:144|128:172,1,97.5,4|0,0:2|0:0,0:0:0:0:
88,172,39141,1,8,0:0:0:0:
24,252,39376,2,0,P|52:272|84:272,1,65
172,324,39844,1,0,0:0:0:0:
208,196,40079,2,0,P|176:200|148:220,1,65,8|0,0:0|0:0,0:0:0:0:
320,316,40548,6,0,P|372:312|396:280,1,65,4|0,0:2|0:0,0:0:0:0:
312,192,40899,2,0,P|316:140|348:124,1,65
428,204,41251,2,0,P|480:212|492:240,1,65
456,320,41719,1,0,0:0:0:0:
408,116,41954,1,8,0:0:0:0:
296,232,42188,6,0,P|232:196|224:132,1,130
232,96,42774,1,0,0:0:0:0:
264,60,42891,1,8,0:0:0:0:
348,176,43126,1,0,0:0:0:0:
308,40,43360,1,0,0:0:0:0:
264,200,43594,1,0,0:0:0:0:
360,44,43829,1,8,0:0:0:0:
213,130,44063,1,0,0:0:0:0:
120,80,44298,6,0,P|44:128|36:148,1,97.5,4|0,0:2|0:0,0:0:0:0:
128,180,44766,6,0,P|196:148|212:112,1,97.5,4|0,0:2|0:0,0:0:0:0:
240,48,45235,6,0,P|280:76|292:112,1,65,4|0,0:2|0:0,0:0:0:0:
388,72,45704,1,8,0:0:0:0:
384,124,45821,1,0,0:0:0:0:
364,172,45938,1,0,0:0:0:0:
328,208,46055,1,0,0:0:0:0:
288,232,46173,6,0,P|228:252|180:248,1,97.50000371933,4|8,0:2|0:0,0:0:0:0:
88,136,46876,1,0,0:0:0:0:
103,279,47110,2,0,P|130:262|195:251,1,97.50000371933,0|8,0:0|0:0,0:0:0:0:
276,232,47813,1,0,0:0:0:0:
360,256,48048,2,0,P|324:308|280:320,1,97.50000371933,0|8,0:0|0:0,0:0:0:0:
332,168,48751,5,0,0:0:0:0:
332,168,48985,2,0,P|268:128|232:136,1,97.50000371933,0|8,0:0|0:0,0:0:0:0:
152,160,49688,1,0,0:0:0:0:
108,136,49805,1,0,0:0:0:0:
92,88,49923,1,0,0:0:0:0:
192,72,50157,2,0,P|224:48|248:44,1,48.750001859665,0|8,0:0|0:0,0:0:0:0:
352,116,50626,5,0,0:0:0:0:
208,192,50860,1,0,0:0:0:0:
324,68,51094,1,0,0:0:0:0:
248,232,51329,1,8,0:0:0:0:
324,256,51563,5,0,0:0:0:0:
372,192,51798,2,0,P|404:256|388:296,1,97.50000371933,0|8,0:0|0:0,0:0:0:0:
444,152,52501,1,0,0:0:0:0:
324,256,52736,2,0,P|276:296|228:292,1,97.50000371933,0|8,0:0|0:0,0:0:0:0:
204,284,53322,1,0,0:0:0:0:
156,264,53439,1,0,0:0:0:0:
124,232,53556,1,0,0:0:0:0:
100,184,53673,6,0,P|88:144|124:72,1,116.999996429443,4|8,0:2|0:0,0:0:0:0:
184,144,54376,1,0,0:0:0:0:
184,144,54610,2,0,P|252:152|288:120,1,116.999996429443
224,56,55313,1,0,0:0:0:0:
286,122,55548,2,0,P|336:148|346:174,1,58.4999982147217
364,184,55899,1,0,0:0:0:0:
388,224,56016,2,0,B|408:280|416:324|368:312,1,116.999996429443,8|0,0:0|0:0,0:0:0:0:
268,192,56719,5,0,0:0:0:0:
196,256,56954,2,0,P|148:300|112:304,1,87.7499973220826,8|0,0:0|0:0,0:0:0:0:
80,316,57423,1,0,0:0:0:0:
104,200,57657,1,0,0:0:0:0:
104,108,58126,2,0,P|168:140|184:176,1,87.7499973220826
196,192,58594,1,0,0:0:0:0:
268,132,58829,5,8,0:0:0:0:
364,228,59063,1,0,0:0:0:0:
364,228,59532,2,0,P|420:208|440:96,1,175.499994644165
444,103,60469,1,0,0:0:0:0:
364,32,60704,1,8,0:0:0:0:
316,32,60821,1,0,0:0:0:0:
284,56,60938,1,0,0:0:0:0:
280,92,61055,1,0,0:0:0:0:
292,120,61173,6,0,P|332:180|328:252,1,130,4|8,0:2|0:0,0:0:0:0:
228,200,61876,1,0,0:0:0:0:
448,256,62110,2,0,L|520:236,1,65
336,328,62579,2,0,L|400:343,1,65,8|0,0:0|0:0,0:0:0:0:
236,348,63048,6,0,P|200:316|128:288,1,97.5
104,284,63516,1,8,0:0:0:0:
16,224,63751,1,0,0:0:0:0:
136,120,63985,2,0,P|108:172|112:204,1,65
216,184,64454,2,0,P|244:124|240:100,1,65
360,48,64923,1,4,0:2:0:0:
376,164,65157,5,8,0:0:0:0:
352,212,65275,1,0,0:0:0:0:
376,260,65392,1,0,0:0:0:0:
272,132,65626,2,0,P|248:88|192:56,1,97.5,4|0,0:2|0:2,0:0:0:0:
160,52,66094,1,0,0:0:0:0:
112,64,66212,1,0,0:0:0:0:
80,100,66329,1,8,0:0:0:0:
204,208,66563,6,0,P|164:160|164:132,1,65
76,304,67032,2,0,P|112:272|132:264,1,65,0|8,0:0|0:0,0:0:0:0:
256,128,67501,2,0,P|348:140|372:132,1,97.5
388,128,67969,1,0,0:0:0:0:
432,104,68087,1,0,0:0:0:0:
456,64,68204,1,8,0:0:0:0:
468,208,68438,5,0,0:0:0:0:
412,280,68673,2,0,P|344:268|292:272,1,97.5,4|0,0:2|0:0,0:0:0:0:
276,284,69141,1,8,0:0:0:0:
212,200,69376,2,0,P|184:172|156:164,1,65
44,100,69844,1,0,0:0:0:0:
80,260,70079,1,8,0:0:0:0:
112,292,70196,1,0,0:0:0:0:
152,308,70313,1,0,0:0:0:0:
200,308,70430,1,0,0:0:0:0:
240,284,70548,6,0,B|296:260|288:196|288:196|304:168,1,130,4|8,0:2|0:0,0:0:0:0:
388,72,71251,1,0,0:0:0:0:
388,72,71368,1,0,0:0:0:0:
388,72,71485,2,0,L|408:156,1,65
408,276,71954,2,0,L|428:204,1,65,8|0,0:0|0:0,0:0:0:0:
344,192,72423,6,0,P|308:160|256:140,1,97.5
220,152,72891,1,8,0:0:0:0:
208,272,73126,1,0,0:0:0:0:
160,256,73243,1,0,0:0:0:0:
128,216,73360,1,0,0:0:0:0:
184,64,73594,2,0,P|136:124|124:132,1,65,0|8,0:0|0:0,0:0:0:0:
296,208,74063,1,0,0:0:0:0:
400,232,74297,5,0,0:0:0:0:
404,184,74414,1,0,0:0:0:0:
376,144,74531,1,0,0:0:0:0:
232,132,74766,1,8,0:0:0:0:
200,172,74883,1,0,0:0:0:0:
152,188,75000,1,0,0:0:0:0:
272,248,75235,1,0,0:0:0:0:
300,296,75352,1,0,0:0:0:0:
348,324,75469,1,0,0:0:0:0:
400,320,75587,1,0,0:0:0:0:
360,136,75704,5,8,0:0:0:0:
272,248,75938,1,0,0:0:0:0:
304,36,76173,2,0,P|248:112|252:168,1,130,4|8,0:2|0:0,0:0:0:0:
360,136,76876,1,0,0:0:0:0:
160,200,77110,2,0,L|88:192,1,65
48,304,77579,2,0,L|116:296,1,65,8|0,0:0|0:0,0:0:0:0:
264,168,78048,6,0,P|252:260|232:284,1,97.5
220,304,78516,1,8,0:0:0:0:
360,112,78751,2,0,P|324:72|292:64,2,65
368,248,79454,1,8,0:0:0:0:
392,288,79571,1,0,0:0:0:0:
436,304,79688,1,0,0:0:0:0:
495,153,79923,6,0,P|483:182|456:200,1,65
400,104,80391,1,8,0:0:0:0:
208,80,80626,2,0,P|280:100|300:140,1,97.5
308,148,81094,1,0,0:0:0:0:
340,24,81329,1,8,0:0:0:0:
200,176,81563,2,0,P|132:156|112:116,1,97.5
112,92,82032,1,0,0:0:0:0:
96,252,82266,5,8,0:0:0:0:
96,252,82501,2,0,P|184:292|196:312,1,97.5
208,320,82969,1,0,0:0:0:0:
312,220,83204,1,8,0:0:0:0:
400,320,83438,5,0,0:0:0:0:
432,292,83555,1,0,0:0:0:0:
456,256,83673,2,0,P|460:188|432:152,1,97.5,4|0,0:2|0:0,0:0:0:0:
428,128,84141,1,8,0:0:0:0:
324,52,84376,5,0,0:0:0:0:
284,76,84493,1,0,0:0:0:0:
260,116,84610,1,0,0:0:0:0:
256,168,84727,1,0,0:0:0:0:
288,208,84844,1,0,0:0:0:0:
324,240,84962,1,0,0:0:0:0:
368,236,85079,1,8,0:0:0:0:
184,320,85313,6,0,P|224:292|256:284,1,65
352,144,85782,1,0,0:0:0:0:
452,292,86016,1,8,0:0:0:0:
352,144,86251,5,0,0:0:0:0:
304,128,86368,1,0,0:0:0:0:
268,144,86485,2,0,P|224:184|140:180,1,146.250005578995
56,240,87423,2,0,P|36:188|52:156,1,65,4|0,0:2|0:0,0:0:0:0:
164,122,87891,6,0,P|145:147|141:179,1,65,8|0,0:0|0:0,0:0:0:0:
352,240,88360,2,0,P|356:200|344:172,1,65
296,328,88829,2,0,P|252:272|248:244,1,97.5,8|0,0:0|0:0,0:0:0:0:
252,208,89298,1,0,0:0:0:0:
176,132,89532,1,0,0:0:0:0:
100,284,89766,2,0,P|128:252|136:224,1,65,8|0,0:0|0:0,0:0:0:0:
234,107,90235,2,0,P|202:113|176:132,1,65
256,216,90704,5,8,0:0:0:0:
288,256,90821,1,0,0:0:0:0:
332,284,90938,1,0,0:0:0:0:
384,288,91055,1,0,0:0:0:0:
432,268,91173,2,0,P|472:240|480:212,1,65
364,120,91641,2,0,P|372:172|364:196,1,65,8|0,0:0|0:0,0:0:0:0:
252,60,92110,1,0,0:0:0:0:
180,136,92344,5,0,0:0:0:0:
148,172,92462,1,0,0:0:0:0:
100,176,92579,1,8,0:0:0:0:
36,96,92813,1,0,0:0:0:0:
240,240,93048,1,0,0:0:0:0:
