osu file format v14

[General]
AudioFilename: audio.mp3
AudioLeadIn: 0
PreviewTime: -1
Countdown: 0
SampleSet: Normal
StackLeniency: 0.7
Mode: 0
LetterboxInBreaks: 0
WidescreenStoryboard: 0

[Editor]
Bookmarks: 9000,9409,9681,9818,9954,10227,10363,10500,10772,10909,11045,11318,11590,12000,12409,12818,13363,13772,14044,14181,14317,14590,14726,14863,15135,15272,15408,15613,15885,16226,16635,17181,17249,17454,17726,17999,18135,18408,18544,18681,18954,19908,20317,20454,20726,20999,21135,21954,22090,24408,24817,25090,25499,25908,26181,26454,26863,26999,34363,34635,43908,50454,51408,52635,53181,54272,54544,54817,55363,55499,55635,55772,56181,56454,56999,57544,57613,57681,57749,57817,57954,58090,58363,58635,58908
DistanceSpacing: 1
BeatDivisor: 8
GridSize: 4
TimelineZoom: 2.3

[Metadata]
Title:Hipster Cutthroat
TitleUnicode:Hipster Cutthroat
Artist:DotEXE
ArtistUnicode:DotEXE
Creator:Cat Like Thief
Version:Cutthroat
Source:Monstercat
Tags:Monstercat
BeatmapID:1359666
BeatmapSetID:641166

[Difficulty]
HPDrainRate:7
CircleSize:4
OverallDifficulty:7
ApproachRate:9
SliderMultiplier:1.4
SliderTickRate:2

[Events]
//Background and Video events
0,0,"blueiso.jpg",0,0
//Break Periods
2,35381,43308
//Storyboard Layer 0 (Background)
//Storyboard Layer 1 (Fail)
//Storyboard Layer 2 (Pass)
//Storyboard Layer 3 (Foreground)
//Storyboard Sound Samples

[TimingPoints]
0,545.454545454546,4,1,0,100,1,0
8727,-100,4,1,0,100,0,0
11863,-147.058823529412,4,1,0,100,0,0
12681,-200,4,1,0,100,0,0
12954,545.454545454546,4,1,0,5,1,0
13227,-100,4,1,0,100,0,0
17863,-50,4,1,0,100,0,0
52499,-50,4,1,0,100,0,1
55363,-50,4,1,0,5,0,1
55499,-50,4,1,0,100,0,1
55567,-50,4,1,0,5,0,1
55635,-50,4,1,0,100,0,1
55704,-50,4,1,0,5,0,1
55772,-50,4,1,0,100,0,1
55840,-50,4,1,0,5,0,1
55908,-50,4,1,0,100,0,1

[HitObjects]
80,156,9000,6,0,B|104:204|104:204|172:220,1,105
256,76,9681,2,0,L|256:136,1,35
344,184,9954,1,0,0:0:0:0:
244,252,10227,2,0,L|284:208,1,35
148,148,10500,1,0,0:0:0:0:
288,116,10772,1,0,0:0:0:0:
156,52,10909,2,0,L|204:32,1,35
96,112,11250,6,0,P|88:144|100:184,1,70
416,112,12000,2,0,P|424:148|412:184,1,71.400000435791
256,176,12818,2,0,L|256:220,1,35
176,252,13363,6,0,B|232:280|232:280|276:268,1,105
296,160,14044,1,0,0:0:0:0:
192,224,14181,1,0,0:0:0:0:
232,108,14317,1,0,0:0:0:0:
304,160,14590,1,0,0:0:0:0:
300,256,14726,1,0,0:0:0:0:
188,164,14863,1,0,0:0:0:0:
336,112,15135,1,0,0:0:0:0:
216,232,15272,1,0,0:0:0:0:
308,196,15408,1,0,0:0:0:0:
232,280,15613,6,0,B|196:296|196:296|164:284,1,70
392,224,16226,2,0,P|360:176|316:144,1,105
256,96,17181,5,0,0:0:0:0:
256,96,17249,1,0,0:0:0:0:
256,96,17454,2,0,L|256:172,1,70
96,184,17999,5,0,0:0:0:0:
152,112,18135,1,0,0:0:0:0:
256,120,18408,2,0,L|256:228,1,70
256,190,18681,1,0,0:0:0:0:
372,168,18954,1,0,0:0:0:0:
396,72,19090,1,0,0:0:0:0:
288,120,19226,1,0,0:0:0:0:
332,260,19363,2,0,L|264:208,2,70
332,260,19772,1,0,0:0:0:0:
404,260,19908,6,0,B|408:128|408:128|340:64,1,210
351,74,20454,1,0,0:0:0:0:
184,292,20726,2,0,P|220:220|212:156,1,140
214,162,21135,1,0,0:0:0:0:
356,68,21408,1,0,0:0:0:0:
368,100,21544,1,0,0:0:0:0:
376,136,21681,1,0,0:0:0:0:
376,172,21817,1,0,0:0:0:0:
364,204,21954,1,0,0:0:0:0:
128,128,22090,6,0,P|80:200|92:340,1,210
208,264,22772,1,0,0:0:0:0:
324,188,22908,1,0,0:0:0:0:
428,96,23044,1,0,0:0:0:0:
260,64,23317,2,0,L|184:48,2,70
308,148,23726,1,0,0:0:0:0:
224,260,23863,2,0,B|176:260|176:260|148:228,1,70
220,132,24135,1,0,0:0:0:0:
216,268,24272,6,0,L|400:84,1,245
389,94,24954,1,0,0:0:0:0:
440,164,25090,2,0,B|420:244|420:244|348:264|348:264|324:320,1,210,8|0,0:0|0:0,0:0:0:0:
288,192,25635,2,0,P|228:232|204:332,2,140,0|8|0,0:0|0:0|0:0,0:0:0:0:
192,100,26454,6,0,B|128:160|128:160|136:288,1,210
256,144,27135,1,0,0:0:0:0:
256,272,27272,1,0,0:0:0:0:
340,212,27408,1,0,0:0:0:0:
416,136,27681,2,0,B|444:180|444:180|448:216,2,70
336,80,28090,1,0,0:0:0:0:
208,56,28226,2,0,L|144:168,2,70
72,144,28635,6,0,B|152:204|152:204|260:168,1,210
256,169,29181,1,0,0:0:0:0:
320,80,29454,2,0,B|416:148|416:148|368:288,1,210
386,235,29999,1,0,0:0:0:0:
280,312,30272,1,0,0:0:0:0:
256,284,30408,1,0,0:0:0:0:
236,256,30544,1,0,0:0:0:0:
220,224,30681,1,0,0:0:0:0:
124,112,30817,6,0,P|200:72|348:80,1,210
388,172,31499,2,0,L|388:256,2,70
300,80,32044,1,0,0:0:0:0:
192,52,32181,1,0,0:0:0:0:
96,80,32317,1,0,0:0:0:0:
208,144,32454,1,0,0:0:0:0:
308,56,32590,2,0,L|376:144,2,70
212,116,32999,1,0,0:0:0:0:
96,208,33135,6,0,P|140:288|236:320,1,140
416,176,33681,6,0,P|372:96|276:64,1,140
332,72,34090,1,8,0:0:0:0:
240,132,34363,1,8,0:0:0:0:
108,120,34635,1,8,0:0:0:0:
176,236,34908,1,8,0:0:0:0:
308,184,35181,1,8,0:0:0:0:
284,176,43908,5,0,0:0:0:0:
416,104,44181,1,0,0:0:0:0:
280,48,44454,1,0,0:0:0:0:
160,100,44726,2,0,P|140:168|176:240,1,140
312,176,45272,1,0,0:0:0:0:
236,44,45544,1,0,0:0:0:0:
116,188,45817,1,0,0:0:0:0:
256,228,46090,2,0,L|376:128,2,140
200,308,46908,1,0,0:0:0:0:
80,236,47181,2,0,L|212:88,1,140
392,112,47726,1,0,0:0:0:0:
200,208,47999,1,0,0:0:0:0:
220,80,48272,1,0,0:0:0:0:
384,108,48544,1,0,0:0:0:0:
344,216,48817,1,0,0:0:0:0:
264,288,49090,2,0,P|168:292|116:256,1,140
108,144,49635,1,0,0:0:0:0:
208,72,49908,2,0,B|312:60|312:60|380:104,1,140
416,212,50454,5,0,0:0:0:0:
392,240,50590,1,0,0:0:0:0:
364,260,50726,1,0,0:0:0:0:
332,272,50863,1,0,0:0:0:0:
296,276,50999,1,0,0:0:0:0:
260,272,51135,1,0,0:0:0:0:
228,260,51272,1,0,0:0:0:0:
196,244,51408,1,0,0:0:0:0:
80,248,52635,6,0,B|116:152|172:112|292:152,1,210
352,144,53181,2,0,L|352:208,4,35
336,64,53590,1,0,0:0:0:0:
132,60,53726,2,0,P|72:152|72:184,1,140
71,178,54135,1,0,0:0:0:0:
372,96,54272,2,0,B|356:168|356:168|280:264,1,140
236,60,54817,6,0,L|120:244,1,210
284,268,55363,2,0,L|240:268,1,35
180,220,55499,2,0,L|180:176,1,35
228,116,55635,2,0,L|272:116,1,35
332,164,55772,2,0,L|332:208,1,35
284,268,55908,1,0,0:0:0:0:
128,132,56181,1,0,0:0:0:0:
236,40,56454,2,0,B|292:60|432:40|432:40|432:128,1,280
416,236,57544,5,0,0:0:0:0:
392,264,57613,1,0,0:0:0:0:
364,288,57681,1,0,0:0:0:0:
332,300,57749,1,0,0:0:0:0:
296,304,57817,1,0,0:0:0:0:
152,236,57954,1,0,0:0:0:0:
232,128,58090,2,0,L|388:76,1,140
364,83,58431,1,0,0:0:0:0:
368,88,58499,1,0,0:0:0:0:
432,208,58635,2,0,L|320:296,1,140
