osu file format v14

[General]
AudioFilename: audio.mp3
AudioLeadIn: 0
PreviewTime: 27346
Countdown: 0
SampleSet: Soft
StackLeniency: 1
Mode: 1
LetterboxInBreaks: 0
WidescreenStoryboard: 0

[Editor]
DistanceSpacing: 1
BeatDivisor: 4
GridSize: 32
TimelineZoom: 1.7

[Metadata]
Title:Make It Funky Now
TitleUnicode:Make It Funky Now
Artist:Dot96
ArtistUnicode:Dot96
Creator:BelgiumGL
Version:Funky
Source:Internet
Tags:Dot96 electronic make it funky now abstract
BeatmapID:4475837
BeatmapSetID:2128752

[Difficulty]
HPDrainRate:6
CircleSize:2
OverallDifficulty:5
ApproachRate:10
SliderMultiplier:1.4
SliderTickRate:1

[Events]
//Background and Video events
0,0,"3513741.jpg",0,0
//Break Periods
//Storyboard Layer 0 (Background)
//Storyboard Layer 1 (Fail)
//Storyboard Layer 2 (Pass)
//Storyboard Layer 3 (Foreground)
//Storyboard Layer 4 (Overlay)
//Storyboard Sound Samples

[TimingPoints]
1045,410.958904109589,4,2,0,100,1,0
1045,-133.333333333333,4,2,0,100,0,0
6798,-114.285714285714,4,2,0,100,0,0
7620,-133.333333333333,4,2,0,100,0,0
9264,-114.285714285714,4,2,0,100,0,0
9777,-133.333333333333,4,2,0,100,0,0
10908,-114.285714285714,4,2,0,100,0,0
11627,-133.333333333333,4,2,0,100,0,0
12551,-114.285714285714,4,2,0,100,0,0
12962,-100,4,2,0,100,0,0
13373,-100,4,2,0,100,0,0
13784,-80,4,2,0,100,0,0
14195,-133.333333333333,4,2,0,100,0,0
27346,-114.285714285714,4,2,0,100,0,1
32688,-133.333333333333,4,2,0,100,0,0
33921,-114.285714285714,4,2,0,100,0,1
39264,-133.333333333333,4,2,0,100,0,0
40511,-133.333333333333,4,2,0,100,0,0
43784,-133.333333333333,4,2,0,100,0,0
43887,-133.333333333333,4,2,0,100,0,0
47084,-133.333333333333,4,2,0,100,0,0
47175,-133.333333333333,4,2,0,100,0,0
50372,-133.333333333333,4,2,0,100,0,0
51181,-114.285714285714,4,2,0,100,0,0
51901,-133.333333333333,4,2,0,100,0,0
52620,-133.333333333333,4,2,0,100,0,0
58568,-114.285714285714,4,2,0,100,0,0
60325,-133.333333333333,4,2,0,100,0,0
65154,-114.285714285714,4,2,0,100,0,0
66798,-133.333333333333,4,2,0,100,0,0
79949,-114.285714285714,4,2,0,100,0,0
80771,-100,4,2,0,100,0,0
81181,-133.333333333333,4,2,0,100,0,0
82003,-133.333333333333,4,2,0,100,0,0
83236,-133.333333333333,4,2,0,100,0,0
84469,-133.333333333333,4,2,0,100,0,0
85702,-133.333333333333,4,2,0,100,0,0
86524,-133.333333333333,4,2,0,100,0,0
93099,-133.333333333333,4,2,0,100,0,1
98442,-100,4,2,0,100,0,0
99675,-114.285714285714,4,2,0,100,0,1
105017,-100,4,2,0,100,0,0
106250,-133.333333333333,4,2,0,100,0,0
109538,-133.333333333333,4,2,0,100,0,0
109640,-133.333333333333,4,2,0,100,0,0
112825,-133.333333333333,4,2,0,100,0,0
112928,-133.333333333333,4,2,0,100,0,0
116105,-133.333333333333,4,2,0,100,0,0
117132,-114.285714285714,4,2,0,100,0,0
117757,-133.333333333333,4,2,0,100,0,0
118784,-114.285714285714,4,2,0,100,0,0

[HitObjects]
254,192,1045,5,12,0:0:0:0:
254,192,1455,1,0,0:0:0:0:
259,190,1661,1,0,0:0:0:0:
254,192,1764,1,8,0:0:0:0:
254,192,1969,1,8,0:0:0:0:
254,192,2072,1,0,0:0:0:0:
254,192,2277,1,0,0:0:0:0:
254,192,2688,1,12,0:0:0:0:
260,195,2894,1,0,0:0:0:0:
274,192,2997,1,0,0:0:0:0:
254,192,3099,1,8,0:0:0:0:
269,194,3305,1,8,0:0:0:0:
252,179,3510,1,8,0:0:0:0:
252,179,3613,1,0,0:0:0:0:
254,192,3716,1,0,0:0:0:0:
256,176,3818,1,0,0:0:0:0:
258,179,3921,1,8,0:0:0:0:
268,183,4127,1,0,0:0:0:0:
256,189,4332,1,12,0:0:0:0:
242,180,4743,1,0,0:0:0:0:
268,183,4948,1,8,0:0:0:0:
250,172,5154,1,0,0:0:0:0:
242,180,5462,1,8,0:0:0:0:
242,180,5565,1,0,0:0:0:0:
258,190,5771,1,8,0:0:0:0:
256,189,5873,1,0,0:0:0:0:
256,189,5976,1,8,0:0:0:0:
256,189,6079,1,8,0:0:0:0:
256,189,6181,1,0,0:0:0:0:
258,190,6284,1,0,0:0:0:0:
258,190,6387,1,8,0:0:0:0:
258,190,6490,1,8,0:0:0:0:
258,190,6592,1,0,0:0:0:0:
247,185,6798,1,4,0:0:0:0:
258,190,7209,1,12,0:0:0:0:
245,185,7620,1,8,0:0:0:0:
245,185,7723,1,0,0:0:0:0:
245,185,7825,1,8,0:0:0:0:
247,200,8236,1,8,0:0:0:0:
261,188,8442,1,0,0:0:0:0:
257,200,8545,1,0,0:0:0:0:
256,184,8647,1,8,0:0:0:0:
256,184,8852,1,8,0:0:0:0:
257,192,9058,1,4,0:0:0:0:
256,184,9264,1,8,0:0:0:0:
249,182,9366,1,0,0:0:0:0:
254,184,9469,1,8,0:0:0:0:
256,184,9675,1,12,0:0:0:0:
256,190,10291,1,8,0:0:0:0:
256,184,10497,1,8,0:0:0:0:
256,184,10600,1,0,0:0:0:0:
256,184,10703,1,0,0:0:0:0:
256,184,10908,1,12,0:0:0:0:
262,182,11318,1,12,0:0:0:0:
262,182,11525,1,12,0:0:0:0:
273,185,11729,1,0,0:0:0:0:
264,184,11935,1,0,0:0:0:0:
268,181,12038,1,0,0:0:0:0:
268,181,12140,1,8,0:0:0:0:
262,182,12243,1,8,0:0:0:0:
268,181,12346,1,0,0:0:0:0:
268,181,12449,1,8,0:0:0:0:
262,188,12551,1,4,0:0:0:0:
262,182,12962,1,12,0:0:0:0:
262,182,13373,1,12,0:0:0:0:
262,182,13784,1,12,0:0:0:0:
269,177,14195,1,0,0:0:0:0:
287,179,14401,1,8,0:0:0:0:
288,175,14503,1,0,0:0:0:0:
269,177,14606,1,0,0:0:0:0:
284,180,14709,1,8,0:0:0:0:
269,177,14812,1,8,0:0:0:0:
265,177,15017,1,8,0:0:0:0:
275,180,15223,1,0,0:0:0:0:
275,180,15325,1,8,0:0:0:0:
265,177,15428,1,0,0:0:0:0:
274,170,15634,1,8,0:0:0:0:
274,170,15736,1,8,0:0:0:0:
265,177,15839,1,8,0:0:0:0:
271,172,16044,1,8,0:0:0:0:
261,187,16147,1,8,0:0:0:0:
259,176,16250,1,0,0:0:0:0:
261,187,16353,1,0,0:0:0:0:
259,176,16455,1,8,0:0:0:0:
268,165,16558,1,8,0:0:0:0:
268,165,16661,5,8,0:0:0:0:
267,165,16866,1,0,0:0:0:0:
257,164,16969,1,0,0:0:0:0:
258,177,17072,1,8,0:0:0:0:
259,176,17278,1,0,0:0:0:0:
256,171,17380,1,0,0:0:0:0:
259,176,17483,1,8,0:0:0:0:
252,168,17688,1,8,0:0:0:0:
252,168,17791,1,8,0:0:0:0:
262,174,17894,1,0,0:0:0:0:
257,164,17997,1,0,0:0:0:0:
254,167,18099,1,8,0:0:0:0:
270,165,18202,1,8,0:0:0:0:
259,176,18305,1,8,0:0:0:0:
268,172,18510,1,0,0:0:0:0:
268,172,18613,1,0,0:0:0:0:
262,174,18716,1,8,0:0:0:0:
243,172,18921,1,8,0:0:0:0:
243,172,19024,1,8,0:0:0:0:
243,172,19127,1,0,0:0:0:0:
243,172,19229,1,0,0:0:0:0:
243,172,19332,1,8,0:0:0:0:
241,196,19435,1,8,0:0:0:0:
262,174,19538,1,8,0:0:0:0:
262,174,19743,1,8,0:0:0:0:
236,195,19846,1,0,0:0:0:0:
258,170,19949,1,0,0:0:0:0:
243,172,20154,1,0,0:0:0:0:
243,172,20257,1,0,0:0:0:0:
262,174,20360,1,8,0:0:0:0:
262,174,20566,1,0,0:0:0:0:
241,172,20668,1,0,0:0:0:0:
262,174,20771,1,8,0:0:0:0:
261,155,20976,1,8,0:0:0:0:
261,155,21079,1,8,0:0:0:0:
260,169,21181,1,0,0:0:0:0:
261,155,21284,1,0,0:0:0:0:
256,147,21387,1,8,0:0:0:0:
256,147,21490,1,8,0:0:0:0:
258,168,21592,1,8,0:0:0:0:
246,155,21798,1,0,0:0:0:0:
246,155,21901,1,8,0:0:0:0:
260,169,22003,1,0,0:0:0:0:
260,169,22209,1,0,0:0:0:0:
263,166,22312,1,0,0:0:0:0:
258,168,22414,1,0,0:0:0:0:
258,168,22620,1,8,0:0:0:0:
263,165,22723,1,8,0:0:0:0:
260,169,22825,1,0,0:0:0:0:
252,167,22928,1,0,0:0:0:0:
260,169,23031,1,8,0:0:0:0:
252,167,23134,1,8,0:0:0:0:
258,168,23236,1,8,0:0:0:0:
247,157,23442,1,0,0:0:0:0:
247,157,23545,1,0,0:0:0:0:
263,158,23647,1,8,0:0:0:0:
263,158,23853,1,0,0:0:0:0:
258,164,23955,1,0,0:0:0:0:
263,158,24058,1,8,0:0:0:0:
258,168,24264,1,8,0:0:0:0:
258,164,24366,1,8,0:0:0:0:
260,150,24469,1,0,0:0:0:0:
262,151,24572,1,0,0:0:0:0:
263,158,24675,1,8,0:0:0:0:
263,158,24777,1,8,0:0:0:0:
263,158,24880,1,8,0:0:0:0:
258,163,25086,1,0,0:0:0:0:
258,168,25188,1,0,0:0:0:0:
263,158,25291,1,8,0:0:0:0:
232,163,25497,1,0,0:0:0:0:
232,163,25599,1,0,0:0:0:0:
263,158,25702,1,8,0:0:0:0:
266,150,25805,1,0,0:0:0:0:
232,163,25908,1,0,0:0:0:0:
263,158,26113,1,8,0:0:0:0:
274,146,26318,1,8,0:0:0:0:
274,146,26421,1,8,0:0:0:0:
250,157,26524,1,0,0:0:0:0:
250,157,26627,1,0,0:0:0:0:
250,157,26729,1,8,0:0:0:0:
263,158,26832,1,8,0:0:0:0:
263,158,26935,1,8,0:0:0:0:
264,156,27346,1,4,0:0:0:0:
260,151,27551,1,0,0:0:0:0:
260,151,27654,1,0,0:0:0:0:
263,158,27757,1,8,0:0:0:0:
247,159,27962,1,0,0:0:0:0:
260,145,28065,1,0,0:0:0:0:
264,156,28168,1,8,0:0:0:0:
240,162,28271,1,0,0:0:0:0:
240,162,28373,1,0,0:0:0:0:
263,158,28579,1,8,0:0:0:0:
253,165,28681,1,0,0:0:0:0:
263,158,28784,1,0,0:0:0:0:
253,165,28887,1,0,0:0:0:0:
263,158,28990,1,8,0:0:0:0:
256,151,29195,1,0,0:0:0:0:
256,151,29298,1,0,0:0:0:0:
262,150,29401,1,8,0:0:0:0:
247,146,29503,1,8,0:0:0:0:
262,150,29606,1,8,0:0:0:0:
262,150,29709,1,8,0:0:0:0:
262,150,29812,1,0,0:0:0:0:
256,133,29914,1,0,0:0:0:0:
262,150,30017,1,0,0:0:0:0:
277,144,30120,1,8,0:0:0:0:
270,150,30223,1,8,0:0:0:0:
265,162,30325,1,8,0:0:0:0:
251,150,30427,1,8,0:0:0:0:
249,166,30531,1,0,0:0:0:0:
271,148,30634,1,8,0:0:0:0:
256,164,30736,1,8,0:0:0:0:
272,144,30839,1,8,0:0:0:0:
272,144,30942,1,8,0:0:0:0:
272,144,31045,1,0,0:0:0:0:
248,168,31147,1,0,0:0:0:0:
272,144,31250,1,8,0:0:0:0:
261,149,31353,1,8,0:0:0:0:
272,144,31455,1,8,0:0:0:0:
246,170,31661,1,0,0:0:0:0:
248,168,31764,1,0,0:0:0:0:
247,169,31866,1,8,0:0:0:0:
265,148,31969,1,8,0:0:0:0:
265,148,32072,1,0,0:0:0:0:
265,148,32277,1,8,0:0:0:0:
243,178,32483,1,0,0:0:0:0:
265,148,32688,1,12,0:0:0:0:
243,178,32894,1,0,0:0:0:0:
272,146,33099,1,12,0:0:0:0:
243,178,33305,1,0,0:0:0:0:
272,146,33510,1,12,0:0:0:0:
243,178,33716,1,0,0:0:0:0:
264,156,33921,1,8,0:0:0:0:
260,151,34126,1,0,0:0:0:0:
260,151,34229,1,0,0:0:0:0:
263,158,34332,1,8,0:0:0:0:
247,159,34537,1,0,0:0:0:0:
260,145,34640,1,0,0:0:0:0:
264,156,34743,1,8,0:0:0:0:
240,162,34846,1,0,0:0:0:0:
240,162,34948,1,0,0:0:0:0:
263,158,35154,1,8,0:0:0:0:
253,165,35256,1,0,0:0:0:0:
263,158,35359,1,0,0:0:0:0:
253,165,35462,1,0,0:0:0:0:
263,158,35565,1,8,0:0:0:0:
256,151,35770,1,0,0:0:0:0:
256,151,35873,1,0,0:0:0:0:
262,150,35976,1,8,0:0:0:0:
247,146,36078,1,8,0:0:0:0:
262,150,36181,1,8,0:0:0:0:
262,150,36284,1,8,0:0:0:0:
262,150,36387,1,0,0:0:0:0:
256,133,36489,1,0,0:0:0:0:
262,150,36592,1,0,0:0:0:0:
277,144,36695,1,8,0:0:0:0:
270,150,36798,1,8,0:0:0:0:
265,162,36900,1,8,0:0:0:0:
251,150,37002,1,8,0:0:0:0:
249,166,37106,1,0,0:0:0:0:
271,148,37209,1,8,0:0:0:0:
256,164,37311,1,8,0:0:0:0:
272,144,37414,1,8,0:0:0:0:
272,144,37517,1,8,0:0:0:0:
272,144,37620,1,0,0:0:0:0:
248,168,37722,1,0,0:0:0:0:
272,144,37825,1,8,0:0:0:0:
261,149,37928,1,8,0:0:0:0:
272,144,38030,1,8,0:0:0:0:
246,170,38236,1,0,0:0:0:0:
248,168,38339,1,0,0:0:0:0:
247,169,38441,1,8,0:0:0:0:
265,148,38544,1,8,0:0:0:0:
265,148,38647,1,0,0:0:0:0:
265,148,38852,1,8,0:0:0:0:
243,178,39058,1,0,0:0:0:0:
265,148,39263,1,12,0:0:0:0:
243,178,39469,1,0,0:0:0:0:
272,146,39674,1,12,0:0:0:0:
243,178,39880,1,0,0:0:0:0:
272,146,40085,1,12,0:0:0:0:
243,178,40291,1,0,0:0:0:0:
243,178,40497,1,8,0:0:0:0:
272,144,40908,5,8,0:0:0:0:
272,144,41010,1,0,0:0:0:0:
272,144,41113,1,8,0:0:0:0:
272,144,41318,1,8,0:0:0:0:
272,144,41421,1,0,0:0:0:0:
272,144,41524,1,8,0:0:0:0:
272,144,41729,1,8,0:0:0:0:
272,144,41832,1,0,0:0:0:0:
272,144,41935,1,8,0:0:0:0:
272,144,42140,1,8,0:0:0:0:
272,144,42243,1,0,0:0:0:0:
272,144,42346,1,8,0:0:0:0:
272,144,42551,1,8,0:0:0:0:
272,144,42654,1,0,0:0:0:0:
272,144,42757,1,8,0:0:0:0:
272,144,42962,1,8,0:0:0:0:
272,144,43065,1,0,0:0:0:0:
272,144,43168,1,8,0:0:0:0:
263,151,43373,1,8,0:0:0:0:
263,151,43476,1,0,0:0:0:0:
263,151,43579,1,8,0:0:0:0:
272,144,43784,1,12,0:0:0:0:
272,144,44195,1,8,0:0:0:0:
270,143,44298,1,8,0:0:0:0:
270,143,44401,1,0,0:0:0:0:
270,143,44606,1,8,0:0:0:0:
272,144,44709,1,8,0:0:0:0:
272,144,44812,1,0,0:0:0:0:
272,144,45017,1,8,0:0:0:0:
272,144,45120,1,8,0:0:0:0:
272,144,45223,1,0,0:0:0:0:
270,143,45428,1,8,0:0:0:0:
270,143,45531,1,8,0:0:0:0:
270,143,45634,1,0,0:0:0:0:
273,149,45839,1,8,0:0:0:0:
275,149,45942,1,8,0:0:0:0:
275,149,46044,1,0,0:0:0:0:
275,149,46250,1,8,0:0:0:0:
275,149,46353,1,8,0:0:0:0:
275,149,46455,1,0,0:0:0:0:
275,149,46661,1,8,0:0:0:0:
273,149,46764,1,8,0:0:0:0:
273,149,46866,1,0,0:0:0:0:
273,142,47072,1,12,0:0:0:0:
275,149,47483,1,0,0:0:0:0:
275,149,47586,1,8,0:0:0:0:
275,149,47688,1,8,0:0:0:0:
275,149,47894,1,0,0:0:0:0:
275,149,47997,1,8,0:0:0:0:
275,149,48099,1,8,0:0:0:0:
275,149,48305,1,0,0:0:0:0:
275,149,48408,1,8,0:0:0:0:
275,149,48510,1,8,0:0:0:0:
275,149,48716,1,0,0:0:0:0:
275,149,48819,1,8,0:0:0:0:
275,149,48921,1,8,0:0:0:0:
275,149,49127,1,0,0:0:0:0:
275,149,49229,1,8,0:0:0:0:
275,149,49332,1,8,0:0:0:0:
275,149,49538,1,0,0:0:0:0:
275,149,49640,1,8,0:0:0:0:
275,149,49743,1,8,0:0:0:0:
275,149,49949,1,0,0:0:0:0:
275,149,50051,1,8,0:0:0:0:
275,149,50154,1,8,0:0:0:0:
275,149,50360,1,12,0:0:0:0:
275,149,50565,1,12,0:0:0:0:
275,149,50771,1,12,0:0:0:0:
275,149,50976,1,12,0:0:0:0:
275,149,51181,1,8,0:0:0:0:
275,149,51284,1,0,0:0:0:0:
275,149,51387,1,8,0:0:0:0:
275,149,51490,1,0,0:0:0:0:
275,149,51592,1,8,0:0:0:0:
275,149,51695,1,0,0:0:0:0:
275,149,51798,1,8,0:0:0:0:
259,144,51935,1,0,0:0:0:0:
269,144,52003,1,0,0:0:0:0:
275,149,52072,1,0,0:0:0:0:
275,149,52140,1,0,0:0:0:0:
275,149,52209,1,0,0:0:0:0:
275,149,52277,1,0,0:0:0:0:
275,149,52346,1,0,0:0:0:0:
275,149,52414,1,0,0:0:0:0:
281,147,52620,1,12,0:0:0:0:
279,144,52825,1,12,0:0:0:0:
280,151,53031,1,12,0:0:0:0:
280,146,53236,1,12,0:0:0:0:
254,192,53647,5,12,0:0:0:0:
254,192,54057,1,0,0:0:0:0:
259,190,54263,1,0,0:0:0:0:
254,192,54366,1,8,0:0:0:0:
254,192,54571,1,8,0:0:0:0:
254,192,54674,1,0,0:0:0:0:
254,192,54879,1,0,0:0:0:0:
254,192,55290,1,12,0:0:0:0:
260,195,55496,1,0,0:0:0:0:
274,192,55599,1,0,0:0:0:0:
254,192,55701,1,8,0:0:0:0:
269,194,55907,1,12,0:0:0:0:
252,179,56112,1,8,0:0:0:0:
252,179,56215,1,0,0:0:0:0:
254,192,56318,1,0,0:0:0:0:
256,176,56420,1,0,0:0:0:0:
258,179,56523,1,8,0:0:0:0:
268,183,56729,1,0,0:0:0:0:
256,189,56934,1,12,0:0:0:0:
258,190,57346,1,0,0:0:0:0:
256,189,57552,1,8,0:0:0:0:
262,188,57757,1,8,0:0:0:0:
262,188,57860,1,0,0:0:0:0:
262,188,57962,1,0,0:0:0:0:
263,187,58168,1,0,0:0:0:0:
270,188,58579,1,12,0:0:0:0:
282,199,58784,1,0,0:0:0:0:
270,188,58990,1,12,0:0:0:0:
280,197,59195,1,0,0:0:0:0:
270,188,59401,1,12,0:0:0:0:
280,197,59606,1,0,0:0:0:0:
270,188,59812,1,12,0:0:0:0:
280,197,60017,1,0,0:0:0:0:
270,188,60223,1,12,0:0:0:0:
270,188,60634,1,0,0:0:0:0:
259,187,60839,1,8,0:0:0:0:
256,184,60942,1,8,0:0:0:0:
250,186,61044,1,0,0:0:0:0:
256,192,61147,1,0,0:0:0:0:
263,184,61250,1,8,0:0:0:0:
245,186,61353,1,8,0:0:0:0:
256,184,61455,1,8,0:0:0:0:
256,184,61660,1,0,0:0:0:0:
260,176,61764,1,0,0:0:0:0:
256,184,61866,1,8,0:0:0:0:
266,180,62072,1,4,0:0:0:0:
256,184,62277,1,8,0:0:0:0:
256,184,62380,1,0,0:0:0:0:
256,184,62483,1,0,0:0:0:0:
256,184,62688,1,8,0:0:0:0:
256,184,62894,1,0,0:0:0:0:
256,184,63099,1,0,0:0:0:0:
256,184,63305,1,12,0:0:0:0:
256,184,63510,1,8,0:0:0:0:
256,184,63613,1,0,0:0:0:0:
256,184,63716,1,0,0:0:0:0:
268,179,63921,1,12,0:0:0:0:
268,179,64127,1,12,0:0:0:0:
256,184,64435,1,8,0:0:0:0:
256,184,64538,1,0,0:0:0:0:
252,180,64743,1,0,0:0:0:0:
256,184,64846,1,8,0:0:0:0:
262,182,65154,1,12,0:0:0:0:
265,184,65360,1,0,0:0:0:0:
262,182,65565,1,12,0:0:0:0:
252,180,65771,1,0,0:0:0:0:
266,176,65976,1,12,0:0:0:0:
262,182,66181,1,0,0:0:0:0:
267,178,66387,1,12,0:0:0:0:
262,182,66592,1,0,0:0:0:0:
266,176,66798,1,8,0:0:0:0:
266,176,67003,1,8,0:0:0:0:
262,182,67106,1,0,0:0:0:0:
267,178,67209,1,8,0:0:0:0:
267,178,67414,1,8,0:0:0:0:
266,176,67620,1,8,0:0:0:0:
266,176,67825,1,0,0:0:0:0:
266,176,67928,1,0,0:0:0:0:
267,178,68031,1,8,0:0:0:0:
263,186,68236,1,0,0:0:0:0:
267,178,68442,1,8,0:0:0:0:
265,180,68647,1,8,0:0:0:0:
267,178,68750,1,0,0:0:0:0:
271,178,68853,1,8,0:0:0:0:
271,178,69058,1,0,0:0:0:0:
271,178,69264,1,8,0:0:0:0:
278,185,69366,1,0,0:0:0:0:
278,181,69572,1,0,0:0:0:0:
278,181,69675,1,8,0:0:0:0:
279,182,69880,1,8,0:0:0:0:
271,178,70086,1,4,0:0:0:0:
280,175,70497,1,0,0:0:0:0:
280,175,70702,1,8,0:0:0:0:
280,175,70805,1,0,0:0:0:0:
280,175,70908,1,8,0:0:0:0:
291,169,71113,1,0,0:0:0:0:
280,175,71318,1,0,0:0:0:0:
290,168,71421,1,0,0:0:0:0:
290,168,71524,1,8,0:0:0:0:
281,181,71729,1,8,0:0:0:0:
281,181,71935,1,8,0:0:0:0:
281,181,72038,1,0,0:0:0:0:
281,181,72140,1,8,0:0:0:0:
281,181,72346,1,8,0:0:0:0:
281,181,72551,1,8,0:0:0:0:
281,181,72654,1,0,0:0:0:0:
281,181,72860,1,0,0:0:0:0:
281,181,72962,1,8,0:0:0:0:
281,181,73168,1,8,0:0:0:0:
281,181,73373,1,4,0:0:0:0:
281,181,73784,1,0,0:0:0:0:
281,181,73990,1,8,0:0:0:0:
281,181,74092,1,0,0:0:0:0:
281,181,74195,1,8,0:0:0:0:
288,185,74401,1,0,0:0:0:0:
281,181,74606,1,0,0:0:0:0:
281,181,74709,1,0,0:0:0:0:
281,181,74812,1,8,0:0:0:0:
287,178,75017,1,8,0:0:0:0:
287,178,75223,1,8,0:0:0:0:
287,178,75325,1,0,0:0:0:0:
287,178,75428,1,8,0:0:0:0:
287,178,75634,1,8,0:0:0:0:
287,178,75839,1,8,0:0:0:0:
287,178,75942,1,0,0:0:0:0:
287,178,76147,1,0,0:0:0:0:
287,178,76250,1,8,0:0:0:0:
287,178,76455,1,8,0:0:0:0:
287,178,76661,1,4,0:0:0:0:
287,178,77072,1,0,0:0:0:0:
287,178,77277,1,8,0:0:0:0:
287,178,77380,1,0,0:0:0:0:
287,178,77483,1,8,0:0:0:0:
294,175,77688,1,0,0:0:0:0:
287,178,77894,1,0,0:0:0:0:
294,175,77997,1,0,0:0:0:0:
294,175,78099,1,8,0:0:0:0:
287,178,78305,1,8,0:0:0:0:
294,182,78510,1,8,0:0:0:0:
294,182,78613,1,0,0:0:0:0:
294,182,78716,1,8,0:0:0:0:
297,186,78921,1,8,0:0:0:0:
294,182,79127,1,8,0:0:0:0:
299,185,79229,1,0,0:0:0:0:
299,185,79435,1,0,0:0:0:0:
299,185,79538,1,0,0:0:0:0:
297,186,79949,1,12,0:0:0:0:
294,182,80154,1,0,0:0:0:0:
299,185,80360,1,12,0:0:0:0:
288,181,80565,1,0,0:0:0:0:
304,188,80771,1,12,0:0:0:0:
304,200,80976,1,0,0:0:0:0:
304,188,81181,1,0,0:0:0:0:
304,188,81284,1,8,0:0:0:0:
307,192,81592,1,4,0:0:0:0:
307,192,82003,1,12,0:0:0:0:
307,192,82209,1,8,0:0:0:0:
307,192,82312,1,8,0:0:0:0:
307,192,82414,1,8,0:0:0:0:
307,192,82620,1,8,0:0:0:0:
307,192,82723,1,8,0:0:0:0:
312,197,82825,1,8,0:0:0:0:
312,197,83031,1,8,0:0:0:0:
307,192,83236,1,0,0:0:0:0:
314,202,83442,1,0,0:0:0:0:
307,192,83647,1,0,0:0:0:0:
312,197,83853,1,0,0:0:0:0:
312,197,83955,1,0,0:0:0:0:
308,190,84058,1,0,0:0:0:0:
301,202,84264,1,0,0:0:0:0:
307,192,84469,1,0,0:0:0:0:
307,192,84572,1,8,0:0:0:0:
308,190,84675,1,8,0:0:0:0:
308,190,84778,1,0,0:0:0:0:
305,196,84880,1,8,0:0:0:0:
301,197,85085,1,8,0:0:0:0:
307,192,85291,1,0,0:0:0:0:
313,189,85497,1,4,0:0:0:0:
304,195,85702,1,8,0:0:0:0:
305,196,85908,1,0,0:0:0:0:
303,192,86113,1,8,0:0:0:0:
307,192,86318,1,0,0:0:0:0:
304,195,86524,1,8,0:0:0:0:
299,209,86627,1,0,0:0:0:0:
301,183,86729,1,0,0:0:0:0:
301,183,86832,1,0,0:0:0:0:
309,187,86935,1,8,0:0:0:0:
292,192,87140,1,0,0:0:0:0:
304,195,87346,1,0,0:0:0:0:
304,195,87449,1,8,0:0:0:0:
301,192,87654,1,8,0:0:0:0:
301,192,87757,1,0,0:0:0:0:
302,192,87962,1,0,0:0:0:0:
304,195,88065,1,8,0:0:0:0:
304,195,88271,1,8,0:0:0:0:
291,195,88373,1,0,0:0:0:0:
291,195,88579,1,8,0:0:0:0:
282,192,88681,1,0,0:0:0:0:
282,192,88784,1,0,0:0:0:0:
282,192,88887,1,0,0:0:0:0:
289,181,88990,1,8,0:0:0:0:
289,179,89195,1,0,0:0:0:0:
288,179,89401,1,8,0:0:0:0:
299,186,89606,1,0,0:0:0:0:
289,181,89812,1,0,0:0:0:0:
289,181,89914,1,8,0:0:0:0:
291,173,90017,1,0,0:0:0:0:
288,179,90223,1,8,0:0:0:0:
288,179,90325,1,0,0:0:0:0:
288,179,90428,1,8,0:0:0:0:
289,181,90634,1,0,0:0:0:0:
288,173,90736,1,8,0:0:0:0:
291,173,90839,1,0,0:0:0:0:
288,173,91044,1,8,0:0:0:0:
288,173,91147,1,0,0:0:0:0:
288,179,91250,1,8,0:0:0:0:
284,172,91455,1,8,0:0:0:0:
289,181,91661,1,0,0:0:0:0:
282,172,91866,1,0,0:0:0:0:
288,173,92072,1,12,0:0:0:0:
284,172,92277,1,8,0:0:0:0:
296,168,92483,1,8,0:0:0:0:
296,168,92586,1,0,0:0:0:0:
296,168,92688,1,8,0:0:0:0:
297,168,92894,1,8,0:0:0:0:
264,156,93099,1,4,0:0:0:0:
260,151,93304,1,0,0:0:0:0:
260,151,93407,1,0,0:0:0:0:
263,158,93510,1,8,0:0:0:0:
247,159,93715,1,0,0:0:0:0:
260,145,93818,1,0,0:0:0:0:
264,156,93921,1,8,0:0:0:0:
240,162,94024,1,0,0:0:0:0:
240,162,94126,1,0,0:0:0:0:
263,158,94332,1,8,0:0:0:0:
253,165,94434,1,0,0:0:0:0:
263,158,94537,1,0,0:0:0:0:
253,165,94640,1,0,0:0:0:0:
263,158,94743,1,8,0:0:0:0:
256,151,94948,1,0,0:0:0:0:
256,151,95051,1,0,0:0:0:0:
262,150,95154,1,8,0:0:0:0:
247,146,95256,1,8,0:0:0:0:
262,150,95359,1,8,0:0:0:0:
262,150,95462,1,8,0:0:0:0:
262,150,95565,1,0,0:0:0:0:
256,133,95667,1,0,0:0:0:0:
262,150,95770,1,0,0:0:0:0:
277,144,95873,1,8,0:0:0:0:
270,150,95976,1,8,0:0:0:0:
265,162,96078,1,8,0:0:0:0:
251,150,96180,1,8,0:0:0:0:
249,166,96284,1,0,0:0:0:0:
271,148,96387,1,8,0:0:0:0:
256,164,96489,1,8,0:0:0:0:
272,144,96592,1,8,0:0:0:0:
272,144,96695,1,8,0:0:0:0:
272,144,96798,1,0,0:0:0:0:
248,168,96900,1,0,0:0:0:0:
272,144,97003,1,8,0:0:0:0:
261,149,97106,1,8,0:0:0:0:
272,144,97208,1,8,0:0:0:0:
246,170,97414,1,0,0:0:0:0:
248,168,97517,1,0,0:0:0:0:
247,169,97619,1,8,0:0:0:0:
265,148,97722,1,8,0:0:0:0:
265,148,97825,1,0,0:0:0:0:
265,148,98030,1,8,0:0:0:0:
243,178,98236,1,0,0:0:0:0:
265,148,98441,1,12,0:0:0:0:
243,178,98647,1,0,0:0:0:0:
272,146,98852,1,12,0:0:0:0:
243,178,99058,1,0,0:0:0:0:
272,146,99263,1,12,0:0:0:0:
243,178,99469,1,0,0:0:0:0:
264,156,99674,1,4,0:0:0:0:
260,151,99879,1,0,0:0:0:0:
260,151,99982,1,0,0:0:0:0:
263,158,100085,1,8,0:0:0:0:
247,159,100290,1,0,0:0:0:0:
260,145,100393,1,0,0:0:0:0:
264,156,100496,1,8,0:0:0:0:
240,162,100599,1,0,0:0:0:0:
240,162,100701,1,0,0:0:0:0:
263,158,100907,1,8,0:0:0:0:
253,165,101009,1,0,0:0:0:0:
263,158,101112,1,0,0:0:0:0:
253,165,101215,1,0,0:0:0:0:
263,158,101318,1,8,0:0:0:0:
256,151,101523,1,0,0:0:0:0:
256,151,101626,1,0,0:0:0:0:
262,150,101729,1,8,0:0:0:0:
247,146,101831,1,8,0:0:0:0:
262,150,101934,1,8,0:0:0:0:
262,150,102037,1,8,0:0:0:0:
262,150,102140,1,0,0:0:0:0:
256,133,102242,1,0,0:0:0:0:
262,150,102345,1,0,0:0:0:0:
277,144,102448,1,8,0:0:0:0:
270,150,102551,1,8,0:0:0:0:
265,162,102653,1,8,0:0:0:0:
251,150,102755,1,8,0:0:0:0:
249,166,102859,1,0,0:0:0:0:
271,148,102962,1,8,0:0:0:0:
256,164,103064,1,8,0:0:0:0:
272,144,103167,1,8,0:0:0:0:
272,144,103270,1,8,0:0:0:0:
272,144,103373,1,0,0:0:0:0:
248,168,103475,1,0,0:0:0:0:
272,144,103578,1,8,0:0:0:0:
261,149,103681,1,8,0:0:0:0:
272,144,103783,1,8,0:0:0:0:
246,170,103989,1,0,0:0:0:0:
248,168,104092,1,0,0:0:0:0:
247,169,104194,1,8,0:0:0:0:
265,148,104297,1,8,0:0:0:0:
265,148,104400,1,0,0:0:0:0:
265,148,104605,1,8,0:0:0:0:
243,178,104811,1,0,0:0:0:0:
265,148,105016,1,12,0:0:0:0:
243,178,105222,1,0,0:0:0:0:
272,146,105427,1,12,0:0:0:0:
243,178,105633,1,0,0:0:0:0:
272,146,105838,1,12,0:0:0:0:
243,178,106044,1,0,0:0:0:0:
243,178,106250,5,8,0:0:0:0:
291,161,106661,5,8,0:0:0:0:
291,161,106764,1,0,0:0:0:0:
291,161,106866,1,8,0:0:0:0:
281,154,107072,1,8,0:0:0:0:
284,161,107175,1,0,0:0:0:0:
286,156,107277,1,8,0:0:0:0:
284,161,107483,1,8,0:0:0:0:
284,161,107586,1,0,0:0:0:0:
284,161,107688,1,8,0:0:0:0:
284,161,107894,1,8,0:0:0:0:
284,162,107997,1,0,0:0:0:0:
284,162,108099,1,8,0:0:0:0:
284,162,108305,1,8,0:0:0:0:
284,161,108408,1,0,0:0:0:0:
284,161,108510,1,8,0:0:0:0:
284,161,108716,1,8,0:0:0:0:
284,161,108818,1,0,0:0:0:0:
284,161,108921,1,8,0:0:0:0:
276,165,109127,1,8,0:0:0:0:
284,162,109229,1,0,0:0:0:0:
284,162,109332,1,8,0:0:0:0:
284,161,109538,1,12,0:0:0:0:
275,159,109949,1,8,0:0:0:0:
272,160,110052,1,8,0:0:0:0:
275,156,110154,1,0,0:0:0:0:
275,156,110360,1,8,0:0:0:0:
275,156,110462,1,8,0:0:0:0:
276,156,110565,1,0,0:0:0:0:
275,159,110771,1,8,0:0:0:0:
275,159,110873,1,8,0:0:0:0:
275,159,110976,1,0,0:0:0:0:
275,156,111181,1,8,0:0:0:0:
275,156,111284,1,8,0:0:0:0:
275,156,111387,1,0,0:0:0:0:
280,153,111592,1,8,0:0:0:0:
280,152,111695,1,8,0:0:0:0:
280,152,111798,1,0,0:0:0:0:
280,152,112003,1,8,0:0:0:0:
280,152,112106,1,8,0:0:0:0:
282,152,112209,1,0,0:0:0:0:
282,152,112414,1,8,0:0:0:0:
280,153,112517,1,8,0:0:0:0:
280,153,112620,1,0,0:0:0:0:
280,152,112825,1,12,0:0:0:0:
282,152,113236,1,0,0:0:0:0:
282,152,113339,1,8,0:0:0:0:
282,152,113442,1,8,0:0:0:0:
282,148,113647,1,0,0:0:0:0:
280,152,113750,1,8,0:0:0:0:
280,152,113853,1,8,0:0:0:0:
282,152,114058,1,0,0:0:0:0:
282,152,114161,1,8,0:0:0:0:
282,152,114264,1,8,0:0:0:0:
282,152,114469,1,0,0:0:0:0:
282,148,114572,1,8,0:0:0:0:
282,148,114675,1,8,0:0:0:0:
280,152,114880,1,0,0:0:0:0:
282,152,114983,1,8,0:0:0:0:
282,152,115086,1,8,0:0:0:0:
282,152,115291,1,0,0:0:0:0:
282,152,115394,1,8,0:0:0:0:
282,152,115497,1,8,0:0:0:0:
282,148,115702,1,0,0:0:0:0:
280,152,115805,1,8,0:0:0:0:
280,152,115908,1,8,0:0:0:0:
282,152,116113,1,12,0:0:0:0:
282,152,116318,1,12,0:0:0:0:
282,152,116524,1,12,0:0:0:0:
282,148,116729,1,12,0:0:0:0:
280,152,116935,1,12,0:0:0:0:
282,152,117140,1,0,0:0:0:0:
282,152,117243,1,8,0:0:0:0:
282,152,117346,1,0,0:0:0:0:
282,152,117449,1,8,0:0:0:0:
282,152,117551,1,0,0:0:0:0:
282,148,117654,1,8,0:0:0:0:
282,148,117757,1,0,0:0:0:0:
280,152,117825,1,0,0:0:0:0:
280,152,117894,1,0,0:0:0:0:
280,152,117962,1,0,0:0:0:0:
282,152,118031,1,0,0:0:0:0:
282,152,118099,1,0,0:0:0:0:
282,152,118168,1,0,0:0:0:0:
266,143,118236,1,0,0:0:0:0:
276,143,118373,1,12,0:0:0:0:
278,145,118579,1,12,0:0:0:0:
282,148,118784,1,12,0:0:0:0:
280,152,118990,1,12,0:0:0:0:
