osu file format v14

[General]
AudioFilename: Watagumo no onaka.mp3
AudioLeadIn: 0
PreviewTime: 27736
Countdown: 0
SampleSet: Normal
StackLeniency: 0.7
Mode: 3
LetterboxInBreaks: 0
SpecialStyle: 0
WidescreenStoryboard: 1
SamplesMatchPlaybackRate: 1

[Editor]
DistanceSpacing: 0.8
BeatDivisor: 4
GridSize: 8
TimelineZoom: 1

[Metadata]
Title:Watagumo no Onaka
TitleUnicode:わたぐものおなか
Artist:Dormir
ArtistUnicode:Dormir
Creator:Todestrieb
Version:Hyper
Source:pop'n music Sunny Park
Tags:air waltz ciel crimm tomosuke eimy pms
BeatmapID:1145763
BeatmapSetID:539982

[Difficulty]
HPDrainRate:8
CircleSize:9
OverallDifficulty:8
ApproachRate:5
SliderMultiplier:1.4
SliderTickRate:1

[Events]
//Background and Video events
0,0,"BG.jpg",0,0
//Break Periods
//Storyboard Layer 0 (Background)
//Storyboard Layer 1 (Fail)
//Storyboard Layer 2 (Pass)
//Storyboard Layer 3 (Foreground)
//Storyboard Layer 4 (Overlay)
//Storyboard Sound Samples

[TimingPoints]
373,363.636363636364,3,1,1,100,1,0
81100,-100,3,1,1,100,0,1
85373,-100,3,1,1,100,0,0
85463,-100,3,1,1,100,0,1
89736,-100,3,1,1,100,0,0
89827,-100,3,1,1,100,0,1
94100,-100,3,1,1,100,0,0
94191,-100,3,1,1,100,0,1
98463,-100,3,1,1,100,0,0

[HitObjects]
312,192,1463,5,0,0:0:0:100:0M.wav
199,192,1827,1,0,0:0:0:100:0N.wav
85,192,2191,1,0,0:0:0:100:0O.wav
142,192,2554,1,0,0:0:0:100:4K.wav
426,192,2554,1,0,0:0:0:100:0P.wav
199,192,2736,1,0,0:0:0:100:4L.wav
256,192,2918,1,0,0:0:0:100:4M.wav
312,192,3100,1,0,0:0:0:100:4N.wav
369,192,3282,1,0,0:0:0:100:4O.wav
426,192,3463,1,0,0:0:0:100:4P.wav
483,192,3645,1,0,0:0:0:100:4Q.wav
256,192,3645,1,0,0:0:0:100:0Q.wav
426,192,3827,1,0,0:0:0:100:4R.wav
369,192,4009,1,0,0:0:0:100:4S.wav
142,192,4009,1,0,0:0:0:100:0R.wav
312,192,4191,1,0,0:0:0:100:4T.wav
256,192,4373,1,0,0:0:0:100:4U.wav
199,192,4554,1,0,0:0:0:100:4V.wav
312,192,4736,1,0,0:0:0:100:4W.wav
483,192,4736,1,0,0:0:0:100:0U.wav
256,192,4918,1,0,0:0:0:100:4X.wav
199,192,5100,1,0,0:0:0:100:4Y.wav
142,192,5282,1,0,0:0:0:100:4Z.wav
199,192,5463,1,0,0:0:0:100:50.wav
256,192,5645,1,0,0:0:0:100:51.wav
312,192,5827,1,0,0:0:0:100:52.wav
28,192,5827,1,0,0:0:0:100:0V.wav
312,192,6191,1,0,0:0:0:100:53.wav
28,192,6191,1,0,0:0:0:100:0W.wav
312,192,6918,1,0,0:0:0:100:54.wav
28,192,6918,1,0,0:0:0:100:0X.wav
312,192,7282,1,0,0:0:0:100:55.wav
28,192,7282,1,0,0:0:0:100:0Y.wav
28,192,8009,1,0,0:0:0:100:EV.wav
85,192,8373,1,0,0:0:0:100:EW.wav
142,192,8736,1,0,0:0:0:100:EX.wav
312,192,9100,1,0,0:0:0:100:0Z.wav
199,192,9100,1,0,0:0:0:100:EY.wav
256,192,9463,1,0,0:0:0:100:EZ.wav
369,192,9463,1,0,0:0:0:100:10.wav
312,192,9827,1,0,0:0:0:100:F0.wav
426,192,9827,1,0,0:0:0:100:11.wav
483,192,10191,1,0,0:0:0:100:12.wav
142,192,10191,1,0,0:0:0:100:9J.wav
199,192,10373,1,0,0:0:0:100:9K.wav
256,192,10554,1,0,0:0:0:100:9L.wav
312,192,10736,1,0,0:0:0:100:9M.wav
369,192,10918,1,0,0:0:0:100:9N.wav
483,192,11100,1,0,0:0:0:100:9O.wav
426,192,11282,1,0,0:0:0:100:9P.wav
369,192,11463,1,0,0:0:0:100:9Q.wav
199,192,11645,1,0,0:0:0:100:9R.wav
142,192,11827,1,0,0:0:0:100:9S.wav
85,192,12009,1,0,0:0:0:100:9T.wav
28,192,12191,1,0,0:0:0:100:9U.wav
142,192,12373,1,0,0:0:0:100:9V.wav
199,192,12554,1,0,0:0:0:100:9W.wav
256,192,12736,1,0,0:0:0:100:9X.wav
312,192,12918,1,0,0:0:0:100:9M.wav
369,192,13100,1,0,0:0:0:100:9N.wav
483,192,13282,1,0,0:0:0:100:9O.wav
426,192,13463,1,0,0:0:0:100:9P.wav
369,192,13645,1,0,0:0:0:100:9Q.wav
199,192,13827,1,0,0:0:0:100:9R.wav
142,192,14009,1,0,0:0:0:100:9S.wav
85,192,14191,1,0,0:0:0:100:9T.wav
28,192,14373,1,0,0:0:0:100:9U.wav
85,192,14554,1,0,0:0:0:100:9Y.wav
142,192,14736,1,0,0:0:0:100:9Z.wav
199,192,14918,1,0,0:0:0:100:A0.wav
256,192,15100,1,0,0:0:0:100:A1.wav
312,192,15282,1,0,0:0:0:100:A2.wav
426,192,15463,1,0,0:0:0:100:A3.wav
369,192,15645,1,0,0:0:0:100:A4.wav
312,192,15827,1,0,0:0:0:100:A5.wav
199,192,16009,1,0,0:0:0:100:A6.wav
142,192,16191,1,0,0:0:0:100:A7.wav
85,192,16373,1,0,0:0:0:100:A8.wav
28,192,16554,1,0,0:0:0:100:A9.wav
142,192,16736,1,0,0:0:0:100:AA.wav
199,192,16918,1,0,0:0:0:100:AB.wav
256,192,17100,1,0,0:0:0:100:AC.wav
312,192,17282,1,0,0:0:0:100:A1.wav
369,192,17463,1,0,0:0:0:100:A2.wav
483,192,17645,1,0,0:0:0:100:A3.wav
426,192,17827,1,0,0:0:0:100:A4.wav
369,192,18009,1,0,0:0:0:100:A5.wav
199,192,18191,1,0,0:0:0:100:A6.wav
142,192,18373,1,0,0:0:0:100:A7.wav
85,192,18554,1,0,0:0:0:100:A8.wav
28,192,18736,1,0,0:0:0:100:A9.wav
142,192,18918,1,0,0:0:0:100:9V.wav
199,192,19100,1,0,0:0:0:100:9W.wav
256,192,19282,1,0,0:0:0:100:9X.wav
312,192,19463,1,0,0:0:0:100:9M.wav
369,192,19645,1,0,0:0:0:100:9N.wav
483,192,19827,1,0,0:0:0:100:9O.wav
426,192,20009,1,0,0:0:0:100:9P.wav
369,192,20191,1,0,0:0:0:100:9Q.wav
199,192,20373,1,0,0:0:0:100:9R.wav
142,192,20554,1,0,0:0:0:100:9S.wav
85,192,20736,1,0,0:0:0:100:9T.wav
28,192,20918,1,0,0:0:0:100:9U.wav
142,192,21100,1,0,0:0:0:100:9V.wav
199,192,21282,1,0,0:0:0:100:9W.wav
256,192,21463,1,0,0:0:0:100:9X.wav
312,192,21645,1,0,0:0:0:100:9M.wav
369,192,21827,1,0,0:0:0:100:9N.wav
483,192,22009,1,0,0:0:0:100:9O.wav
426,192,22191,1,0,0:0:0:100:9P.wav
369,192,22373,1,0,0:0:0:100:9Q.wav
199,192,22554,1,0,0:0:0:100:9R.wav
142,192,22736,1,0,0:0:0:100:9S.wav
85,192,22918,1,0,0:0:0:100:9T.wav
28,192,23100,1,0,0:0:0:100:9U.wav
85,192,23282,1,0,0:0:0:100:9Y.wav
142,192,23463,1,0,0:0:0:100:9Z.wav
199,192,23645,1,0,0:0:0:100:A0.wav
256,192,23827,1,0,0:0:0:100:A1.wav
312,192,24009,1,0,0:0:0:100:A2.wav
426,192,24191,1,0,0:0:0:100:A3.wav
369,192,24373,1,0,0:0:0:100:A4.wav
312,192,24554,1,0,0:0:0:100:A5.wav
199,192,24736,1,0,0:0:0:100:A6.wav
142,192,24918,1,0,0:0:0:100:A7.wav
85,192,25100,1,0,0:0:0:100:A8.wav
28,192,25282,1,0,0:0:0:100:A9.wav
85,192,25463,1,0,0:0:0:100:AA.wav
142,192,25645,1,0,0:0:0:100:AB.wav
199,192,25827,1,0,0:0:0:100:AC.wav
256,192,26009,1,0,0:0:0:100:A1.wav
312,192,26191,1,0,0:0:0:100:A2.wav
426,192,26373,1,0,0:0:0:100:A3.wav
28,192,26554,1,0,0:0:0:100:AD.wav
85,192,26645,1,0,0:0:0:100:AE.wav
142,192,26736,1,0,0:0:0:100:AF.wav
199,192,26827,1,0,0:0:0:100:AG.wav
256,192,26918,1,0,0:0:0:100:AH.wav
312,192,27009,1,0,0:0:0:100:AI.wav
142,192,27100,1,0,0:0:0:100:AJ.wav
199,192,27191,1,0,0:0:0:100:AK.wav
256,192,27282,1,0,0:0:0:100:AL.wav
312,192,27373,1,0,0:0:0:100:AM.wav
369,192,27463,1,0,0:0:0:100:AN.wav
426,192,27554,1,0,0:0:0:100:AO.wav
28,192,27645,1,0,0:0:0:100:07.wav
256,192,27645,1,0,0:0:0:100:5G.wav
85,192,27645,1,0,0:0:0:100:02.wav
142,192,28009,1,0,0:0:0:100:09.wav
312,192,28191,1,0,0:0:0:100:5H.wav
142,192,28373,1,0,0:0:0:100:0A.wav
312,192,28554,1,0,0:0:0:100:5I.wav
28,192,28736,1,0,0:0:0:100:07.wav
256,192,28736,1,0,0:0:0:100:5J.wav
142,192,29100,1,0,0:0:0:100:09.wav
312,192,29100,1,0,0:0:0:100:5K.wav
142,192,29463,1,0,0:0:0:100:0A.wav
312,192,29463,1,0,0:0:0:100:5L.wav
28,192,29827,1,0,0:0:0:100:07.wav
256,192,29827,1,0,0:0:0:100:5G.wav
142,192,30191,1,0,0:0:0:100:09.wav
312,192,30373,1,0,0:0:0:100:5H.wav
142,192,30554,1,0,0:0:0:100:0A.wav
312,192,30736,1,0,0:0:0:100:5I.wav
28,192,30918,1,0,0:0:0:100:07.wav
256,192,30918,1,0,0:0:0:100:5J.wav
142,192,31282,1,0,0:0:0:100:09.wav
312,192,31282,1,0,0:0:0:100:5K.wav
142,192,31645,1,0,0:0:0:100:0A.wav
312,192,31645,1,0,0:0:0:100:5L.wav
483,192,32009,1,0,0:0:0:100:07.wav
312,192,32009,1,0,0:0:0:100:5M.wav
369,192,32373,1,0,0:0:0:100:09.wav
199,192,32554,1,0,0:0:0:100:5N.wav
369,192,32736,1,0,0:0:0:100:0A.wav
199,192,32918,1,0,0:0:0:100:5O.wav
483,192,33100,1,0,0:0:0:100:07.wav
312,192,33100,1,0,0:0:0:100:5P.wav
369,192,33463,1,0,0:0:0:100:09.wav
199,192,33463,1,0,0:0:0:100:5Q.wav
199,192,33827,1,0,0:0:0:100:5R.wav
369,192,33827,1,0,0:0:0:100:0A.wav
483,192,34191,1,0,0:0:0:100:07.wav
312,192,34191,1,0,0:0:0:100:5M.wav
369,192,34554,1,0,0:0:0:100:09.wav
199,192,34736,1,0,0:0:0:100:5N.wav
369,192,34918,1,0,0:0:0:100:0A.wav
199,192,35100,1,0,0:0:0:100:5O.wav
426,192,35282,1,0,0:0:0:100:07.wav
312,192,35282,1,0,0:0:0:100:5P.wav
483,192,35463,1,0,0:0:0:100:0B.wav
369,192,35645,1,0,0:0:0:100:03.wav
256,192,35645,1,0,0:0:0:100:5Q.wav
85,192,35827,1,0,0:0:0:100:0E.wav
142,192,36009,1,0,0:0:0:100:0F.wav
256,192,36009,1,0,0:0:0:100:5R.wav
199,192,36191,1,0,0:0:0:100:0G.wav
28,192,36373,1,0,0:0:0:100:07.wav
85,192,36373,1,0,0:0:0:100:04.wav
426,192,36373,1,0,0:0:0:100:5G.wav
142,192,36736,1,0,0:0:0:100:09.wav
312,192,36918,1,0,0:0:0:100:5H.wav
142,192,37100,1,0,0:0:0:100:0A.wav
312,192,37282,1,0,0:0:0:100:5I.wav
28,192,37463,1,0,0:0:0:100:07.wav
256,192,37463,1,0,0:0:0:100:5J.wav
142,192,37827,1,0,0:0:0:100:09.wav
312,192,37827,1,0,0:0:0:100:5K.wav
142,192,38191,1,0,0:0:0:100:0A.wav
312,192,38191,1,0,0:0:0:100:5L.wav
28,192,38554,1,0,0:0:0:100:07.wav
256,192,38554,1,0,0:0:0:100:5G.wav
142,192,38918,1,0,0:0:0:100:09.wav
312,192,39100,1,0,0:0:0:100:5H.wav
142,192,39282,1,0,0:0:0:100:0A.wav
312,192,39463,1,0,0:0:0:100:5I.wav
28,192,39645,1,0,0:0:0:100:07.wav
256,192,39645,1,0,0:0:0:100:5J.wav
142,192,40009,1,0,0:0:0:100:09.wav
312,192,40009,1,0,0:0:0:100:5K.wav
142,192,40373,1,0,0:0:0:100:0A.wav
312,192,40373,1,0,0:0:0:100:5L.wav
483,192,40736,1,0,0:0:0:100:07.wav
312,192,40736,1,0,0:0:0:100:5S.wav
369,192,41100,1,0,0:0:0:100:09.wav
199,192,41282,1,0,0:0:0:100:5T.wav
369,192,41463,1,0,0:0:0:100:0A.wav
199,192,41645,1,0,0:0:0:100:5U.wav
312,192,41827,1,0,0:0:0:100:5V.wav
483,192,41827,1,0,0:0:0:100:07.wav
369,192,42191,1,0,0:0:0:100:09.wav
199,192,42191,1,0,0:0:0:100:5W.wav
369,192,42554,1,0,0:0:0:100:0A.wav
199,192,42554,1,0,0:0:0:100:5X.wav
483,192,42918,1,0,0:0:0:100:07.wav
312,192,42918,1,0,0:0:0:100:5S.wav
369,192,43282,1,0,0:0:0:100:09.wav
199,192,43463,1,0,0:0:0:100:5T.wav
369,192,43645,1,0,0:0:0:100:0A.wav
199,192,43827,1,0,0:0:0:100:5U.wav
483,192,44009,1,0,0:0:0:100:07.wav
312,192,44009,1,0,0:0:0:100:5Y.wav
483,192,44373,1,0,0:0:0:100:07.wav
85,192,44373,1,0,0:0:0:100:5Z.wav
369,192,44373,1,0,0:0:0:100:0A.wav
483,192,44736,1,0,0:0:0:100:07.wav
85,192,44736,1,0,0:0:0:100:60.wav
426,192,44736,1,0,0:0:0:100:09.wav
369,192,45100,1,0,0:0:0:100:AU.wav
312,192,45282,1,0,0:0:0:100:AV.wav
256,192,45463,1,0,0:0:0:100:AW.wav
199,192,45645,1,0,0:0:0:100:AX.wav
142,192,45827,1,0,0:0:0:100:AY.wav
312,192,46009,1,0,0:0:0:100:AZ.wav
483,192,46191,1,0,0:0:0:100:B0.wav
369,192,46373,1,0,0:0:0:100:B1.wav
256,192,46554,1,0,0:0:0:100:AW.wav
199,192,46736,1,0,0:0:0:100:AX.wav
142,192,46918,1,0,0:0:0:100:AY.wav
312,192,47100,1,0,0:0:0:100:AZ.wav
426,192,47282,1,0,0:0:0:100:B2.wav
369,192,47463,1,0,0:0:0:100:B3.wav
199,192,47645,1,0,0:0:0:100:B4.wav
142,192,47827,1,0,0:0:0:100:B5.wav
85,192,48009,1,0,0:0:0:100:B6.wav
256,192,48191,1,0,0:0:0:100:B7.wav
483,192,48373,1,0,0:0:0:100:B8.wav
426,192,48554,1,0,0:0:0:100:B9.wav
312,192,48736,1,0,0:0:0:100:B4.wav
199,192,48918,1,0,0:0:0:100:B5.wav
85,192,49100,1,0,0:0:0:100:B6.wav
256,192,49282,1,0,0:0:0:100:BA.wav
426,192,49463,1,0,0:0:0:100:BB.wav
369,192,49645,1,0,0:0:0:100:BC.wav
312,192,49827,1,0,0:0:0:100:AW.wav
142,192,50009,1,0,0:0:0:100:AX.wav
85,192,50191,1,0,0:0:0:100:AY.wav
199,192,50373,1,0,0:0:0:100:AZ.wav
483,192,50554,1,0,0:0:0:100:B0.wav
369,192,50736,1,0,0:0:0:100:B1.wav
256,192,50918,1,0,0:0:0:100:AW.wav
142,192,51100,1,0,0:0:0:100:AX.wav
28,192,51282,1,0,0:0:0:100:AY.wav
199,192,51463,1,0,0:0:0:100:AZ.wav
426,192,51645,1,0,0:0:0:100:B2.wav
369,192,51827,1,0,0:0:0:100:B3.wav
256,192,52009,1,0,0:0:0:100:B4.wav
85,192,52191,1,0,0:0:0:100:B5.wav
28,192,52373,1,0,0:0:0:100:B6.wav
142,192,52554,1,0,0:0:0:100:B7.wav
483,192,52736,1,0,0:0:0:100:BD.wav
426,192,52827,1,0,0:0:0:100:BE.wav
369,192,52918,1,0,0:0:0:100:BF.wav
312,192,53009,1,0,0:0:0:100:BG.wav
256,192,53100,1,0,0:0:0:100:BH.wav
199,192,53191,1,0,0:0:0:100:BI.wav
312,192,53282,1,0,0:0:0:100:BJ.wav
256,192,53373,1,0,0:0:0:100:BK.wav
199,192,53463,1,0,0:0:0:100:BL.wav
142,192,53554,1,0,0:0:0:100:BM.wav
85,192,53645,1,0,0:0:0:100:BN.wav
28,192,53736,1,0,0:0:0:100:BO.wav
369,192,53827,1,0,0:0:0:100:68.wav
426,192,54009,1,0,0:0:0:100:6A.wav
256,192,54191,1,0,0:0:0:0:6C.wav
85,192,54373,1,0,0:0:0:100:0A.wav
312,192,54373,1,0,0:0:0:100:6D.wav
142,192,54554,1,0,0:0:0:100:6E.wav
28,192,54736,1,0,0:0:0:0:09.wav
199,192,54736,1,0,0:0:0:100:6G.wav
483,192,54918,1,0,0:0:0:100:6L.wav
483,192,55282,1,0,0:0:0:100:6L.wav
85,192,55463,1,0,0:0:0:100:0A.wav
256,192,55645,1,0,0:0:0:100:6O.wav
28,192,55645,1,0,0:0:0:0:0C.wav
142,192,55827,1,0,0:0:0:0:0K.wav
369,192,56009,1,0,0:0:0:100:68.wav
426,192,56191,1,0,0:0:0:100:6A.wav
256,192,56373,1,0,0:0:0:0:6C.wav
85,192,56554,1,0,0:0:0:0:0A.wav
312,192,56554,1,0,0:0:0:100:6D.wav
142,192,56736,1,0,0:0:0:100:6E.wav
28,192,56918,1,0,0:0:0:0:09.wav
199,192,56918,1,0,0:0:0:100:6G.wav
483,192,57100,1,0,0:0:0:100:6L.wav
483,192,57463,1,0,0:0:0:100:6L.wav
85,192,57645,1,0,0:0:0:0:0A.wav
28,192,57827,1,0,0:0:0:0:0C.wav
256,192,57827,1,0,0:0:0:100:6O.wav
142,192,58009,1,0,0:0:0:0:0K.wav
369,192,58191,1,0,0:0:0:100:68.wav
426,192,58373,1,0,0:0:0:100:6A.wav
256,192,58554,1,0,0:0:0:0:6C.wav
85,192,58736,1,0,0:0:0:0:0A.wav
312,192,58736,1,0,0:0:0:100:6D.wav
142,192,58918,1,0,0:0:0:100:6E.wav
28,192,59100,1,0,0:0:0:0:09.wav
199,192,59100,1,0,0:0:0:100:6G.wav
483,192,59282,1,0,0:0:0:100:6P.wav
312,192,59645,1,0,0:0:0:100:6S.wav
85,192,59827,1,0,0:0:0:0:0A.wav
426,192,60009,1,0,0:0:0:0:0C.wav
199,192,60009,1,0,0:0:0:100:6V.wav
369,192,60191,1,0,0:0:0:0:0K.wav
28,192,60373,1,0,0:0:0:100:6Y.wav
85,192,60554,1,0,0:0:0:100:70.wav
142,192,60736,1,0,0:0:0:0:71.wav
483,192,60918,1,0,0:0:0:0:0A.wav
199,192,60918,1,0,0:0:0:100:73.wav
256,192,61100,1,0,0:0:0:100:74.wav
142,192,61282,1,0,0:0:0:0:09.wav
312,192,61282,1,0,0:0:0:100:76.wav
369,192,61463,1,0,0:0:0:100:77.wav
426,192,61827,1,0,0:0:0:0:7B.wav
85,192,62009,1,0,0:0:0:0:0A.wav
28,192,62191,1,0,0:0:0:0:0C.wav
483,192,62191,1,0,0:0:0:100:7F.wav
142,192,62373,1,0,0:0:0:0:0K.wav
369,192,62554,1,0,0:0:0:100:68.wav
426,192,62736,1,0,0:0:0:100:6A.wav
256,192,62918,1,0,0:0:0:0:6C.wav
312,192,63100,1,0,0:0:0:100:6D.wav
85,192,63100,1,0,0:0:0:100:0A.wav
142,192,63282,1,0,0:0:0:100:6E.wav
199,192,63463,1,0,0:0:0:100:6G.wav
28,192,63463,1,0,0:0:0:0:09.wav
483,192,63645,1,0,0:0:0:100:6L.wav
483,192,64009,1,0,0:0:0:100:6L.wav
85,192,64191,1,0,0:0:0:100:0A.wav
28,192,64373,1,0,0:0:0:0:0C.wav
256,192,64373,1,0,0:0:0:100:6O.wav
142,192,64554,1,0,0:0:0:0:0K.wav
369,192,64736,1,0,0:0:0:100:68.wav
426,192,64918,1,0,0:0:0:100:6A.wav
256,192,65100,1,0,0:0:0:0:6C.wav
312,192,65282,1,0,0:0:0:100:6D.wav
85,192,65282,1,0,0:0:0:0:0A.wav
142,192,65463,1,0,0:0:0:100:6E.wav
199,192,65645,1,0,0:0:0:100:6G.wav
28,192,65645,1,0,0:0:0:0:09.wav
483,192,65827,1,0,0:0:0:100:6L.wav
483,192,66191,1,0,0:0:0:100:6L.wav
85,192,66373,1,0,0:0:0:0:0A.wav
256,192,66554,1,0,0:0:0:100:6O.wav
28,192,66554,1,0,0:0:0:0:0C.wav
142,192,66736,1,0,0:0:0:0:0K.wav
369,192,66918,1,0,0:0:0:100:68.wav
426,192,67100,1,0,0:0:0:100:6A.wav
256,192,67282,1,0,0:0:0:0:6C.wav
312,192,67463,1,0,0:0:0:100:6D.wav
85,192,67463,1,0,0:0:0:0:0A.wav
142,192,67645,1,0,0:0:0:100:6E.wav
199,192,67827,1,0,0:0:0:100:6G.wav
28,192,67827,1,0,0:0:0:0:09.wav
483,192,68009,1,0,0:0:0:100:6P.wav
312,192,68373,1,0,0:0:0:100:6S.wav
85,192,68554,1,0,0:0:0:0:0A.wav
199,192,68736,1,0,0:0:0:100:6V.wav
426,192,68736,1,0,0:0:0:0:0C.wav
369,192,68918,1,0,0:0:0:0:0K.wav
28,192,69100,1,0,0:0:0:100:6Y.wav
85,192,69282,1,0,0:0:0:100:70.wav
142,192,69463,1,0,0:0:0:0:71.wav
199,192,69645,1,0,0:0:0:100:73.wav
483,192,69645,1,0,0:0:0:0:0A.wav
256,192,69827,1,0,0:0:0:100:74.wav
312,192,70009,1,0,0:0:0:100:76.wav
142,192,70009,1,0,0:0:0:0:09.wav
369,192,70191,1,0,0:0:0:100:77.wav
426,192,70554,1,0,0:0:0:0:7B.wav
85,192,70736,1,0,0:0:0:0:0A.wav
483,192,70918,1,0,0:0:0:100:7F.wav
28,192,70918,1,0,0:0:0:0:0C.wav
142,192,71100,1,0,0:0:0:0:0K.wav
426,192,71282,5,0,0:0:0:0:2O.wav
312,192,71282,1,0,0:0:0:100:7V.wav
256,192,71509,1,0,0:0:0:100:7W.wav
369,192,71509,1,0,0:0:0:0:2P.wav
256,192,71782,1,0,0:0:0:100:7X.wav
369,192,71782,1,0,0:0:0:0:2Q.wav
28,192,72009,1,0,0:0:0:100:7Y.wav
142,192,72009,1,0,0:0:0:0:2R.wav
85,192,72236,1,0,0:0:0:100:7Z.wav
199,192,72236,1,0,0:0:0:0:2S.wav
426,192,72509,1,0,0:0:0:0:2T.wav
312,192,72509,1,0,0:0:0:100:80.wav
369,192,72736,1,0,0:0:0:100:81.wav
483,192,72736,1,0,0:0:0:0:2U.wav
85,192,73236,1,0,0:0:0:100:82.wav
199,192,73236,1,0,0:0:0:0:2V.wav
426,192,73691,1,0,0:0:0:0:2W.wav
312,192,73691,1,0,0:0:0:100:83.wav
256,192,74191,1,0,0:0:0:0:C8.wav
312,192,74373,1,0,0:0:0:0:C9.wav
369,192,74554,1,0,0:0:0:0:CA.wav
426,192,74736,1,0,0:0:0:0:CB.wav
483,192,74918,1,0,0:0:0:0:CC.wav
426,192,75100,1,0,0:0:0:0:CD.wav
369,192,75282,1,0,0:0:0:0:CE.wav
312,192,75645,1,0,0:0:0:0:CF.wav
312,192,77100,1,0,0:0:0:0:02.wav
256,192,77100,1,0,0:0:0:100:CG.wav
483,192,77100,1,0,0:0:0:0:EA.wav
426,192,77100,1,0,0:0:0:0:84.wav
199,192,77282,1,0,0:0:0:0:CH.wav
142,192,77463,1,0,0:0:0:100:CI.wav
483,192,77463,1,0,0:0:0:0:EB.wav
426,192,77463,1,0,0:0:0:0:85.wav
85,192,77645,1,0,0:0:0:0:CJ.wav
28,192,77827,1,0,0:0:0:0:CK.wav
142,192,78918,1,0,0:0:0:0:CL.wav
426,192,78918,1,0,0:0:0:0:EC.wav
256,192,79282,1,0,0:0:0:0:CM.wav
426,192,79282,1,0,0:0:0:0:ED.wav
369,192,79645,1,0,0:0:0:0:CN.wav
142,192,80009,1,0,0:0:0:0:02.wav
312,192,80009,1,0,0:0:0:0:86.wav
369,192,80009,1,0,0:0:0:0:CO.wav
85,192,80191,1,0,0:0:0:0:0D.wav
426,192,80373,1,0,0:0:0:0:CP.wav
369,192,80373,1,0,0:0:0:0:87.wav
28,192,80554,1,0,0:0:0:0:0L.wav
483,192,80736,1,0,0:0:0:0:CQ.wav
426,192,80736,1,0,0:0:0:0:88.wav
199,192,80827,1,0,0:0:0:0:0B.wav
312,192,80918,1,0,0:0:0:0:09.wav
256,192,81009,1,0,0:0:0:0:0A.wav
28,192,81100,1,0,0:0:0:100:07.wav
85,192,81100,1,0,0:0:0:0:02.wav
369,192,81100,1,0,0:0:0:0:33.wav
369,192,81282,1,0,0:0:0:0:33.wav
142,192,81282,1,0,0:0:0:100:09.wav
369,192,81645,1,0,0:0:0:0:34.wav
199,192,81645,1,0,0:0:0:100:0A.wav
369,192,82009,1,0,0:0:0:0:35.wav
256,192,82009,1,0,0:0:0:100:0A.wav
483,192,82191,1,0,0:0:0:100:07.wav
142,192,82191,1,0,0:0:0:0:36.wav
142,192,82373,1,0,0:0:0:0:36.wav
312,192,82373,1,0,0:0:0:100:0A.wav
369,192,82736,1,0,0:0:0:100:0A.wav
142,192,82736,1,0,0:0:0:0:37.wav
426,192,83100,1,0,0:0:0:100:0A.wav
142,192,83100,1,0,0:0:0:0:38.wav
28,192,83282,1,0,0:0:0:100:07.wav
369,192,83282,1,0,0:0:0:0:39.wav
369,192,83463,1,0,0:0:0:0:39.wav
85,192,83463,1,0,0:0:0:100:0A.wav
369,192,83827,1,0,0:0:0:0:34.wav
142,192,83827,1,0,0:0:0:100:0A.wav
199,192,84191,1,0,0:0:0:100:0A.wav
369,192,84191,1,0,0:0:0:0:35.wav
483,192,84373,1,0,0:0:0:100:07.wav
142,192,84373,1,0,0:0:0:0:36.wav
256,192,84554,1,0,0:0:0:100:0A.wav
142,192,84554,1,0,0:0:0:0:36.wav
312,192,84918,1,0,0:0:0:100:0A.wav
142,192,84918,1,0,0:0:0:0:37.wav
142,192,85282,1,0,0:0:0:0:38.wav
369,192,85282,1,0,0:0:0:100:0A.wav
28,192,85463,1,0,0:0:0:100:07.wav
426,192,85463,1,0,0:0:0:0:3B.wav
85,192,85463,1,0,0:0:0:0:02.wav
199,192,85645,1,0,0:0:0:0:0A.wav
369,192,85827,1,0,0:0:0:0:3C.wav
256,192,86009,1,0,0:0:0:0:09.wav
312,192,86191,1,0,0:0:0:0:3D.wav
483,192,86373,1,0,0:0:0:0:09.wav
28,192,86554,1,0,0:0:0:100:07.wav
256,192,86554,1,0,0:0:0:0:3E.wav
426,192,86736,1,0,0:0:0:0:09.wav
199,192,86736,1,0,0:0:0:0:3F.wav
142,192,86918,1,0,0:0:0:0:3G.wav
369,192,87100,1,0,0:0:0:0:09.wav
28,192,87282,1,0,0:0:0:0:3H.wav
312,192,87463,1,0,0:0:0:0:09.wav
142,192,87463,1,0,0:0:0:0:3I.wav
483,192,87645,1,0,0:0:0:100:07.wav
256,192,87645,1,0,0:0:0:0:3J.wav
85,192,87827,1,0,0:0:0:0:09.wav
369,192,88009,1,0,0:0:0:0:3K.wav
483,192,88191,1,0,0:0:0:0:3L.wav
199,192,88191,1,0,0:0:0:0:09.wav
426,192,88373,1,0,0:0:0:0:3M.wav
28,192,88554,1,0,0:0:0:0:09.wav
483,192,88736,1,0,0:0:0:100:07.wav
312,192,88736,1,0,0:0:0:0:3N.wav
369,192,88918,1,0,0:0:0:0:09.wav
199,192,89100,1,0,0:0:0:0:3O.wav
256,192,89282,1,0,0:0:0:0:09.wav
85,192,89463,1,0,0:0:0:0:3P.wav
426,192,89645,1,0,0:0:0:0:09.wav
28,192,89827,1,0,0:0:0:100:07.wav
85,192,89827,1,0,0:0:0:0:02.wav
369,192,89827,1,0,0:0:0:0:33.wav
142,192,90009,1,0,0:0:0:100:09.wav
369,192,90009,1,0,0:0:0:0:33.wav
199,192,90373,1,0,0:0:0:100:0A.wav
369,192,90373,1,0,0:0:0:0:34.wav
256,192,90736,1,0,0:0:0:100:0A.wav
369,192,90736,1,0,0:0:0:0:35.wav
142,192,90918,1,0,0:0:0:0:36.wav
483,192,90918,1,0,0:0:0:100:07.wav
312,192,91100,1,0,0:0:0:100:0A.wav
142,192,91100,1,0,0:0:0:0:36.wav
369,192,91463,1,0,0:0:0:100:0A.wav
142,192,91463,1,0,0:0:0:0:37.wav
426,192,91827,1,0,0:0:0:100:0A.wav
142,192,91827,1,0,0:0:0:0:38.wav
369,192,92009,1,0,0:0:0:0:39.wav
28,192,92009,1,0,0:0:0:100:07.wav
85,192,92191,1,0,0:0:0:100:0A.wav
369,192,92191,1,0,0:0:0:0:39.wav
199,192,92554,1,0,0:0:0:100:0A.wav
369,192,92554,1,0,0:0:0:0:34.wav
369,192,92918,1,0,0:0:0:0:35.wav
256,192,92918,1,0,0:0:0:100:0A.wav
142,192,93100,1,0,0:0:0:0:36.wav
483,192,93100,1,0,0:0:0:100:07.wav
142,192,93282,1,0,0:0:0:0:36.wav
312,192,93282,1,0,0:0:0:100:0A.wav
142,192,93645,1,0,0:0:0:0:37.wav
369,192,93645,1,0,0:0:0:100:0A.wav
426,192,94009,1,0,0:0:0:100:0A.wav
142,192,94009,1,0,0:0:0:0:38.wav
85,192,94191,1,0,0:0:0:0:02.wav
28,192,94191,1,0,0:0:0:100:07.wav
483,192,94191,1,0,0:0:0:0:3R.wav
199,192,94373,1,0,0:0:0:100:0A.wav
426,192,94554,1,0,0:0:0:0:3S.wav
256,192,94736,1,0,0:0:0:0:09.wav
369,192,94918,1,0,0:0:0:0:3T.wav
142,192,95100,1,0,0:0:0:0:09.wav
28,192,95282,1,0,0:0:0:100:07.wav
312,192,95282,1,0,0:0:0:0:3U.wav
426,192,95463,1,0,0:0:0:0:09.wav
256,192,95463,1,0,0:0:0:0:3V.wav
199,192,95645,1,0,0:0:0:0:3W.wav
426,192,95827,1,0,0:0:0:0:09.wav
85,192,96009,1,0,0:0:0:0:3Y.wav
426,192,96191,1,0,0:0:0:0:09.wav
199,192,96191,1,0,0:0:0:0:3Z.wav
483,192,96373,1,0,0:0:0:100:07.wav
312,192,96373,1,0,0:0:0:0:40.wav
142,192,96554,1,0,0:0:0:0:09.wav
426,192,96736,1,0,0:0:0:0:41.wav
312,192,96918,1,0,0:0:0:0:09.wav
483,192,96918,1,0,0:0:0:0:42.wav
369,192,97100,1,0,0:0:0:0:43.wav
199,192,97282,1,0,0:0:0:0:09.wav
483,192,97463,5,0,0:0:0:100:07.wav
256,192,97463,1,0,0:0:0:0:3X.wav
85,192,97645,1,0,0:0:0:0:09.wav
142,192,97827,1,0,0:0:0:0:44.wav
426,192,98009,1,0,0:0:0:0:09.wav
28,192,98191,1,0,0:0:0:0:45.wav
312,192,98373,1,0,0:0:0:0:09.wav
28,192,98554,5,0,0:0:0:100:07.wav
256,192,98554,1,0,0:0:0:100:05.wav
369,192,98554,1,0,0:0:0:100:46.wav
426,192,98918,1,0,0:0:0:100:47.wav
312,192,99282,1,0,0:0:0:100:48.wav
199,192,99645,1,0,0:0:0:100:49.wav
369,192,100009,1,0,0:0:0:100:4A.wav
256,192,100373,1,0,0:0:0:100:4B.wav
142,192,100736,1,0,0:0:0:100:4C.wav
312,192,101100,1,0,0:0:0:100:4D.wav
199,192,101463,1,0,0:0:0:100:4E.wav
85,192,101827,1,0,0:0:0:100:4F.wav
256,192,102191,1,0,0:0:0:100:4G.wav
142,192,102554,1,0,0:0:0:100:4H.wav
426,192,102918,1,0,0:0:0:100:DW.wav
199,192,103282,1,0,0:0:0:100:DX.wav
256,192,103463,1,0,0:0:0:100:DY.wav
312,192,103645,1,0,0:0:0:100:DZ.wav
369,192,103827,1,0,0:0:0:100:E0.wav
483,192,104009,1,0,0:0:0:100:E1.wav
483,192,104373,1,0,0:0:0:100:E2.wav
256,192,105100,1,0,0:0:0:100:E3.wav
28,192,105463,1,0,0:0:0:100:E4.wav
85,192,105645,1,0,0:0:0:100:E5.wav
142,192,105827,1,0,0:0:0:100:E6.wav
199,192,106009,1,0,0:0:0:100:E7.wav
312,192,106191,1,0,0:0:0:100:E8.wav
312,192,106554,1,0,0:0:0:100:E9.wav
483,192,107282,1,0,0:0:0:100:8N.wav
369,192,107645,1,0,0:0:0:100:8O.wav
256,192,108009,1,0,0:0:0:100:8P.wav
369,192,108191,1,0,0:0:0:100:8Q.wav
426,192,108373,1,0,0:0:0:100:8R.wav
312,192,108736,1,0,0:0:0:100:8S.wav
199,192,109100,1,0,0:0:0:100:8T.wav
312,192,109282,1,0,0:0:0:100:8U.wav
369,192,109463,1,0,0:0:0:100:8V.wav
256,192,109827,1,0,0:0:0:100:8W.wav
142,192,110191,1,0,0:0:0:100:8X.wav
256,192,110373,1,0,0:0:0:100:8Y.wav
312,192,110554,1,0,0:0:0:100:8Z.wav
199,192,110918,1,0,0:0:0:100:90.wav
85,192,111282,1,0,0:0:0:100:91.wav
199,192,111463,1,0,0:0:0:100:92.wav
369,192,111645,1,0,0:0:0:50:93.wav
256,192,111645,1,0,0:0:0:50:93.wav
