osu file format v14

[General]
AudioFilename: Watagumo no onaka.mp3
AudioLeadIn: 0
PreviewTime: 27736
Countdown: 0
SampleSet: Normal
StackLeniency: 0.7
Mode: 3
LetterboxInBreaks: 0
SpecialStyle: 0
WidescreenStoryboard: 0
SamplesMatchPlaybackRate: 1

[Editor]
DistanceSpacing: 0.8
BeatDivisor: 4
GridSize: 8
TimelineZoom: 1

[Metadata]
Title:Watagumo no Onaka
TitleUnicode:わたぐものおなか
Artist:Dormir
ArtistUnicode:Dormir
Creator:Todestrieb
Version:EX
Source:pop'n music Sunny Park
Tags:air waltz ciel crimm tomosuke eimy pms
BeatmapID:1145095
BeatmapSetID:539982

[Difficulty]
HPDrainRate:9
CircleSize:9
OverallDifficulty:9
ApproachRate:5
SliderMultiplier:1.4
SliderTickRate:1

[Events]
//Background and Video events
0,0,"BG.jpg",0,0
//Break Periods
//Storyboard Layer 0 (Background)
//Storyboard Layer 1 (Fail)
//Storyboard Layer 2 (Pass)
//Storyboard Layer 3 (Foreground)
//Storyboard Layer 4 (Overlay)
//Storyboard Sound Samples

[TimingPoints]
373,363.636363636364,3,1,1,10,1,0
81100,-100,3,1,1,10,0,1
85373,-100,3,1,1,10,0,0
85463,-100,3,1,1,10,0,1
89736,-100,3,1,1,10,0,0
89827,-100,3,1,1,10,0,1
94100,-100,3,1,1,10,0,0
94191,-100,3,1,1,10,0,1
98463,-100,3,1,1,10,0,0

[HitObjects]
483,192,1463,5,0,0:0:0:100:94.wav
426,192,1463,1,0,0:0:0:100:0M.wav
369,192,1827,1,0,0:0:0:100:95.wav
312,192,1827,1,0,0:0:0:100:0N.wav
256,192,2191,1,0,0:0:0:100:96.wav
199,192,2191,1,0,0:0:0:100:0O.wav
85,192,2554,1,0,0:0:0:100:97.wav
426,192,2554,1,0,0:0:0:100:0P.wav
142,192,2554,1,0,0:0:0:100:4K.wav
199,192,2736,1,0,0:0:0:100:4L.wav
256,192,2918,1,0,0:0:0:100:4M.wav
312,192,3100,1,0,0:0:0:100:4N.wav
369,192,3282,1,0,0:0:0:100:4O.wav
426,192,3463,1,0,0:0:0:100:4P.wav
483,192,3645,1,0,0:0:0:100:4Q.wav
28,192,3645,1,0,0:0:0:100:98.wav
369,192,3645,1,0,0:0:0:100:0Q.wav
426,192,3827,1,0,0:0:0:100:4R.wav
85,192,3827,1,0,0:0:0:100:99.wav
142,192,3888,1,0,0:0:0:100:9A.wav
199,192,3948,1,0,0:0:0:100:9B.wav
369,192,4009,1,0,0:0:0:100:4S.wav
256,192,4009,1,0,0:0:0:100:9C.wav
85,192,4009,1,0,0:0:0:100:0R.wav
312,192,4191,1,0,0:0:0:100:4T.wav
256,192,4373,1,0,0:0:0:100:4U.wav
28,192,4373,1,0,0:0:0:100:9D.wav
199,192,4554,1,0,0:0:0:100:4V.wav
369,192,4736,1,0,0:0:0:100:4W.wav
483,192,4736,1,0,0:0:0:100:0U.wav
85,192,4736,1,0,0:0:0:100:9E.wav
312,192,4918,1,0,0:0:0:100:4X.wav
256,192,5100,1,0,0:0:0:100:4Y.wav
199,192,5282,1,0,0:0:0:100:4Z.wav
256,192,5463,1,0,0:0:0:100:50.wav
312,192,5645,1,0,0:0:0:100:51.wav
369,192,5827,1,0,0:0:0:100:52.wav
142,192,5827,1,0,0:0:0:100:9F.wav
28,192,5827,1,0,0:0:0:100:0V.wav
369,192,6191,1,0,0:0:0:100:53.wav
142,192,6191,1,0,0:0:0:100:9G.wav
28,192,6191,1,0,0:0:0:100:0W.wav
369,192,6918,1,0,0:0:0:100:54.wav
142,192,6918,1,0,0:0:0:100:9H.wav
28,192,6918,1,0,0:0:0:100:0X.wav
369,192,7282,1,0,0:0:0:100:55.wav
142,192,7282,1,0,0:0:0:100:9I.wav
28,192,7282,1,0,0:0:0:100:0Y.wav
28,192,8009,1,0,0:0:0:100:EV.wav
85,192,8373,1,0,0:0:0:100:EW.wav
142,192,8736,1,0,0:0:0:100:EX.wav
312,192,9100,1,0,0:0:0:100:0Z.wav
199,192,9100,1,0,0:0:0:100:EY.wav
256,192,9463,1,0,0:0:0:100:EZ.wav
369,192,9463,1,0,0:0:0:100:10.wav
312,192,9827,1,0,0:0:0:100:F0.wav
426,192,9827,1,0,0:0:0:100:11.wav
483,192,10191,1,0,0:0:0:100:12.wav
256,192,10191,1,0,0:0:0:100:56.wav
142,192,10191,1,0,0:0:0:100:9J.wav
199,192,10373,1,0,0:0:0:100:9K.wav
369,192,10554,1,0,0:0:0:100:57.wav
256,192,10554,1,0,0:0:0:100:9L.wav
312,192,10736,1,0,0:0:0:100:9M.wav
426,192,10918,1,0,0:0:0:100:9N.wav
483,192,11100,1,0,0:0:0:100:9O.wav
256,192,11282,1,0,0:0:0:100:58.wav
426,192,11282,1,0,0:0:0:100:9P.wav
369,192,11463,1,0,0:0:0:100:9Q.wav
312,192,11645,1,0,0:0:0:100:59.wav
199,192,11645,1,0,0:0:0:100:9R.wav
142,192,11827,1,0,0:0:0:100:9S.wav
85,192,12009,1,0,0:0:0:100:9T.wav
28,192,12191,1,0,0:0:0:100:9U.wav
256,192,12373,1,0,0:0:0:100:56.wav
142,192,12373,1,0,0:0:0:100:9V.wav
199,192,12554,1,0,0:0:0:100:9W.wav
369,192,12736,1,0,0:0:0:100:57.wav
256,192,12736,1,0,0:0:0:100:9X.wav
312,192,12918,1,0,0:0:0:100:9M.wav
426,192,13100,1,0,0:0:0:100:9N.wav
483,192,13282,1,0,0:0:0:100:9O.wav
256,192,13463,1,0,0:0:0:100:58.wav
426,192,13463,1,0,0:0:0:100:9P.wav
369,192,13645,1,0,0:0:0:100:9Q.wav
312,192,13827,1,0,0:0:0:100:59.wav
199,192,13827,1,0,0:0:0:100:9R.wav
142,192,14009,1,0,0:0:0:100:9S.wav
85,192,14191,1,0,0:0:0:100:9T.wav
28,192,14373,1,0,0:0:0:100:9U.wav
426,192,14554,1,0,0:0:0:100:5A.wav
85,192,14554,1,0,0:0:0:100:9Y.wav
142,192,14736,1,0,0:0:0:100:9Z.wav
369,192,14918,1,0,0:0:0:100:5B.wav
199,192,14918,1,0,0:0:0:100:A0.wav
256,192,15100,1,0,0:0:0:100:A1.wav
312,192,15282,1,0,0:0:0:100:A2.wav
483,192,15463,1,0,0:0:0:100:A3.wav
199,192,15645,1,0,0:0:0:100:5C.wav
426,192,15645,1,0,0:0:0:100:A4.wav
369,192,15827,1,0,0:0:0:100:A5.wav
142,192,16009,1,0,0:0:0:100:5D.wav
312,192,16009,1,0,0:0:0:100:A6.wav
256,192,16191,1,0,0:0:0:100:A7.wav
199,192,16373,1,0,0:0:0:100:A8.wav
28,192,16554,1,0,0:0:0:100:A9.wav
426,192,16736,1,0,0:0:0:100:5A.wav
85,192,16736,1,0,0:0:0:100:AA.wav
142,192,16918,1,0,0:0:0:100:AB.wav
369,192,17100,1,0,0:0:0:100:5B.wav
199,192,17100,1,0,0:0:0:100:AC.wav
256,192,17282,1,0,0:0:0:100:A1.wav
312,192,17463,1,0,0:0:0:100:A2.wav
483,192,17645,1,0,0:0:0:100:A3.wav
142,192,17827,1,0,0:0:0:100:5E.wav
426,192,17827,1,0,0:0:0:100:A4.wav
369,192,18009,1,0,0:0:0:100:A5.wav
85,192,18191,1,0,0:0:0:100:5F.wav
312,192,18191,1,0,0:0:0:100:A6.wav
256,192,18373,1,0,0:0:0:100:A7.wav
199,192,18554,1,0,0:0:0:100:A8.wav
85,192,18736,1,0,0:0:0:100:A9.wav
256,192,18918,1,0,0:0:0:100:56.wav
28,192,18918,1,0,0:0:0:100:13.wav
142,192,18918,1,0,0:0:0:100:9V.wav
28,192,19100,1,0,0:0:0:100:14.wav
199,192,19100,1,0,0:0:0:100:9W.wav
369,192,19282,1,0,0:0:0:100:57.wav
256,192,19282,1,0,0:0:0:100:9X.wav
85,192,19463,1,0,0:0:0:100:15.wav
312,192,19463,1,0,0:0:0:100:9M.wav
85,192,19645,1,0,0:0:0:100:16.wav
426,192,19645,1,0,0:0:0:100:9N.wav
85,192,19827,1,0,0:0:0:100:17.wav
483,192,19827,1,0,0:0:0:100:9O.wav
256,192,20009,1,0,0:0:0:100:58.wav
142,192,20009,1,0,0:0:0:100:18.wav
426,192,20009,1,0,0:0:0:100:9P.wav
142,192,20191,1,0,0:0:0:100:19.wav
369,192,20191,1,0,0:0:0:100:9Q.wav
312,192,20373,1,0,0:0:0:100:59.wav
199,192,20373,1,0,0:0:0:100:9R.wav
369,192,20554,1,0,0:0:0:100:1A.wav
142,192,20554,1,0,0:0:0:100:9S.wav
369,192,20736,1,0,0:0:0:100:1B.wav
85,192,20736,1,0,0:0:0:100:9T.wav
369,192,20918,1,0,0:0:0:100:1C.wav
28,192,20918,1,0,0:0:0:100:9U.wav
256,192,21100,1,0,0:0:0:100:56.wav
426,192,21100,1,0,0:0:0:100:1D.wav
142,192,21100,1,0,0:0:0:100:9V.wav
426,192,21282,1,0,0:0:0:100:1E.wav
199,192,21282,1,0,0:0:0:100:9W.wav
369,192,21463,1,0,0:0:0:100:57.wav
256,192,21463,1,0,0:0:0:100:9X.wav
85,192,21645,1,0,0:0:0:100:1F.wav
312,192,21645,1,0,0:0:0:100:9M.wav
85,192,21827,1,0,0:0:0:100:1G.wav
426,192,21827,1,0,0:0:0:100:9N.wav
85,192,22009,1,0,0:0:0:100:1H.wav
483,192,22009,1,0,0:0:0:100:9O.wav
256,192,22191,1,0,0:0:0:100:58.wav
142,192,22191,1,0,0:0:0:100:1I.wav
426,192,22191,1,0,0:0:0:100:9P.wav
142,192,22373,1,0,0:0:0:100:1J.wav
369,192,22373,1,0,0:0:0:100:9Q.wav
312,192,22554,1,0,0:0:0:100:59.wav
199,192,22554,1,0,0:0:0:100:9R.wav
369,192,22736,1,0,0:0:0:100:1K.wav
142,192,22736,1,0,0:0:0:100:9S.wav
369,192,22918,1,0,0:0:0:100:1L.wav
85,192,22918,1,0,0:0:0:100:9T.wav
369,192,23100,1,0,0:0:0:100:1M.wav
28,192,23100,1,0,0:0:0:100:9U.wav
426,192,23282,1,0,0:0:0:100:5A.wav
312,192,23282,1,0,0:0:0:100:1N.wav
85,192,23282,1,0,0:0:0:100:9Y.wav
312,192,23463,1,0,0:0:0:100:1O.wav
142,192,23463,1,0,0:0:0:100:9Z.wav
369,192,23645,1,0,0:0:0:100:5B.wav
199,192,23645,1,0,0:0:0:100:A0.wav
28,192,23827,1,0,0:0:0:100:1P.wav
256,192,23827,1,0,0:0:0:100:A1.wav
28,192,24009,1,0,0:0:0:100:1Q.wav
312,192,24009,1,0,0:0:0:100:A2.wav
28,192,24191,1,0,0:0:0:100:1R.wav
483,192,24191,1,0,0:0:0:100:A3.wav
199,192,24373,1,0,0:0:0:100:5C.wav
85,192,24373,1,0,0:0:0:100:1S.wav
426,192,24373,1,0,0:0:0:100:A4.wav
85,192,24554,1,0,0:0:0:100:1T.wav
369,192,24554,1,0,0:0:0:100:A5.wav
142,192,24736,1,0,0:0:0:100:5D.wav
312,192,24736,1,0,0:0:0:100:A6.wav
426,192,24918,1,0,0:0:0:100:1U.wav
256,192,24918,1,0,0:0:0:100:A7.wav
426,192,25100,1,0,0:0:0:100:1V.wav
199,192,25100,1,0,0:0:0:100:A8.wav
426,192,25282,1,0,0:0:0:100:1W.wav
28,192,25282,1,0,0:0:0:100:A9.wav
369,192,25463,1,0,0:0:0:100:5A.wav
483,192,25463,1,0,0:0:0:100:1X.wav
85,192,25463,1,0,0:0:0:100:AA.wav
483,192,25645,1,0,0:0:0:100:1Y.wav
142,192,25645,1,0,0:0:0:100:AB.wav
312,192,25827,1,0,0:0:0:100:5B.wav
199,192,25827,1,0,0:0:0:100:AC.wav
256,192,26009,1,0,0:0:0:100:1Z.wav
369,192,26009,1,0,0:0:0:100:A1.wav
256,192,26191,1,0,0:0:0:100:20.wav
426,192,26191,1,0,0:0:0:100:A2.wav
256,192,26373,1,0,0:0:0:100:21.wav
483,192,26373,1,0,0:0:0:100:A3.wav
312,192,26554,1,0,0:0:0:100:5E.wav
426,192,26554,1,0,0:0:0:100:22.wav
28,192,26554,1,0,0:0:0:100:AD.wav
85,192,26645,1,0,0:0:0:100:AE.wav
426,192,26736,1,0,0:0:0:100:23.wav
142,192,26736,1,0,0:0:0:100:AF.wav
199,192,26827,1,0,0:0:0:100:AG.wav
483,192,26918,1,0,0:0:0:100:5F.wav
256,192,26918,1,0,0:0:0:100:AH.wav
312,192,27009,1,0,0:0:0:100:AI.wav
28,192,27100,1,0,0:0:0:100:24.wav
142,192,27100,1,0,0:0:0:100:AJ.wav
199,192,27191,1,0,0:0:0:100:AK.wav
28,192,27282,1,0,0:0:0:100:25.wav
256,192,27282,1,0,0:0:0:100:AL.wav
312,192,27373,1,0,0:0:0:100:AM.wav
28,192,27463,1,0,0:0:0:100:26.wav
369,192,27463,1,0,0:0:0:100:AN.wav
426,192,27554,1,0,0:0:0:100:AO.wav
199,192,27645,1,0,0:0:0:100:07.wav
85,192,27645,1,0,0:0:0:100:02.wav
369,192,27645,1,0,0:0:0:100:27.wav
483,192,27645,1,0,0:0:0:100:5G.wav
142,192,28009,1,0,0:0:0:100:09.wav
312,192,28191,1,0,0:0:0:100:5H.wav
142,192,28373,1,0,0:0:0:100:0A.wav
312,192,28554,1,0,0:0:0:100:5I.wav
28,192,28736,1,0,0:0:0:100:07.wav
256,192,28736,1,0,0:0:0:100:5J.wav
142,192,29100,1,0,0:0:0:100:09.wav
312,192,29100,1,0,0:0:0:100:5K.wav
142,192,29463,1,0,0:0:0:100:0A.wav
312,192,29463,1,0,0:0:0:100:5L.wav
85,192,29645,1,0,0:0:0:100:07.wav
28,192,29827,1,0,0:0:0:100:07.wav
256,192,29827,1,0,0:0:0:100:5G.wav
199,192,29827,1,0,0:0:0:100:28.wav
142,192,30191,1,0,0:0:0:100:09.wav
312,192,30373,1,0,0:0:0:100:5H.wav
142,192,30554,1,0,0:0:0:100:0A.wav
312,192,30736,1,0,0:0:0:100:5I.wav
28,192,30918,1,0,0:0:0:100:07.wav
256,192,30918,1,0,0:0:0:100:5J.wav
369,192,30918,1,0,0:0:0:100:29.wav
142,192,31282,1,0,0:0:0:100:09.wav
312,192,31282,1,0,0:0:0:100:5K.wav
142,192,31645,1,0,0:0:0:100:0A.wav
312,192,31645,1,0,0:0:0:100:5L.wav
426,192,31827,1,0,0:0:0:100:07.wav
483,192,32009,1,0,0:0:0:100:07.wav
312,192,32009,1,0,0:0:0:100:5M.wav
256,192,32009,1,0,0:0:0:100:2A.wav
369,192,32373,1,0,0:0:0:100:09.wav
199,192,32554,1,0,0:0:0:100:5N.wav
369,192,32736,1,0,0:0:0:100:0A.wav
199,192,32918,1,0,0:0:0:100:5O.wav
483,192,33100,1,0,0:0:0:100:07.wav
312,192,33100,1,0,0:0:0:100:5P.wav
369,192,33463,1,0,0:0:0:100:09.wav
199,192,33463,1,0,0:0:0:100:5Q.wav
199,192,33827,1,0,0:0:0:100:5R.wav
369,192,33827,1,0,0:0:0:100:0A.wav
256,192,34009,1,0,0:0:0:100:07.wav
483,192,34191,1,0,0:0:0:100:07.wav
312,192,34191,1,0,0:0:0:100:5M.wav
426,192,34191,1,0,0:0:0:100:2B.wav
369,192,34554,1,0,0:0:0:100:09.wav
142,192,34554,1,0,0:0:0:100:2C.wav
199,192,34736,1,0,0:0:0:100:5N.wav
369,192,34918,1,0,0:0:0:100:0A.wav
85,192,34918,1,0,0:0:0:100:2D.wav
199,192,35100,1,0,0:0:0:100:5O.wav
426,192,35282,1,0,0:0:0:100:07.wav
312,192,35282,1,0,0:0:0:100:5P.wav
28,192,35282,1,0,0:0:0:100:2E.wav
483,192,35463,1,0,0:0:0:100:0B.wav
369,192,35645,1,0,0:0:0:100:03.wav
256,192,35645,1,0,0:0:0:100:5Q.wav
85,192,35827,1,0,0:0:0:100:0E.wav
142,192,36009,1,0,0:0:0:100:0F.wav
256,192,36009,1,0,0:0:0:100:5R.wav
199,192,36191,1,0,0:0:0:100:0G.wav
28,192,36373,1,0,0:0:0:100:07.wav
85,192,36373,1,0,0:0:0:100:04.wav
312,192,36373,1,0,0:0:0:100:2F.wav
426,192,36373,1,0,0:0:0:100:5G.wav
142,192,36736,1,0,0:0:0:100:09.wav
312,192,36918,1,0,0:0:0:100:5H.wav
142,192,37100,1,0,0:0:0:100:0A.wav
312,192,37282,1,0,0:0:0:100:5I.wav
28,192,37463,1,0,0:0:0:100:07.wav
256,192,37463,1,0,0:0:0:100:5J.wav
142,192,37827,1,0,0:0:0:100:09.wav
312,192,37827,1,0,0:0:0:100:5K.wav
142,192,38191,1,0,0:0:0:100:0A.wav
312,192,38191,1,0,0:0:0:100:5L.wav
85,192,38373,1,0,0:0:0:100:07.wav
28,192,38554,1,0,0:0:0:100:07.wav
256,192,38554,1,0,0:0:0:100:5G.wav
199,192,38554,1,0,0:0:0:100:2G.wav
142,192,38918,1,0,0:0:0:100:09.wav
312,192,39100,1,0,0:0:0:100:5H.wav
142,192,39282,1,0,0:0:0:100:0A.wav
312,192,39463,1,0,0:0:0:100:5I.wav
28,192,39645,1,0,0:0:0:100:07.wav
256,192,39645,1,0,0:0:0:100:5J.wav
369,192,39645,1,0,0:0:0:100:2H.wav
142,192,40009,1,0,0:0:0:100:09.wav
312,192,40009,1,0,0:0:0:100:5K.wav
142,192,40373,1,0,0:0:0:100:0A.wav
312,192,40373,1,0,0:0:0:100:5L.wav
426,192,40554,1,0,0:0:0:100:07.wav
483,192,40736,1,0,0:0:0:100:07.wav
256,192,40736,1,0,0:0:0:100:2I.wav
312,192,40736,1,0,0:0:0:100:5S.wav
369,192,41100,1,0,0:0:0:100:09.wav
199,192,41282,1,0,0:0:0:100:5T.wav
369,192,41463,1,0,0:0:0:100:0A.wav
199,192,41645,1,0,0:0:0:100:5U.wav
312,192,41827,1,0,0:0:0:100:5V.wav
483,192,41827,1,0,0:0:0:100:07.wav
369,192,42191,1,0,0:0:0:100:09.wav
199,192,42191,1,0,0:0:0:100:5W.wav
369,192,42554,1,0,0:0:0:100:0A.wav
199,192,42554,1,0,0:0:0:100:5X.wav
256,192,42736,1,0,0:0:0:100:07.wav
483,192,42918,1,0,0:0:0:100:07.wav
312,192,42918,1,0,0:0:0:100:5S.wav
426,192,42918,1,0,0:0:0:100:2J.wav
369,192,43282,1,0,0:0:0:100:09.wav
256,192,43282,1,0,0:0:0:100:2K.wav
199,192,43463,1,0,0:0:0:100:5T.wav
85,192,43463,1,0,0:0:0:100:2L.wav
369,192,43645,1,0,0:0:0:100:0A.wav
199,192,43827,1,0,0:0:0:100:5U.wav
483,192,44009,1,0,0:0:0:100:07.wav
426,192,44009,1,0,0:0:0:100:AP.wav
312,192,44009,1,0,0:0:0:100:5Y.wav
256,192,44009,1,0,0:0:0:100:2M.wav
142,192,44191,1,0,0:0:0:100:AQ.wav
483,192,44373,1,0,0:0:0:100:07.wav
199,192,44373,1,0,0:0:0:100:AR.wav
85,192,44373,1,0,0:0:0:100:5Z.wav
369,192,44373,1,0,0:0:0:100:0A.wav
256,192,44554,1,0,0:0:0:100:AS.wav
483,192,44736,1,0,0:0:0:100:07.wav
142,192,44736,1,0,0:0:0:100:AT.wav
85,192,44736,1,0,0:0:0:100:60.wav
426,192,44736,1,0,0:0:0:100:09.wav
28,192,44736,1,0,0:0:0:100:2N.wav
426,192,45100,1,0,0:0:0:100:AU.wav
28,192,45100,1,0,0:0:0:100:61.wav
369,192,45282,1,0,0:0:0:100:AV.wav
142,192,45463,1,0,0:0:0:100:62.wav
312,192,45463,1,0,0:0:0:100:AW.wav
256,192,45645,1,0,0:0:0:100:AX.wav
85,192,45827,1,0,0:0:0:100:63.wav
426,192,45827,1,0,0:0:0:100:AY.wav
369,192,46009,1,0,0:0:0:100:AZ.wav
28,192,46191,1,0,0:0:0:100:64.wav
483,192,46191,1,0,0:0:0:100:B0.wav
426,192,46373,1,0,0:0:0:100:B1.wav
199,192,46554,1,0,0:0:0:100:65.wav
312,192,46554,1,0,0:0:0:100:AW.wav
256,192,46736,1,0,0:0:0:100:AX.wav
142,192,46918,1,0,0:0:0:100:66.wav
426,192,46918,1,0,0:0:0:100:AY.wav
369,192,47100,1,0,0:0:0:100:AZ.wav
85,192,47282,1,0,0:0:0:100:67.wav
483,192,47282,1,0,0:0:0:100:B2.wav
369,192,47463,1,0,0:0:0:100:B3.wav
142,192,47645,1,0,0:0:0:100:62.wav
426,192,47645,1,0,0:0:0:100:B4.wav
312,192,47827,1,0,0:0:0:100:B5.wav
85,192,48009,1,0,0:0:0:100:63.wav
256,192,48009,1,0,0:0:0:100:B6.wav
312,192,48191,1,0,0:0:0:100:B7.wav
28,192,48373,1,0,0:0:0:100:64.wav
483,192,48373,1,0,0:0:0:100:B8.wav
369,192,48554,1,0,0:0:0:100:B9.wav
199,192,48736,1,0,0:0:0:100:65.wav
426,192,48736,1,0,0:0:0:100:B4.wav
312,192,48918,1,0,0:0:0:100:B5.wav
142,192,49100,1,0,0:0:0:100:66.wav
256,192,49100,1,0,0:0:0:100:B6.wav
369,192,49282,1,0,0:0:0:100:BA.wav
85,192,49463,1,0,0:0:0:100:67.wav
426,192,49463,1,0,0:0:0:100:BB.wav
369,192,49645,1,0,0:0:0:100:BC.wav
142,192,49827,1,0,0:0:0:100:62.wav
312,192,49827,1,0,0:0:0:100:AW.wav
256,192,50009,1,0,0:0:0:100:AX.wav
85,192,50191,1,0,0:0:0:100:63.wav
426,192,50191,1,0,0:0:0:100:AY.wav
369,192,50373,1,0,0:0:0:100:AZ.wav
28,192,50554,1,0,0:0:0:100:64.wav
483,192,50554,1,0,0:0:0:100:B0.wav
426,192,50736,1,0,0:0:0:100:B1.wav
199,192,50918,1,0,0:0:0:100:65.wav
312,192,50918,1,0,0:0:0:100:AW.wav
256,192,51100,1,0,0:0:0:100:AX.wav
142,192,51282,1,0,0:0:0:100:66.wav
426,192,51282,1,0,0:0:0:100:AY.wav
369,192,51463,1,0,0:0:0:100:AZ.wav
85,192,51645,1,0,0:0:0:100:67.wav
483,192,51645,1,0,0:0:0:100:B2.wav
369,192,51827,1,0,0:0:0:100:B3.wav
142,192,52009,1,0,0:0:0:100:62.wav
426,192,52009,1,0,0:0:0:100:B4.wav
312,192,52191,1,0,0:0:0:100:B5.wav
85,192,52373,1,0,0:0:0:100:63.wav
256,192,52373,1,0,0:0:0:100:B6.wav
312,192,52554,1,0,0:0:0:100:B7.wav
483,192,52736,1,0,0:0:0:100:07.wav
28,192,52736,1,0,0:0:0:100:64.wav
426,192,52736,1,0,0:0:0:100:BD.wav
369,192,52827,1,0,0:0:0:100:BE.wav
312,192,52918,1,0,0:0:0:100:BF.wav
256,192,53009,1,0,0:0:0:100:BG.wav
483,192,53100,1,0,0:0:0:100:0A.wav
142,192,53100,1,0,0:0:0:100:65.wav
199,192,53100,1,0,0:0:0:100:BH.wav
369,192,53191,1,0,0:0:0:100:BI.wav
28,192,53282,1,0,0:0:0:100:09.wav
312,192,53282,1,0,0:0:0:100:BJ.wav
256,192,53373,1,0,0:0:0:100:BK.wav
483,192,53463,1,0,0:0:0:100:0H.wav
85,192,53463,1,0,0:0:0:100:66.wav
199,192,53463,1,0,0:0:0:100:BL.wav
426,192,53554,1,0,0:0:0:100:0I.wav
142,192,53554,1,0,0:0:0:100:BM.wav
28,192,53645,1,0,0:0:0:100:0J.wav
312,192,53645,1,0,0:0:0:100:BN.wav
256,192,53736,1,0,0:0:0:100:BO.wav
28,192,53827,1,0,0:0:0:100:07.wav
369,192,53827,1,0,0:0:0:0:BP.wav
426,192,53827,1,0,0:0:0:100:68.wav
369,192,54009,1,0,0:0:0:0:BQ.wav
312,192,54009,1,0,0:0:0:100:6A.wav
28,192,54191,1,0,0:0:0:100:07.wav
256,192,54191,1,0,0:0:0:0:6C.wav
369,192,54373,1,0,0:0:0:0:BP.wav
483,192,54373,1,0,0:0:0:0:0A.wav
199,192,54373,1,0,0:0:0:100:6D.wav
28,192,54554,1,0,0:0:0:100:07.wav
369,192,54554,1,0,0:0:0:0:BQ.wav
142,192,54554,1,0,0:0:0:100:6E.wav
426,192,54736,1,0,0:0:0:0:09.wav
85,192,54736,1,0,0:0:0:100:6G.wav
28,192,54918,1,0,0:0:0:100:07.wav
142,192,54918,1,0,0:0:0:0:BR.wav
256,192,54918,1,0,0:0:0:100:6L.wav
142,192,55100,1,0,0:0:0:0:BS.wav
28,192,55282,1,0,0:0:0:100:07.wav
256,192,55282,1,0,0:0:0:100:6L.wav
142,192,55463,1,0,0:0:0:0:BR.wav
426,192,55463,1,0,0:0:0:100:0A.wav
28,192,55645,1,0,0:0:0:100:07.wav
142,192,55645,1,0,0:0:0:0:BS.wav
312,192,55645,1,0,0:0:0:100:6O.wav
369,192,55645,1,0,0:0:0:0:0C.wav
199,192,55827,1,0,0:0:0:0:0K.wav
28,192,56009,1,0,0:0:0:100:07.wav
426,192,56009,1,0,0:0:0:0:BT.wav
369,192,56009,1,0,0:0:0:100:68.wav
426,192,56191,1,0,0:0:0:0:BU.wav
312,192,56191,1,0,0:0:0:100:6A.wav
28,192,56373,1,0,0:0:0:100:07.wav
256,192,56373,1,0,0:0:0:0:6C.wav
426,192,56554,1,0,0:0:0:0:BT.wav
483,192,56554,1,0,0:0:0:0:0A.wav
199,192,56554,1,0,0:0:0:100:6D.wav
28,192,56736,1,0,0:0:0:100:07.wav
426,192,56736,1,0,0:0:0:0:BU.wav
142,192,56736,1,0,0:0:0:100:6E.wav
312,192,56918,1,0,0:0:0:0:09.wav
85,192,56918,1,0,0:0:0:100:6G.wav
28,192,57100,1,0,0:0:0:100:07.wav
369,192,57100,1,0,0:0:0:0:BP.wav
256,192,57100,1,0,0:0:0:100:6L.wav
369,192,57282,1,0,0:0:0:0:BQ.wav
28,192,57463,1,0,0:0:0:100:07.wav
256,192,57463,1,0,0:0:0:100:6L.wav
369,192,57645,1,0,0:0:0:0:BP.wav
483,192,57645,1,0,0:0:0:0:0A.wav
28,192,57827,1,0,0:0:0:100:07.wav
369,192,57827,1,0,0:0:0:0:BQ.wav
142,192,57827,1,0,0:0:0:0:0C.wav
312,192,57827,1,0,0:0:0:100:6O.wav
85,192,58009,1,0,0:0:0:0:0K.wav
483,192,58191,1,0,0:0:0:100:07.wav
256,192,58191,1,0,0:0:0:0:BV.wav
426,192,58191,1,0,0:0:0:100:68.wav
256,192,58373,1,0,0:0:0:0:BW.wav
369,192,58373,1,0,0:0:0:100:6A.wav
483,192,58554,1,0,0:0:0:100:07.wav
199,192,58554,1,0,0:0:0:0:6C.wav
256,192,58736,1,0,0:0:0:0:BX.wav
28,192,58736,1,0,0:0:0:0:0A.wav
142,192,58736,1,0,0:0:0:100:6D.wav
483,192,58918,1,0,0:0:0:100:07.wav
426,192,58918,1,0,0:0:0:0:BY.wav
85,192,58918,1,0,0:0:0:100:6E.wav
199,192,59100,1,0,0:0:0:0:09.wav
28,192,59100,1,0,0:0:0:100:6G.wav
256,192,59282,1,0,0:0:0:100:6P.wav
369,192,59282,1,0,0:0:0:0:BZ.wav
483,192,59282,1,0,0:0:0:100:07.wav
369,192,59463,1,0,0:0:0:0:C0.wav
199,192,59645,1,0,0:0:0:100:6S.wav
483,192,59645,1,0,0:0:0:100:07.wav
85,192,59827,1,0,0:0:0:0:0A.wav
369,192,59827,1,0,0:0:0:0:C1.wav
426,192,60009,1,0,0:0:0:0:0C.wav
142,192,60009,1,0,0:0:0:100:6V.wav
256,192,60009,1,0,0:0:0:0:C2.wav
483,192,60009,1,0,0:0:0:100:07.wav
28,192,60191,1,0,0:0:0:0:0K.wav
483,192,60373,1,0,0:0:0:100:07.wav
199,192,60373,1,0,0:0:0:0:C3.wav
85,192,60373,1,0,0:0:0:100:6Y.wav
199,192,60554,1,0,0:0:0:0:C4.wav
142,192,60554,1,0,0:0:0:100:70.wav
483,192,60736,1,0,0:0:0:100:07.wav
256,192,60736,1,0,0:0:0:0:71.wav
199,192,60918,1,0,0:0:0:0:C3.wav
28,192,60918,1,0,0:0:0:0:0A.wav
312,192,60918,1,0,0:0:0:100:73.wav
483,192,61100,1,0,0:0:0:100:07.wav
199,192,61100,1,0,0:0:0:0:C4.wav
369,192,61100,1,0,0:0:0:100:74.wav
142,192,61282,1,0,0:0:0:0:09.wav
426,192,61282,1,0,0:0:0:100:76.wav
483,192,61463,1,0,0:0:0:100:07.wav
85,192,61463,1,0,0:0:0:0:C5.wav
199,192,61463,1,0,0:0:0:100:77.wav
85,192,61645,1,0,0:0:0:0:C6.wav
483,192,61827,1,0,0:0:0:100:07.wav
312,192,61827,1,0,0:0:0:0:7B.wav
85,192,62009,1,0,0:0:0:0:C5.wav
369,192,62009,1,0,0:0:0:0:0A.wav
483,192,62191,1,0,0:0:0:100:07.wav
85,192,62191,1,0,0:0:0:0:C6.wav
142,192,62191,1,0,0:0:0:0:0C.wav
426,192,62191,1,0,0:0:0:100:7F.wav
256,192,62373,1,0,0:0:0:0:0K.wav
426,192,62554,1,0,0:0:0:100:68.wav
369,192,62554,1,0,0:0:0:0:BP.wav
28,192,62554,1,0,0:0:0:100:07.wav
312,192,62736,1,0,0:0:0:100:6A.wav
369,192,62736,1,0,0:0:0:0:BQ.wav
256,192,62918,1,0,0:0:0:0:6C.wav
28,192,62918,1,0,0:0:0:100:07.wav
199,192,63100,1,0,0:0:0:100:6D.wav
483,192,63100,1,0,0:0:0:0:0A.wav
369,192,63100,1,0,0:0:0:0:BP.wav
142,192,63282,1,0,0:0:0:100:6E.wav
369,192,63282,1,0,0:0:0:0:BQ.wav
28,192,63282,1,0,0:0:0:100:07.wav
85,192,63463,1,0,0:0:0:100:6G.wav
426,192,63463,1,0,0:0:0:0:09.wav
142,192,63645,1,0,0:0:0:0:BR.wav
312,192,63645,1,0,0:0:0:100:6L.wav
28,192,63645,1,0,0:0:0:100:07.wav
142,192,63827,1,0,0:0:0:0:BS.wav
312,192,64009,1,0,0:0:0:0:6L.wav
28,192,64009,1,0,0:0:0:100:07.wav
426,192,64191,1,0,0:0:0:100:0A.wav
142,192,64191,1,0,0:0:0:0:BR.wav
369,192,64373,1,0,0:0:0:0:0C.wav
256,192,64373,1,0,0:0:0:100:6O.wav
28,192,64373,1,0,0:0:0:100:07.wav
142,192,64373,1,0,0:0:0:0:BS.wav
199,192,64554,1,0,0:0:0:0:0K.wav
369,192,64736,1,0,0:0:0:100:68.wav
426,192,64736,1,0,0:0:0:0:BT.wav
28,192,64736,1,0,0:0:0:100:07.wav
312,192,64918,1,0,0:0:0:100:6A.wav
426,192,64918,1,0,0:0:0:0:BU.wav
256,192,65100,1,0,0:0:0:0:6C.wav
28,192,65100,1,0,0:0:0:100:07.wav
199,192,65282,1,0,0:0:0:100:6D.wav
483,192,65282,1,0,0:0:0:0:0A.wav
426,192,65282,1,0,0:0:0:0:BT.wav
142,192,65463,1,0,0:0:0:100:6E.wav
426,192,65463,1,0,0:0:0:0:BU.wav
28,192,65463,1,0,0:0:0:100:07.wav
312,192,65645,1,0,0:0:0:0:09.wav
85,192,65645,1,0,0:0:0:100:6G.wav
256,192,65827,1,0,0:0:0:100:6L.wav
369,192,65827,1,0,0:0:0:0:BP.wav
28,192,65827,1,0,0:0:0:100:07.wav
369,192,66009,1,0,0:0:0:0:BQ.wav
28,192,66191,1,0,0:0:0:100:07.wav
256,192,66191,1,0,0:0:0:100:6L.wav
369,192,66373,1,0,0:0:0:0:BP.wav
483,192,66373,1,0,0:0:0:0:0A.wav
369,192,66554,1,0,0:0:0:0:BQ.wav
28,192,66554,1,0,0:0:0:100:07.wav
142,192,66554,1,0,0:0:0:100:6O.wav
426,192,66554,1,0,0:0:0:0:0C.wav
85,192,66736,1,0,0:0:0:0:0K.wav
426,192,66918,1,0,0:0:0:100:68.wav
256,192,66918,1,0,0:0:0:0:BV.wav
483,192,66918,1,0,0:0:0:100:07.wav
369,192,67100,1,0,0:0:0:100:6A.wav
256,192,67100,1,0,0:0:0:0:BW.wav
199,192,67282,1,0,0:0:0:0:6C.wav
483,192,67282,1,0,0:0:0:100:07.wav
142,192,67463,1,0,0:0:0:100:6D.wav
28,192,67463,1,0,0:0:0:0:0A.wav
256,192,67463,1,0,0:0:0:0:BX.wav
85,192,67645,1,0,0:0:0:100:6E.wav
426,192,67645,1,0,0:0:0:0:BY.wav
483,192,67645,1,0,0:0:0:100:07.wav
28,192,67827,1,0,0:0:0:100:6G.wav
199,192,67827,1,0,0:0:0:0:09.wav
256,192,68009,1,0,0:0:0:100:6P.wav
483,192,68009,1,0,0:0:0:100:07.wav
369,192,68009,1,0,0:0:0:0:BZ.wav
369,192,68191,1,0,0:0:0:0:C0.wav
199,192,68373,1,0,0:0:0:100:6S.wav
483,192,68373,1,0,0:0:0:100:07.wav
85,192,68554,1,0,0:0:0:0:0A.wav
369,192,68554,1,0,0:0:0:0:C1.wav
426,192,68736,1,0,0:0:0:0:0C.wav
142,192,68736,1,0,0:0:0:100:6V.wav
483,192,68736,1,0,0:0:0:100:07.wav
256,192,68736,1,0,0:0:0:0:C2.wav
28,192,68918,1,0,0:0:0:0:0K.wav
199,192,69100,1,0,0:0:0:0:C3.wav
85,192,69100,1,0,0:0:0:100:6Y.wav
483,192,69100,1,0,0:0:0:100:07.wav
142,192,69282,1,0,0:0:0:100:70.wav
199,192,69282,1,0,0:0:0:0:C4.wav
483,192,69463,1,0,0:0:0:100:07.wav
256,192,69463,1,0,0:0:0:0:71.wav
312,192,69645,1,0,0:0:0:100:73.wav
199,192,69645,1,0,0:0:0:0:C3.wav
28,192,69645,1,0,0:0:0:0:0A.wav
483,192,69827,1,0,0:0:0:100:07.wav
369,192,69827,1,0,0:0:0:100:74.wav
199,192,69827,1,0,0:0:0:0:C4.wav
142,192,70009,1,0,0:0:0:0:09.wav
426,192,70009,1,0,0:0:0:100:76.wav
483,192,70191,5,0,0:0:0:100:07.wav
256,192,70191,1,0,0:0:0:0:C7.wav
312,192,70191,1,0,0:0:0:100:7J.wav
483,192,70554,1,0,0:0:0:100:07.wav
256,192,70554,1,0,0:0:0:0:C7.wav
369,192,70554,1,0,0:0:0:100:7N.wav
199,192,70736,1,0,0:0:0:0:0A.wav
483,192,70918,1,0,0:0:0:100:07.wav
256,192,70918,1,0,0:0:0:0:C7.wav
142,192,70918,1,0,0:0:0:0:0C.wav
426,192,70918,1,0,0:0:0:100:7R.wav
85,192,71100,1,0,0:0:0:0:0K.wav
426,192,71282,5,0,0:0:0:0:2O.wav
28,192,71282,1,0,0:0:0:0:EE.wav
312,192,71282,1,0,0:0:0:100:7V.wav
142,192,71282,1,0,0:0:0:100:07.wav
369,192,71509,1,0,0:0:0:0:2P.wav
256,192,71509,1,0,0:0:0:100:7W.wav
369,192,71782,1,0,0:0:0:0:2Q.wav
85,192,71782,1,0,0:0:0:0:EF.wav
256,192,71782,1,0,0:0:0:100:7X.wav
312,192,72009,1,0,0:0:0:0:2R.wav
142,192,72009,1,0,0:0:0:0:EG.wav
199,192,72009,1,0,0:0:0:100:7Y.wav
369,192,72236,1,0,0:0:0:0:2S.wav
85,192,72236,1,0,0:0:0:0:EH.wav
256,192,72236,1,0,0:0:0:100:7Z.wav
426,192,72509,1,0,0:0:0:0:2T.wav
312,192,72509,1,0,0:0:0:100:80.wav
28,192,72736,1,0,0:0:0:0:EI.wav
483,192,72736,1,0,0:0:0:0:2U.wav
142,192,72736,1,0,0:0:0:100:07.wav
369,192,72736,1,0,0:0:0:100:81.wav
85,192,73236,1,0,0:0:0:0:EJ.wav
312,192,73236,1,0,0:0:0:0:2V.wav
199,192,73236,1,0,0:0:0:100:82.wav
142,192,73463,1,0,0:0:0:0:EK.wav
369,192,73691,1,0,0:0:0:100:83.wav
483,192,73691,1,0,0:0:0:0:2W.wav
85,192,73691,1,0,0:0:0:0:EL.wav
142,192,74191,1,0,0:0:0:100:07.wav
28,192,74191,1,0,0:0:0:0:EM.wav
256,192,74191,1,0,0:0:0:0:C8.wav
85,192,74373,1,0,0:0:0:0:EN.wav
312,192,74373,1,0,0:0:0:0:C9.wav
199,192,74554,1,0,0:0:0:0:EO.wav
369,192,74554,1,0,0:0:0:0:CA.wav
256,192,74736,1,0,0:0:0:0:EP.wav
426,192,74736,1,0,0:0:0:0:CB.wav
483,192,74918,1,0,0:0:0:0:CC.wav
426,192,75100,1,0,0:0:0:0:CD.wav
369,192,75282,1,0,0:0:0:0:CE.wav
483,192,75418,1,0,0:0:0:0:EQ.wav
426,192,75645,1,0,0:0:0:0:ER.wav
312,192,75645,1,0,0:0:0:0:CF.wav
28,192,75645,1,0,0:0:0:0:07.wav
369,192,75873,1,0,0:0:0:0:ES.wav
256,192,76145,1,0,0:0:0:0:ET.wav
199,192,76600,1,0,0:0:0:0:EU.wav
483,192,77100,1,0,0:0:0:0:EA.wav
426,192,77100,1,0,0:0:0:0:84.wav
142,192,77100,1,0,0:0:0:0:2X.wav
85,192,77100,1,0,0:0:0:0:02.wav
28,192,77100,1,0,0:0:0:100:07.wav
369,192,77100,1,0,0:0:0:100:CG.wav
312,192,77282,1,0,0:0:0:0:CH.wav
483,192,77463,1,0,0:0:0:0:EB.wav
426,192,77463,1,0,0:0:0:0:85.wav
142,192,77463,1,0,0:0:0:0:2Y.wav
256,192,77463,1,0,0:0:0:100:CI.wav
199,192,77645,1,0,0:0:0:0:CJ.wav
142,192,77827,1,0,0:0:0:0:CK.wav
483,192,78191,1,0,0:0:0:0:2Z.wav
369,192,78373,1,0,0:0:0:0:30.wav
256,192,78554,1,0,0:0:0:0:31.wav
142,192,78736,1,0,0:0:0:0:32.wav
28,192,78918,1,0,0:0:0:0:2X.wav
426,192,78918,1,0,0:0:0:0:EC.wav
85,192,78918,1,0,0:0:0:0:CL.wav
28,192,79282,1,0,0:0:0:0:2Y.wav
426,192,79282,1,0,0:0:0:0:ED.wav
312,192,79282,1,0,0:0:0:0:CM.wav
369,192,79645,1,0,0:0:0:0:CN.wav
312,192,80009,1,0,0:0:0:0:86.wav
369,192,80009,1,0,0:0:0:0:CO.wav
85,192,80009,1,0,0:0:0:0:02.wav
28,192,80009,1,0,0:0:0:100:07.wav
199,192,80191,1,0,0:0:0:0:0D.wav
28,192,80373,1,0,0:0:0:100:07.wav
369,192,80373,1,0,0:0:0:0:87.wav
426,192,80373,1,0,0:0:0:0:CP.wav
142,192,80554,1,0,0:0:0:0:0L.wav
426,192,80736,1,0,0:0:0:0:88.wav
483,192,80736,1,0,0:0:0:0:CQ.wav
28,192,80736,1,0,0:0:0:100:07.wav
312,192,80827,1,0,0:0:0:0:0B.wav
199,192,80918,1,0,0:0:0:0:09.wav
312,192,81009,1,0,0:0:0:0:0A.wav
142,192,81100,1,0,0:0:0:100:06.wav
28,192,81100,1,0,0:0:0:100:07.wav
426,192,81100,1,0,0:0:0:0:02.wav
369,192,81100,1,0,0:0:0:0:33.wav
369,192,81282,1,0,0:0:0:0:33.wav
85,192,81282,1,0,0:0:0:100:09.wav
199,192,81463,1,0,0:0:0:100:06.wav
369,192,81645,1,0,0:0:0:0:34.wav
85,192,81645,1,0,0:0:0:100:0A.wav
312,192,81827,1,0,0:0:0:100:06.wav
369,192,82009,1,0,0:0:0:0:35.wav
85,192,82009,1,0,0:0:0:100:0A.wav
483,192,82191,1,0,0:0:0:100:07.wav
142,192,82191,1,0,0:0:0:0:36.wav
426,192,82191,1,0,0:0:0:100:06.wav
142,192,82373,1,0,0:0:0:0:36.wav
28,192,82373,1,0,0:0:0:100:0A.wav
312,192,82554,1,0,0:0:0:100:06.wav
142,192,82736,1,0,0:0:0:0:37.wav
28,192,82736,1,0,0:0:0:100:0A.wav
256,192,82918,1,0,0:0:0:100:06.wav
142,192,83100,1,0,0:0:0:0:38.wav
28,192,83100,1,0,0:0:0:100:0A.wav
483,192,83282,1,0,0:0:0:100:07.wav
369,192,83282,1,0,0:0:0:0:39.wav
199,192,83282,1,0,0:0:0:100:06.wav
369,192,83463,1,0,0:0:0:0:39.wav
85,192,83463,1,0,0:0:0:100:0A.wav
256,192,83645,1,0,0:0:0:100:06.wav
369,192,83827,1,0,0:0:0:0:34.wav
85,192,83827,1,0,0:0:0:100:0A.wav
312,192,84009,1,0,0:0:0:100:06.wav
85,192,84191,1,0,0:0:0:100:0A.wav
369,192,84191,1,0,0:0:0:0:35.wav
426,192,84373,1,0,0:0:0:100:06.wav
483,192,84373,1,0,0:0:0:100:07.wav
142,192,84373,1,0,0:0:0:0:36.wav
28,192,84554,1,0,0:0:0:100:0A.wav
142,192,84554,1,0,0:0:0:0:36.wav
312,192,84736,1,0,0:0:0:100:06.wav
28,192,84918,1,0,0:0:0:100:0A.wav
142,192,84918,1,0,0:0:0:0:37.wav
256,192,85100,1,0,0:0:0:100:06.wav
142,192,85282,1,0,0:0:0:0:38.wav
199,192,85282,1,0,0:0:0:100:0A.wav
426,192,85463,1,0,0:0:0:100:06.wav
28,192,85463,1,0,0:0:0:100:07.wav
483,192,85463,1,0,0:0:0:0:3B.wav
369,192,85463,1,0,0:0:0:0:33.wav
85,192,85463,1,0,0:0:0:0:02.wav
199,192,85645,1,0,0:0:0:0:0A.wav
369,192,85645,1,0,0:0:0:0:33.wav
426,192,85827,1,0,0:0:0:0:3C.wav
256,192,85827,1,0,0:0:0:100:06.wav
483,192,86009,1,0,0:0:0:0:09.wav
369,192,86009,1,0,0:0:0:0:34.wav
312,192,86191,1,0,0:0:0:0:3D.wav
85,192,86191,1,0,0:0:0:100:06.wav
483,192,86373,1,0,0:0:0:0:09.wav
369,192,86373,1,0,0:0:0:0:35.wav
28,192,86554,1,0,0:0:0:100:07.wav
256,192,86554,1,0,0:0:0:0:3E.wav
142,192,86554,1,0,0:0:0:0:36.wav
312,192,86554,1,0,0:0:0:100:06.wav
426,192,86736,1,0,0:0:0:0:09.wav
199,192,86736,1,0,0:0:0:0:3F.wav
142,192,86736,1,0,0:0:0:0:36.wav
85,192,86918,1,0,0:0:0:0:3G.wav
369,192,86918,1,0,0:0:0:100:06.wav
426,192,87100,1,0,0:0:0:0:09.wav
142,192,87100,1,0,0:0:0:0:37.wav
28,192,87282,1,0,0:0:0:0:3H.wav
312,192,87282,1,0,0:0:0:100:06.wav
426,192,87463,1,0,0:0:0:0:09.wav
199,192,87463,1,0,0:0:0:0:3I.wav
142,192,87463,1,0,0:0:0:0:38.wav
256,192,87645,1,0,0:0:0:0:3J.wav
28,192,87645,1,0,0:0:0:100:07.wav
369,192,87645,1,0,0:0:0:0:33.wav
85,192,87645,1,0,0:0:0:100:06.wav
483,192,87827,1,0,0:0:0:0:09.wav
369,192,87827,1,0,0:0:0:0:33.wav
256,192,88009,1,0,0:0:0:0:3K.wav
142,192,88009,1,0,0:0:0:100:06.wav
312,192,88191,1,0,0:0:0:0:3L.wav
483,192,88191,1,0,0:0:0:0:09.wav
369,192,88191,1,0,0:0:0:0:34.wav
199,192,88373,1,0,0:0:0:0:3M.wav
85,192,88373,1,0,0:0:0:100:06.wav
483,192,88554,1,0,0:0:0:0:09.wav
369,192,88554,1,0,0:0:0:0:35.wav
28,192,88736,1,0,0:0:0:100:07.wav
256,192,88736,1,0,0:0:0:0:3N.wav
142,192,88736,1,0,0:0:0:0:36.wav
312,192,88736,1,0,0:0:0:100:06.wav
426,192,88918,1,0,0:0:0:0:09.wav
142,192,88918,1,0,0:0:0:0:36.wav
369,192,89100,1,0,0:0:0:0:3O.wav
312,192,89100,1,0,0:0:0:100:06.wav
426,192,89282,1,0,0:0:0:0:09.wav
142,192,89282,1,0,0:0:0:0:37.wav
256,192,89463,1,0,0:0:0:0:3P.wav
312,192,89463,1,0,0:0:0:100:06.wav
426,192,89645,1,0,0:0:0:0:09.wav
142,192,89645,1,0,0:0:0:0:38.wav
483,192,89827,1,0,0:0:0:100:07.wav
28,192,89827,1,0,0:0:0:0:02.wav
369,192,89827,1,0,0:0:0:0:33.wav
85,192,89827,1,0,0:0:0:100:06.wav
199,192,90009,1,0,0:0:0:100:09.wav
369,192,90009,1,0,0:0:0:0:33.wav
256,192,90191,1,0,0:0:0:100:06.wav
85,192,90373,1,0,0:0:0:100:0A.wav
369,192,90373,1,0,0:0:0:0:34.wav
312,192,90554,1,0,0:0:0:100:06.wav
85,192,90736,1,0,0:0:0:100:0A.wav
369,192,90736,1,0,0:0:0:0:35.wav
426,192,90918,1,0,0:0:0:100:06.wav
142,192,90918,1,0,0:0:0:0:36.wav
483,192,90918,1,0,0:0:0:100:07.wav
28,192,91100,1,0,0:0:0:100:0A.wav
142,192,91100,1,0,0:0:0:0:36.wav
312,192,91282,1,0,0:0:0:100:06.wav
28,192,91463,1,0,0:0:0:100:0A.wav
142,192,91463,1,0,0:0:0:0:37.wav
256,192,91645,1,0,0:0:0:100:06.wav
28,192,91827,1,0,0:0:0:100:0A.wav
142,192,91827,1,0,0:0:0:0:38.wav
199,192,92009,1,0,0:0:0:100:06.wav
369,192,92009,1,0,0:0:0:0:39.wav
483,192,92009,1,0,0:0:0:100:07.wav
85,192,92191,1,0,0:0:0:100:0A.wav
369,192,92191,1,0,0:0:0:0:39.wav
256,192,92373,1,0,0:0:0:100:06.wav
85,192,92554,1,0,0:0:0:100:0A.wav
369,192,92554,1,0,0:0:0:0:34.wav
312,192,92736,1,0,0:0:0:100:06.wav
369,192,92918,1,0,0:0:0:0:35.wav
85,192,92918,1,0,0:0:0:100:0A.wav
142,192,93100,1,0,0:0:0:0:36.wav
483,192,93100,1,0,0:0:0:100:07.wav
426,192,93100,1,0,0:0:0:100:06.wav
142,192,93282,1,0,0:0:0:0:36.wav
28,192,93282,1,0,0:0:0:100:0A.wav
312,192,93463,1,0,0:0:0:100:06.wav
142,192,93645,1,0,0:0:0:0:37.wav
28,192,93645,1,0,0:0:0:100:0A.wav
256,192,93827,1,0,0:0:0:100:06.wav
199,192,94009,1,0,0:0:0:100:0A.wav
142,192,94009,1,0,0:0:0:0:38.wav
483,192,94191,1,0,0:0:0:100:06.wav
85,192,94191,1,0,0:0:0:0:02.wav
28,192,94191,1,0,0:0:0:100:07.wav
369,192,94191,1,0,0:0:0:0:33.wav
426,192,94191,1,0,0:0:0:0:3R.wav
369,192,94373,1,0,0:0:0:0:33.wav
199,192,94373,1,0,0:0:0:100:0A.wav
142,192,94554,1,0,0:0:0:0:3S.wav
85,192,94554,1,0,0:0:0:100:06.wav
369,192,94736,1,0,0:0:0:0:34.wav
483,192,94736,1,0,0:0:0:0:09.wav
312,192,94918,1,0,0:0:0:0:3T.wav
199,192,94918,1,0,0:0:0:100:06.wav
369,192,95100,1,0,0:0:0:0:35.wav
483,192,95100,1,0,0:0:0:0:09.wav
28,192,95282,1,0,0:0:0:100:07.wav
142,192,95282,1,0,0:0:0:0:36.wav
256,192,95282,1,0,0:0:0:0:3U.wav
312,192,95282,1,0,0:0:0:100:06.wav
142,192,95463,1,0,0:0:0:0:36.wav
426,192,95463,1,0,0:0:0:0:09.wav
199,192,95463,1,0,0:0:0:0:3V.wav
28,192,95645,1,0,0:0:0:0:3W.wav
369,192,95645,1,0,0:0:0:100:06.wav
142,192,95827,1,0,0:0:0:0:37.wav
426,192,95827,1,0,0:0:0:0:09.wav
256,192,96009,1,0,0:0:0:100:06.wav
85,192,96009,1,0,0:0:0:0:3Y.wav
142,192,96191,1,0,0:0:0:0:38.wav
426,192,96191,1,0,0:0:0:0:09.wav
199,192,96191,1,0,0:0:0:0:3Z.wav
28,192,96373,1,0,0:0:0:100:07.wav
369,192,96373,1,0,0:0:0:0:33.wav
256,192,96373,1,0,0:0:0:0:40.wav
85,192,96373,1,0,0:0:0:100:06.wav
369,192,96554,1,0,0:0:0:0:33.wav
483,192,96554,1,0,0:0:0:0:09.wav
256,192,96736,1,0,0:0:0:0:41.wav
142,192,96736,1,0,0:0:0:100:06.wav
369,192,96918,1,0,0:0:0:0:34.wav
483,192,96918,1,0,0:0:0:0:09.wav
312,192,96918,1,0,0:0:0:0:42.wav
199,192,97100,1,0,0:0:0:0:43.wav
85,192,97100,1,0,0:0:0:100:06.wav
369,192,97282,1,0,0:0:0:0:35.wav
483,192,97282,1,0,0:0:0:0:09.wav
28,192,97463,5,0,0:0:0:100:07.wav
142,192,97463,1,0,0:0:0:0:36.wav
85,192,97463,1,0,0:0:0:0:3X.wav
256,192,97463,1,0,0:0:0:100:06.wav
142,192,97645,1,0,0:0:0:0:36.wav
426,192,97645,1,0,0:0:0:0:09.wav
312,192,97827,1,0,0:0:0:0:44.wav
369,192,97827,1,0,0:0:0:100:06.wav
142,192,98009,1,0,0:0:0:0:37.wav
426,192,98009,1,0,0:0:0:0:09.wav
85,192,98191,1,0,0:0:0:0:45.wav
256,192,98191,1,0,0:0:0:100:06.wav
142,192,98373,1,0,0:0:0:0:38.wav
426,192,98373,1,0,0:0:0:0:09.wav
28,192,98554,5,0,0:0:0:100:07.wav
256,192,98554,1,0,0:0:0:100:05.wav
369,192,98554,1,0,0:0:0:100:46.wav
426,192,98918,1,0,0:0:0:100:47.wav
312,192,99282,1,0,0:0:0:100:48.wav
199,192,99645,1,0,0:0:0:100:49.wav
369,192,100009,1,0,0:0:0:100:4A.wav
256,192,100373,1,0,0:0:0:100:4B.wav
142,192,100736,1,0,0:0:0:100:4C.wav
312,192,101100,1,0,0:0:0:100:4D.wav
199,192,101463,1,0,0:0:0:100:4E.wav
85,192,101827,1,0,0:0:0:100:4F.wav
256,192,102191,1,0,0:0:0:100:4G.wav
142,192,102554,1,0,0:0:0:100:4H.wav
28,192,102918,1,0,0:0:0:100:4I.wav
256,192,102918,1,0,0:0:0:100:DW.wav
85,192,103282,1,0,0:0:0:100:DX.wav
426,192,103282,1,0,0:0:0:100:47.wav
199,192,103463,1,0,0:0:0:100:DY.wav
256,192,103645,1,0,0:0:0:100:DZ.wav
312,192,103645,1,0,0:0:0:100:48.wav
369,192,103827,1,0,0:0:0:100:E0.wav
199,192,104009,1,0,0:0:0:100:49.wav
483,192,104009,1,0,0:0:0:100:E1.wav
369,192,104373,1,0,0:0:0:100:4A.wav
483,192,104373,1,0,0:0:0:100:E2.wav
256,192,104736,1,0,0:0:0:100:4B.wav
142,192,105100,1,0,0:0:0:100:4C.wav
28,192,105100,1,0,0:0:0:100:E3.wav
85,192,105463,1,0,0:0:0:100:E4.wav
312,192,105463,1,0,0:0:0:100:4D.wav
142,192,105645,1,0,0:0:0:100:E5.wav
256,192,105827,1,0,0:0:0:100:E6.wav
199,192,105827,1,0,0:0:0:100:4E.wav
369,192,106009,1,0,0:0:0:100:E7.wav
85,192,106191,1,0,0:0:0:100:4F.wav
426,192,106191,1,0,0:0:0:100:E8.wav
426,192,106554,1,0,0:0:0:100:E9.wav
256,192,106554,1,0,0:0:0:100:4G.wav
142,192,106918,1,0,0:0:0:100:4H.wav
28,192,107282,1,0,0:0:0:100:4I.wav
483,192,107282,1,0,0:0:0:100:8N.wav
426,192,107645,1,0,0:0:0:100:47.wav
369,192,107645,1,0,0:0:0:100:8O.wav
312,192,108009,1,0,0:0:0:100:48.wav
256,192,108009,1,0,0:0:0:100:8P.wav
369,192,108191,1,0,0:0:0:100:8Q.wav
199,192,108373,1,0,0:0:0:100:49.wav
426,192,108373,1,0,0:0:0:100:8R.wav
312,192,108736,1,0,0:0:0:100:8S.wav
369,192,108736,1,0,0:0:0:100:4A.wav
199,192,109100,1,0,0:0:0:100:8T.wav
256,192,109100,1,0,0:0:0:100:4B.wav
312,192,109282,1,0,0:0:0:100:8U.wav
142,192,109463,1,0,0:0:0:100:4C.wav
369,192,109463,1,0,0:0:0:100:8V.wav
312,192,109827,1,0,0:0:0:100:4D.wav
256,192,109827,1,0,0:0:0:100:8W.wav
199,192,110191,1,0,0:0:0:100:4E.wav
142,192,110191,1,0,0:0:0:100:8X.wav
256,192,110373,1,0,0:0:0:100:8Y.wav
85,192,110554,5,0,0:0:0:100:4F.wav
312,192,110554,1,0,0:0:0:100:8Z.wav
199,192,110918,1,0,0:0:0:100:90.wav
256,192,110918,1,0,0:0:0:100:4G.wav
85,192,111282,1,0,0:0:0:100:91.wav
142,192,111282,1,0,0:0:0:100:4H.wav
199,192,111463,1,0,0:0:0:100:92.wav
28,192,111645,1,0,0:0:0:100:4J.wav
369,192,111645,1,0,0:0:0:50:93.wav
256,192,111645,1,0,0:0:0:50:93.wav
