osu file format v14

[General]
AudioFilename: audiox1.2.mp3
AudioLeadIn: 0
PreviewTime: 67213
Countdown: 0
SampleSet: Normal
StackLeniency: 0.7
Mode: 3
LetterboxInBreaks: 0
SpecialStyle: 0
WidescreenStoryboard: 0

[Editor]
DistanceSpacing: 1.1
BeatDivisor: 2
GridSize: 4
TimelineZoom: 1.1

[Metadata]
Title:Une mage blanche
TitleUnicode:Une mage blanche
Artist:Dormir
ArtistUnicode:Dormir
Creator:cjunh4972
Version:Priere de guerison x1.2
Source:REFLEC BEAT limelight
Tags:jack chordjack cj french petit march TOMOSUKE Funaki 舟木智介 crimm くりむ bemani REFLEC BEAT plus colette DanceDanceRevolution A20 DDR video game
BeatmapID:1788656
BeatmapSetID:856084

[Difficulty]
HPDrainRate:8
CircleSize:4
OverallDifficulty:8
ApproachRate:5
SliderMultiplier:1.4
SliderTickRate:1

[Events]
//Background and Video events
0,0,"bg.jpg",0,0
//Break Periods
//Storyboard Layer 0 (Background)
//Storyboard Layer 1 (Fail)
//Storyboard Layer 2 (Pass)
//Storyboard Layer 3 (Foreground)
//Storyboard Layer 4 (Overlay)
//Storyboard Sound Samples

[TimingPoints]
1410,259.0674,4,1,0,100,1,0

[HitObjects]
320,192,374,5,0,0:0:0:0:
448,192,374,1,0,0:0:0:0:
320,192,503,1,0,0:0:0:0:
64,192,633,1,0,0:0:0:0:
192,192,633,1,0,0:0:0:0:
192,192,762,1,0,0:0:0:0:
320,192,892,1,0,0:0:0:0:
448,192,892,1,0,0:0:0:0:
448,192,1021,1,0,0:0:0:0:
64,192,1151,1,0,0:0:0:0:
192,192,1151,1,0,0:0:0:0:
64,192,1280,1,0,0:0:0:0:
192,192,1410,1,0,0:0:0:0:
320,192,1410,1,0,0:0:0:0:
448,192,1410,1,0,0:0:0:0:
192,192,1540,1,0,0:0:0:0:
448,192,1540,1,0,0:0:0:0:
64,192,1669,1,0,0:0:0:0:
192,192,1669,1,0,0:0:0:0:
320,192,1669,1,0,0:0:0:0:
64,192,1799,1,0,0:0:0:0:
192,192,1799,1,0,0:0:0:0:
192,192,1928,1,0,0:0:0:0:
320,192,1928,1,0,0:0:0:0:
448,192,1928,1,0,0:0:0:0:
320,192,2058,1,0,0:0:0:0:
192,192,2058,1,0,0:0:0:0:
64,192,2187,1,0,0:0:0:0:
192,192,2187,1,0,0:0:0:0:
320,192,2187,1,0,0:0:0:0:
64,192,2317,1,0,0:0:0:0:
448,192,2317,1,0,0:0:0:0:
320,192,2446,1,0,0:0:0:0:
192,192,2446,1,0,0:0:0:0:
448,192,2446,1,0,0:0:0:0:
192,192,2575,1,0,0:0:0:0:
448,192,2575,1,0,0:0:0:0:
320,192,2705,1,0,0:0:0:0:
64,192,2705,1,0,0:0:0:0:
448,192,2705,1,0,0:0:0:0:
64,192,2835,1,0,0:0:0:0:
320,192,2835,1,0,0:0:0:0:
192,192,2965,1,0,0:0:0:0:
320,192,2965,1,0,0:0:0:0:
448,192,2965,1,0,0:0:0:0:
64,192,3094,1,0,0:0:0:0:
448,192,3094,1,0,0:0:0:0:
64,192,3224,1,0,0:0:0:0:
448,192,3224,1,0,0:0:0:0:
64,192,3353,1,0,0:0:0:0:
448,192,3353,1,0,0:0:0:0:
320,192,3483,1,0,0:0:0:0:
448,192,3483,1,0,0:0:0:0:
64,192,3483,1,0,0:0:0:0:
64,192,3612,1,0,0:0:0:0:
320,192,3612,1,0,0:0:0:0:
192,192,3741,1,0,0:0:0:0:
320,192,3741,1,0,0:0:0:0:
448,192,3741,1,0,0:0:0:0:
448,192,3871,1,0,0:0:0:0:
320,192,3871,1,0,0:0:0:0:
320,192,4000,1,0,0:0:0:0:
64,192,4000,1,0,0:0:0:0:
192,192,4000,1,0,0:0:0:0:
192,192,4130,1,0,0:0:0:0:
448,192,4130,1,0,0:0:0:0:
320,192,4260,1,0,0:0:0:0:
448,192,4260,1,0,0:0:0:0:
64,192,4260,1,0,0:0:0:0:
64,192,4390,1,0,0:0:0:0:
320,192,4390,1,0,0:0:0:0:
192,192,4519,1,0,0:0:0:0:
320,192,4519,1,0,0:0:0:0:
448,192,4519,1,0,0:0:0:0:
64,192,4649,1,0,0:0:0:0:
320,192,4649,1,0,0:0:0:0:
192,192,4778,1,0,0:0:0:0:
448,192,4778,1,0,0:0:0:0:
64,192,4778,1,0,0:0:0:0:
448,192,4907,1,0,0:0:0:0:
320,192,4907,1,0,0:0:0:0:
64,192,5037,1,0,0:0:0:0:
320,192,5037,1,0,0:0:0:0:
448,192,5037,1,0,0:0:0:0:
192,192,5166,1,0,0:0:0:0:
448,192,5166,1,0,0:0:0:0:
192,192,5296,1,0,0:0:0:0:
448,192,5296,1,0,0:0:0:0:
192,192,5425,1,0,0:0:0:0:
448,192,5425,1,0,0:0:0:0:
448,192,5555,1,0,0:0:0:0:
320,192,5555,1,0,0:0:0:0:
192,192,5555,1,0,0:0:0:0:
64,192,5685,1,0,0:0:0:0:
320,192,5685,1,0,0:0:0:0:
192,192,5814,1,0,0:0:0:0:
320,192,5814,1,0,0:0:0:0:
448,192,5814,1,0,0:0:0:0:
192,192,5944,1,0,0:0:0:0:
64,192,5944,1,0,0:0:0:0:
64,192,6073,1,0,0:0:0:0:
320,192,6073,1,0,0:0:0:0:
448,192,6073,1,0,0:0:0:0:
448,192,6203,1,0,0:0:0:0:
192,192,6203,1,0,0:0:0:0:
320,192,6332,1,0,0:0:0:0:
448,192,6332,1,0,0:0:0:0:
64,192,6332,1,0,0:0:0:0:
192,192,6462,1,0,0:0:0:0:
320,192,6462,1,0,0:0:0:0:
64,192,6591,1,0,0:0:0:0:
192,192,6591,1,0,0:0:0:0:
448,192,6591,1,0,0:0:0:0:
448,192,6721,1,0,0:0:0:0:
64,192,6721,1,0,0:0:0:0:
192,192,6850,1,0,0:0:0:0:
320,192,6850,1,0,0:0:0:0:
448,192,6850,1,0,0:0:0:0:
320,192,6980,1,0,0:0:0:0:
64,192,6980,1,0,0:0:0:0:
192,192,7110,1,0,0:0:0:0:
448,192,7110,1,0,0:0:0:0:
64,192,7110,1,0,0:0:0:0:
320,192,7239,1,0,0:0:0:0:
192,192,7239,1,0,0:0:0:0:
320,192,7369,1,0,0:0:0:0:
192,192,7369,1,0,0:0:0:0:
320,192,7498,1,0,0:0:0:0:
192,192,7498,1,0,0:0:0:0:
64,192,7628,1,0,0:0:0:0:
320,192,7628,1,0,0:0:0:0:
192,192,7628,1,0,0:0:0:0:
64,192,7757,1,0,0:0:0:0:
320,192,7757,1,0,0:0:0:0:
320,192,7887,1,0,0:0:0:0:
448,192,7887,1,0,0:0:0:0:
64,192,7887,1,0,0:0:0:0:
448,192,8016,1,0,0:0:0:0:
192,192,8016,1,0,0:0:0:0:
320,192,8145,1,0,0:0:0:0:
448,192,8145,1,0,0:0:0:0:
64,192,8145,1,0,0:0:0:0:
192,192,8275,1,0,0:0:0:0:
320,192,8275,1,0,0:0:0:0:
64,192,8405,1,0,0:0:0:0:
192,192,8405,1,0,0:0:0:0:
320,192,8405,1,0,0:0:0:0:
64,192,8535,1,0,0:0:0:0:
320,192,8535,1,0,0:0:0:0:
64,192,8664,1,0,0:0:0:0:
192,192,8664,1,0,0:0:0:0:
320,192,8664,1,0,0:0:0:0:
448,192,8664,1,0,0:0:0:0:
448,192,8794,1,0,0:0:0:0:
320,192,8794,1,0,0:0:0:0:
64,192,8923,1,0,0:0:0:0:
192,192,8923,1,0,0:0:0:0:
320,192,8923,1,0,0:0:0:0:
448,192,8923,1,0,0:0:0:0:
64,192,9052,1,0,0:0:0:0:
192,192,9052,1,0,0:0:0:0:
64,192,9182,1,0,0:0:0:0:
192,192,9182,1,0,0:0:0:0:
320,192,9182,1,0,0:0:0:0:
448,192,9182,1,0,0:0:0:0:
64,192,9311,1,0,0:0:0:0:
448,192,9311,1,0,0:0:0:0:
192,192,9376,1,0,0:0:0:0:
320,192,9441,1,0,0:0:0:0:
448,192,9441,1,0,0:0:0:0:
64,192,9441,1,0,0:0:0:0:
64,192,9700,1,0,0:0:0:0:
192,192,9700,1,0,0:0:0:0:
320,192,9700,1,0,0:0:0:0:
448,192,9700,1,0,0:0:0:0:
64,192,9830,1,0,0:0:0:0:
320,192,9830,1,0,0:0:0:0:
192,192,9960,1,0,0:0:0:0:
448,192,9960,1,0,0:0:0:0:
320,192,9960,1,0,0:0:0:0:
192,192,10089,1,0,0:0:0:0:
448,192,10089,1,0,0:0:0:0:
64,192,10218,1,0,0:0:0:0:
192,192,10218,1,0,0:0:0:0:
448,192,10218,1,0,0:0:0:0:
320,192,10348,1,0,0:0:0:0:
64,192,10348,1,0,0:0:0:0:
64,192,10477,1,0,0:0:0:0:
448,192,10477,1,0,0:0:0:0:
320,192,10477,1,0,0:0:0:0:
320,192,10607,1,0,0:0:0:0:
448,192,10607,1,0,0:0:0:0:
64,192,10736,1,0,0:0:0:0:
192,192,10736,1,0,0:0:0:0:
320,192,10736,1,0,0:0:0:0:
192,192,10866,1,0,0:0:0:0:
448,192,10866,1,0,0:0:0:0:
64,192,10995,1,0,0:0:0:0:
320,192,10995,1,0,0:0:0:0:
448,192,10995,1,0,0:0:0:0:
192,192,11125,1,0,0:0:0:0:
320,192,11125,1,0,0:0:0:0:
448,192,11255,1,0,0:0:0:0:
192,192,11255,1,0,0:0:0:0:
64,192,11255,1,0,0:0:0:0:
192,192,11384,1,0,0:0:0:0:
320,192,11384,1,0,0:0:0:0:
448,192,11384,1,0,0:0:0:0:
448,192,11514,1,0,0:0:0:0:
192,192,11514,1,0,0:0:0:0:
64,192,11514,1,0,0:0:0:0:
448,192,11643,1,0,0:0:0:0:
64,192,11643,1,0,0:0:0:0:
64,192,11773,1,0,0:0:0:0:
192,192,11773,1,0,0:0:0:0:
320,192,11773,1,0,0:0:0:0:
320,192,11902,1,0,0:0:0:0:
448,192,11902,1,0,0:0:0:0:
320,192,12032,1,0,0:0:0:0:
64,192,12032,1,0,0:0:0:0:
192,192,12032,1,0,0:0:0:0:
448,192,12161,1,0,0:0:0:0:
64,192,12161,1,0,0:0:0:0:
64,192,12290,1,0,0:0:0:0:
320,192,12290,1,0,0:0:0:0:
448,192,12290,1,0,0:0:0:0:
320,192,12420,1,0,0:0:0:0:
192,192,12420,1,0,0:0:0:0:
192,192,12550,1,0,0:0:0:0:
64,192,12550,1,0,0:0:0:0:
448,192,12550,1,0,0:0:0:0:
320,192,12680,1,0,0:0:0:0:
448,192,12680,1,0,0:0:0:0:
448,192,12809,1,0,0:0:0:0:
192,192,12809,1,0,0:0:0:0:
64,192,12809,1,0,0:0:0:0:
64,192,12939,1,0,0:0:0:0:
320,192,12939,1,0,0:0:0:0:
64,192,13068,1,0,0:0:0:0:
320,192,13068,1,0,0:0:0:0:
448,192,13068,1,0,0:0:0:0:
192,192,13198,1,0,0:0:0:0:
448,192,13198,1,0,0:0:0:0:
320,192,13327,1,0,0:0:0:0:
448,192,13327,1,0,0:0:0:0:
192,192,13327,1,0,0:0:0:0:
320,192,13456,1,0,0:0:0:0:
64,192,13456,1,0,0:0:0:0:
64,192,13586,1,0,0:0:0:0:
320,192,13586,1,0,0:0:0:0:
448,192,13586,1,0,0:0:0:0:
192,192,13715,1,0,0:0:0:0:
448,192,13715,1,0,0:0:0:0:
320,192,13845,1,0,0:0:0:0:
448,192,13845,1,0,0:0:0:0:
64,192,13845,1,0,0:0:0:0:
64,192,13975,1,0,0:0:0:0:
192,192,13975,1,0,0:0:0:0:
192,192,14105,1,0,0:0:0:0:
320,192,14105,1,0,0:0:0:0:
448,192,14105,1,0,0:0:0:0:
320,192,14234,1,0,0:0:0:0:
64,192,14234,1,0,0:0:0:0:
192,192,14364,1,0,0:0:0:0:
320,192,14364,1,0,0:0:0:0:
64,192,14364,1,0,0:0:0:0:
320,192,14493,1,0,0:0:0:0:
448,192,14493,1,0,0:0:0:0:
320,192,14622,1,0,0:0:0:0:
448,192,14622,1,0,0:0:0:0:
64,192,14622,1,0,0:0:0:0:
192,192,14752,1,0,0:0:0:0:
448,192,14752,1,0,0:0:0:0:
320,192,14881,1,0,0:0:0:0:
448,192,14881,1,0,0:0:0:0:
64,192,14881,1,0,0:0:0:0:
64,192,15011,1,0,0:0:0:0:
192,192,15011,1,0,0:0:0:0:
64,192,15140,1,0,0:0:0:0:
320,192,15140,1,0,0:0:0:0:
448,192,15140,1,0,0:0:0:0:
320,192,15270,1,0,0:0:0:0:
192,192,15270,1,0,0:0:0:0:
64,192,15400,1,0,0:0:0:0:
192,192,15400,1,0,0:0:0:0:
320,192,15400,1,0,0:0:0:0:
192,192,15530,1,0,0:0:0:0:
448,192,15530,1,0,0:0:0:0:
320,192,15659,1,0,0:0:0:0:
64,192,15659,1,0,0:0:0:0:
192,192,15659,1,0,0:0:0:0:
64,192,15788,1,0,0:0:0:0:
320,192,15788,1,0,0:0:0:0:
192,192,15918,1,0,0:0:0:0:
448,192,15918,1,0,0:0:0:0:
64,192,15918,1,0,0:0:0:0:
448,192,16047,1,0,0:0:0:0:
192,192,16047,1,0,0:0:0:0:
320,192,16177,1,0,0:0:0:0:
192,192,16177,1,0,0:0:0:0:
64,192,16177,1,0,0:0:0:0:
64,192,16306,1,0,0:0:0:0:
320,192,16306,1,0,0:0:0:0:
192,192,16436,1,0,0:0:0:0:
320,192,16436,1,0,0:0:0:0:
448,192,16436,1,0,0:0:0:0:
448,192,16565,1,0,0:0:0:0:
64,192,16565,1,0,0:0:0:0:
64,192,16695,1,0,0:0:0:0:
192,192,16695,1,0,0:0:0:0:
320,192,16695,1,0,0:0:0:0:
192,192,16825,1,0,0:0:0:0:
320,192,16825,1,0,0:0:0:0:
192,192,16954,1,0,0:0:0:0:
448,192,16954,1,0,0:0:0:0:
64,192,16954,1,0,0:0:0:0:
64,192,17084,1,0,0:0:0:0:
320,192,17084,1,0,0:0:0:0:
320,192,17213,1,0,0:0:0:0:
192,192,17213,1,0,0:0:0:0:
448,192,17213,1,0,0:0:0:0:
448,192,17343,1,0,0:0:0:0:
320,192,17343,1,0,0:0:0:0:
320,192,17472,1,0,0:0:0:0:
192,192,17472,1,0,0:0:0:0:
64,192,17472,1,0,0:0:0:0:
64,192,17602,1,0,0:0:0:0:
320,192,17602,1,0,0:0:0:0:
192,192,17731,1,0,0:0:0:0:
320,192,17731,1,0,0:0:0:0:
448,192,17731,1,0,0:0:0:0:
64,192,17860,1,0,0:0:0:0:
320,192,17860,1,0,0:0:0:0:
64,192,17990,1,0,0:0:0:0:
320,192,17990,1,0,0:0:0:0:
448,192,17990,1,0,0:0:0:0:
192,192,18120,1,0,0:0:0:0:
320,192,18120,1,0,0:0:0:0:
192,192,18250,1,0,0:0:0:0:
448,192,18250,1,0,0:0:0:0:
64,192,18250,1,0,0:0:0:0:
448,192,18379,1,0,0:0:0:0:
64,192,18379,1,0,0:0:0:0:
192,192,18509,1,0,0:0:0:0:
320,192,18509,1,0,0:0:0:0:
448,192,18509,1,0,0:0:0:0:
320,192,18638,1,0,0:0:0:0:
448,192,18638,1,0,0:0:0:0:
64,192,18768,1,0,0:0:0:0:
192,192,18768,1,0,0:0:0:0:
320,192,18768,1,0,0:0:0:0:
320,192,18897,1,0,0:0:0:0:
448,192,18897,1,0,0:0:0:0:
192,192,19026,1,0,0:0:0:0:
448,192,19026,1,0,0:0:0:0:
64,192,19026,1,0,0:0:0:0:
64,192,19156,1,0,0:0:0:0:
320,192,19156,1,0,0:0:0:0:
192,192,19285,1,0,0:0:0:0:
320,192,19285,1,0,0:0:0:0:
448,192,19285,1,0,0:0:0:0:
320,192,19415,1,0,0:0:0:0:
64,192,19415,1,0,0:0:0:0:
64,192,19545,1,0,0:0:0:0:
320,192,19545,1,0,0:0:0:0:
448,192,19545,1,0,0:0:0:0:
192,192,19675,1,0,0:0:0:0:
448,192,19675,1,0,0:0:0:0:
320,192,19804,1,0,0:0:0:0:
64,192,19804,1,0,0:0:0:0:
192,192,19804,1,0,0:0:0:0:
192,192,19933,1,0,0:0:0:0:
448,192,19933,1,0,0:0:0:0:
320,192,20063,1,0,0:0:0:0:
448,192,20063,1,0,0:0:0:0:
64,192,20063,1,0,0:0:0:0:
64,192,20192,1,0,0:0:0:0:
192,192,20192,1,0,0:0:0:0:
192,192,20322,1,0,0:0:0:0:
320,192,20322,1,0,0:0:0:0:
448,192,20322,1,0,0:0:0:0:
320,192,20451,1,0,0:0:0:0:
448,192,20451,1,0,0:0:0:0:
64,192,20581,1,0,0:0:0:0:
192,192,20581,1,0,0:0:0:0:
448,192,20581,1,0,0:0:0:0:
448,192,20710,1,0,0:0:0:0:
64,192,20710,1,0,0:0:0:0:
192,192,20840,1,0,0:0:0:0:
64,192,20840,1,0,0:0:0:0:
320,192,20840,1,0,0:0:0:0:
192,192,20970,1,0,0:0:0:0:
448,192,20970,1,0,0:0:0:0:
320,192,21099,1,0,0:0:0:0:
192,192,21099,1,0,0:0:0:0:
64,192,21099,1,0,0:0:0:0:
64,192,21229,1,0,0:0:0:0:
320,192,21229,1,0,0:0:0:0:
192,192,21358,1,0,0:0:0:0:
320,192,21358,1,0,0:0:0:0:
448,192,21358,1,0,0:0:0:0:
448,192,21488,1,0,0:0:0:0:
64,192,21488,1,0,0:0:0:0:
64,192,21617,1,0,0:0:0:0:
448,192,21617,1,0,0:0:0:0:
320,192,21617,1,0,0:0:0:0:
192,192,21747,1,0,0:0:0:0:
448,192,21747,1,0,0:0:0:0:
64,192,21876,1,0,0:0:0:0:
320,192,21876,1,0,0:0:0:0:
192,192,21876,1,0,0:0:0:0:
64,192,22006,1,0,0:0:0:0:
320,192,22006,1,0,0:0:0:0:
192,192,22135,1,0,0:0:0:0:
320,192,22135,1,0,0:0:0:0:
448,192,22135,1,0,0:0:0:0:
448,192,22265,1,0,0:0:0:0:
192,192,22265,1,0,0:0:0:0:
64,192,22395,1,0,0:0:0:0:
192,192,22395,1,0,0:0:0:0:
448,192,22395,1,0,0:0:0:0:
64,192,22524,1,0,0:0:0:0:
320,192,22524,1,0,0:0:0:0:
192,192,22654,1,0,0:0:0:0:
320,192,22654,1,0,0:0:0:0:
448,192,22654,1,0,0:0:0:0:
448,192,22783,1,0,0:0:0:0:
64,192,22783,1,0,0:0:0:0:
320,192,22913,1,0,0:0:0:0:
64,192,22913,1,0,0:0:0:0:
192,192,22913,1,0,0:0:0:0:
64,192,23042,1,0,0:0:0:0:
448,192,23042,1,0,0:0:0:0:
448,192,23171,1,0,0:0:0:0:
192,192,23171,1,0,0:0:0:0:
320,192,23171,1,0,0:0:0:0:
192,192,23301,1,0,0:0:0:0:
64,192,23301,1,0,0:0:0:0:
192,192,23430,1,0,0:0:0:0:
448,192,23430,1,0,0:0:0:0:
64,192,23430,1,0,0:0:0:0:
64,192,23560,1,0,0:0:0:0:
320,192,23560,1,0,0:0:0:0:
192,192,23690,1,0,0:0:0:0:
320,192,23690,1,0,0:0:0:0:
448,192,23690,1,0,0:0:0:0:
64,192,23820,1,0,0:0:0:0:
320,192,23820,1,0,0:0:0:0:
192,192,23949,1,0,0:0:0:0:
448,192,23949,1,0,0:0:0:0:
64,192,23949,1,0,0:0:0:0:
448,192,24079,1,0,0:0:0:0:
64,192,24079,1,0,0:0:0:0:
192,192,24208,1,0,0:0:0:0:
320,192,24208,1,0,0:0:0:0:
448,192,24208,1,0,0:0:0:0:
320,192,24337,1,0,0:0:0:0:
64,192,24337,1,0,0:0:0:0:
192,192,24467,1,0,0:0:0:0:
320,192,24467,1,0,0:0:0:0:
64,192,24467,1,0,0:0:0:0:
192,192,24596,1,0,0:0:0:0:
64,192,24596,1,0,0:0:0:0:
448,192,24726,1,0,0:0:0:0:
320,192,24726,1,0,0:0:0:0:
192,192,24726,1,0,0:0:0:0:
448,192,24855,1,0,0:0:0:0:
192,192,24855,1,0,0:0:0:0:
448,192,24985,1,0,0:0:0:0:
192,192,24985,1,0,0:0:0:0:
64,192,24985,1,0,0:0:0:0:
64,192,25115,1,0,0:0:0:0:
320,192,25115,1,0,0:0:0:0:
320,192,25245,1,0,0:0:0:0:
64,192,25245,1,0,0:0:0:0:
192,192,25245,1,0,0:0:0:0:
448,192,25245,1,0,0:0:0:0:
320,192,25374,1,0,0:0:0:0:
192,192,25503,1,0,0:0:0:0:
64,192,25633,1,0,0:0:0:0:
192,192,25762,1,0,0:0:0:0:
320,192,25892,1,0,0:0:0:0:
448,192,26021,1,0,0:0:0:0:
64,192,26151,1,0,0:0:0:0:
448,192,26280,1,0,0:0:0:0:
320,192,26280,1,0,0:0:0:0:
64,192,26280,1,0,0:0:0:0:
192,192,26410,1,0,0:0:0:0:
320,192,26410,1,0,0:0:0:0:
448,192,26540,1,0,0:0:0:0:
192,192,26540,1,0,0:0:0:0:
64,192,26540,1,0,0:0:0:0:
320,192,26669,1,0,0:0:0:0:
64,192,26669,1,0,0:0:0:0:
320,192,26799,1,0,0:0:0:0:
448,192,26799,1,0,0:0:0:0:
64,192,26799,1,0,0:0:0:0:
192,192,26928,1,0,0:0:0:0:
448,192,26928,1,0,0:0:0:0:
448,192,27058,1,0,0:0:0:0:
192,192,27058,1,0,0:0:0:0:
64,192,27058,1,0,0:0:0:0:
448,192,27187,1,0,0:0:0:0:
64,192,27187,1,0,0:0:0:0:
448,192,27317,1,0,0:0:0:0:
320,192,27317,1,0,0:0:0:0:
192,192,27317,1,0,0:0:0:0:
192,192,27446,1,0,0:0:0:0:
320,192,27446,1,0,0:0:0:0:
64,192,27575,1,0,0:0:0:0:
448,192,27575,1,0,0:0:0:0:
192,192,27575,1,0,0:0:0:0:
64,192,27705,1,0,0:0:0:0:
448,192,27705,1,0,0:0:0:0:
192,192,27835,1,0,0:0:0:0:
320,192,27835,1,0,0:0:0:0:
64,192,27835,1,0,0:0:0:0:
448,192,27965,1,0,0:0:0:0:
192,192,27965,1,0,0:0:0:0:
448,192,28094,1,0,0:0:0:0:
192,192,28094,1,0,0:0:0:0:
64,192,28094,1,0,0:0:0:0:
320,192,28224,1,0,0:0:0:0:
64,192,28224,1,0,0:0:0:0:
192,192,28353,1,0,0:0:0:0:
320,192,28353,1,0,0:0:0:0:
64,192,28353,1,0,0:0:0:0:
192,192,28483,1,0,0:0:0:0:
448,192,28483,1,0,0:0:0:0:
448,192,28612,1,0,0:0:0:0:
320,192,28612,1,0,0:0:0:0:
64,192,28612,1,0,0:0:0:0:
64,192,28741,1,0,0:0:0:0:
192,192,28741,1,0,0:0:0:0:
192,192,28871,1,0,0:0:0:0:
320,192,28871,1,0,0:0:0:0:
448,192,28871,1,0,0:0:0:0:
320,192,29000,1,0,0:0:0:0:
448,192,29000,1,0,0:0:0:0:
320,192,29130,1,0,0:0:0:0:
192,192,29130,1,0,0:0:0:0:
448,192,29130,1,0,0:0:0:0:
64,192,29260,1,0,0:0:0:0:
320,192,29260,1,0,0:0:0:0:
64,192,29390,1,0,0:0:0:0:
320,192,29390,1,0,0:0:0:0:
448,192,29390,1,0,0:0:0:0:
448,192,29519,1,0,0:0:0:0:
320,192,29519,1,0,0:0:0:0:
448,192,29649,1,0,0:0:0:0:
192,192,29649,1,0,0:0:0:0:
64,192,29649,1,0,0:0:0:0:
64,192,29778,1,0,0:0:0:0:
320,192,29778,1,0,0:0:0:0:
192,192,29907,1,0,0:0:0:0:
320,192,29907,1,0,0:0:0:0:
448,192,29907,1,0,0:0:0:0:
320,192,30037,1,0,0:0:0:0:
64,192,30037,1,0,0:0:0:0:
64,192,30166,1,0,0:0:0:0:
320,192,30166,1,0,0:0:0:0:
448,192,30166,1,0,0:0:0:0:
448,192,30296,1,0,0:0:0:0:
192,192,30296,1,0,0:0:0:0:
448,192,30425,1,0,0:0:0:0:
64,192,30425,1,0,0:0:0:0:
192,192,30425,1,0,0:0:0:0:
64,192,30555,1,0,0:0:0:0:
192,192,30555,1,0,0:0:0:0:
192,192,30685,1,0,0:0:0:0:
320,192,30685,1,0,0:0:0:0:
64,192,30685,1,0,0:0:0:0:
64,192,30814,1,0,0:0:0:0:
320,192,30814,1,0,0:0:0:0:
192,192,30944,1,0,0:0:0:0:
320,192,30944,1,0,0:0:0:0:
448,192,30944,1,0,0:0:0:0:
448,192,31073,1,0,0:0:0:0:
192,192,31073,1,0,0:0:0:0:
320,192,31203,1,0,0:0:0:0:
192,192,31203,1,0,0:0:0:0:
64,192,31203,1,0,0:0:0:0:
64,192,31332,1,0,0:0:0:0:
320,192,31332,1,0,0:0:0:0:
64,192,31462,1,0,0:0:0:0:
320,192,31462,1,0,0:0:0:0:
448,192,31462,1,0,0:0:0:0:
448,192,31591,1,0,0:0:0:0:
192,192,31591,1,0,0:0:0:0:
192,192,31721,1,0,0:0:0:0:
64,192,31721,1,0,0:0:0:0:
448,192,31721,1,0,0:0:0:0:
64,192,31850,1,0,0:0:0:0:
320,192,31850,1,0,0:0:0:0:
192,192,31980,1,0,0:0:0:0:
448,192,31980,1,0,0:0:0:0:
64,192,31980,1,0,0:0:0:0:
192,192,32110,1,0,0:0:0:0:
320,192,32110,1,0,0:0:0:0:
320,192,32239,1,0,0:0:0:0:
64,192,32239,1,0,0:0:0:0:
448,192,32239,1,0,0:0:0:0:
192,192,32369,1,0,0:0:0:0:
320,192,32369,1,0,0:0:0:0:
192,192,32498,1,0,0:0:0:0:
320,192,32498,1,0,0:0:0:0:
448,192,32498,1,0,0:0:0:0:
320,192,32628,1,0,0:0:0:0:
64,192,32628,1,0,0:0:0:0:
64,192,32757,1,0,0:0:0:0:
192,192,32757,1,0,0:0:0:0:
320,192,32757,1,0,0:0:0:0:
192,192,32887,1,0,0:0:0:0:
448,192,32887,1,0,0:0:0:0:
320,192,33016,1,0,0:0:0:0:
448,192,33016,1,0,0:0:0:0:
64,192,33016,1,0,0:0:0:0:
64,192,33145,1,0,0:0:0:0:
192,192,33145,1,0,0:0:0:0:
320,192,33275,1,0,0:0:0:0:
448,192,33275,1,0,0:0:0:0:
64,192,33275,1,0,0:0:0:0:
192,192,33405,1,0,0:0:0:0:
448,192,33405,1,0,0:0:0:0:
64,192,33535,1,0,0:0:0:0:
192,192,33535,1,0,0:0:0:0:
320,192,33535,1,0,0:0:0:0:
448,192,33535,1,0,0:0:0:0:
64,192,33664,1,0,0:0:0:0:
320,192,33664,1,0,0:0:0:0:
64,192,33794,1,0,0:0:0:0:
192,192,33794,1,0,0:0:0:0:
320,192,33794,1,0,0:0:0:0:
448,192,33794,1,0,0:0:0:0:
192,192,33923,1,0,0:0:0:0:
448,192,33923,1,0,0:0:0:0:
64,192,34052,1,0,0:0:0:0:
448,192,34052,1,0,0:0:0:0:
320,192,34052,1,0,0:0:0:0:
64,192,34182,1,0,0:0:0:0:
192,192,34182,1,0,0:0:0:0:
448,192,34247,1,0,0:0:0:0:
320,192,34247,1,0,0:0:0:0:
64,192,34311,1,0,0:0:0:0:
192,192,34311,1,0,0:0:0:0:
320,192,34441,1,0,0:0:0:0:
448,192,34441,1,0,0:0:0:0:
64,192,34570,1,0,0:0:0:0:
192,192,34570,1,0,0:0:0:0:
448,192,34570,1,0,0:0:0:0:
320,192,34570,1,0,0:0:0:0:
64,192,34700,1,0,0:0:0:0:
320,192,34700,1,0,0:0:0:0:
64,192,34830,1,0,0:0:0:0:
320,192,34830,1,0,0:0:0:0:
448,192,34830,1,0,0:0:0:0:
320,192,34960,1,0,0:0:0:0:
192,192,34960,1,0,0:0:0:0:
192,192,35089,1,0,0:0:0:0:
448,192,35089,1,0,0:0:0:0:
64,192,35089,1,0,0:0:0:0:
64,192,35218,1,0,0:0:0:0:
448,192,35218,1,0,0:0:0:0:
448,192,35348,1,0,0:0:0:0:
320,192,35348,1,0,0:0:0:0:
192,192,35348,1,0,0:0:0:0:
320,192,35477,1,0,0:0:0:0:
64,192,35477,1,0,0:0:0:0:
64,192,35607,1,0,0:0:0:0:
192,192,35607,1,0,0:0:0:0:
448,192,35607,1,0,0:0:0:0:
192,192,35736,1,0,0:0:0:0:
448,192,35736,1,0,0:0:0:0:
64,192,35866,1,0,0:0:0:0:
192,192,35866,1,0,0:0:0:0:
320,192,35866,1,0,0:0:0:0:
64,192,35995,1,0,0:0:0:0:
448,192,35995,1,0,0:0:0:0:
64,192,36125,1,0,0:0:0:0:
320,192,36125,1,0,0:0:0:0:
448,192,36125,1,0,0:0:0:0:
64,192,36255,1,0,0:0:0:0:
192,192,36255,1,0,0:0:0:0:
448,192,36384,1,0,0:0:0:0:
192,192,36384,1,0,0:0:0:0:
320,192,36384,1,0,0:0:0:0:
320,192,36514,1,0,0:0:0:0:
64,192,36514,1,0,0:0:0:0:
192,192,36643,1,0,0:0:0:0:
64,192,36643,1,0,0:0:0:0:
448,192,36643,1,0,0:0:0:0:
320,192,36773,1,0,0:0:0:0:
64,192,36773,1,0,0:0:0:0:
192,192,36902,1,0,0:0:0:0:
320,192,36902,1,0,0:0:0:0:
448,192,36902,1,0,0:0:0:0:
448,192,37032,1,0,0:0:0:0:
64,192,37032,1,0,0:0:0:0:
192,192,37161,1,0,0:0:0:0:
64,192,37161,1,0,0:0:0:0:
448,192,37161,1,0,0:0:0:0:
320,192,37290,1,0,0:0:0:0:
448,192,37290,1,0,0:0:0:0:
192,192,37420,1,0,0:0:0:0:
320,192,37420,1,0,0:0:0:0:
448,192,37420,1,0,0:0:0:0:
320,192,37550,1,0,0:0:0:0:
64,192,37550,1,0,0:0:0:0:
64,192,37680,1,0,0:0:0:0:
192,192,37680,1,0,0:0:0:0:
448,192,37680,1,0,0:0:0:0:
64,192,37809,1,0,0:0:0:0:
320,192,37809,1,0,0:0:0:0:
192,192,37939,1,0,0:0:0:0:
320,192,37939,1,0,0:0:0:0:
448,192,37939,1,0,0:0:0:0:
448,192,38068,1,0,0:0:0:0:
192,192,38068,1,0,0:0:0:0:
64,192,38198,1,0,0:0:0:0:
320,192,38198,1,0,0:0:0:0:
448,192,38198,1,0,0:0:0:0:
320,192,38327,1,0,0:0:0:0:
64,192,38327,1,0,0:0:0:0:
192,192,38456,1,0,0:0:0:0:
320,192,38456,1,0,0:0:0:0:
448,192,38456,1,0,0:0:0:0:
320,192,38586,1,0,0:0:0:0:
192,192,38586,1,0,0:0:0:0:
64,192,38715,1,0,0:0:0:0:
320,192,38715,1,0,0:0:0:0:
448,192,38715,1,0,0:0:0:0:
192,192,38845,1,0,0:0:0:0:
448,192,38845,1,0,0:0:0:0:
448,192,38975,1,0,0:0:0:0:
64,192,38975,1,0,0:0:0:0:
320,192,38975,1,0,0:0:0:0:
448,192,39105,1,0,0:0:0:0:
192,192,39105,1,0,0:0:0:0:
320,192,39234,1,0,0:0:0:0:
64,192,39234,1,0,0:0:0:0:
192,192,39234,1,0,0:0:0:0:
64,192,39364,1,0,0:0:0:0:
320,192,39364,1,0,0:0:0:0:
192,192,39493,1,0,0:0:0:0:
320,192,39493,1,0,0:0:0:0:
448,192,39493,1,0,0:0:0:0:
320,192,39622,1,0,0:0:0:0:
64,192,39622,1,0,0:0:0:0:
64,192,39752,1,0,0:0:0:0:
320,192,39752,1,0,0:0:0:0:
448,192,39752,1,0,0:0:0:0:
64,192,39881,1,0,0:0:0:0:
192,192,39881,1,0,0:0:0:0:
192,192,40011,1,0,0:0:0:0:
448,192,40011,1,0,0:0:0:0:
320,192,40011,1,0,0:0:0:0:
320,192,40140,1,0,0:0:0:0:
448,192,40140,1,0,0:0:0:0:
320,192,40270,1,0,0:0:0:0:
192,192,40270,1,0,0:0:0:0:
64,192,40270,1,0,0:0:0:0:
64,192,40400,1,0,0:0:0:0:
320,192,40400,1,0,0:0:0:0:
192,192,40530,1,0,0:0:0:0:
320,192,40530,1,0,0:0:0:0:
448,192,40530,1,0,0:0:0:0:
64,192,40659,1,0,0:0:0:0:
448,192,40659,1,0,0:0:0:0:
64,192,40788,1,0,0:0:0:0:
320,192,40788,1,0,0:0:0:0:
192,192,40788,1,0,0:0:0:0:
448,192,40788,1,0,0:0:0:0:
64,192,40918,1,0,0:0:0:0:
192,192,40918,1,0,0:0:0:0:
320,192,40918,1,0,0:0:0:0:
448,192,40918,1,0,0:0:0:0:
64,192,41047,1,0,0:0:0:0:
192,192,41047,1,0,0:0:0:0:
320,192,41047,1,0,0:0:0:0:
448,192,41047,1,0,0:0:0:0:
64,192,41177,1,0,0:0:0:0:
192,192,41177,1,0,0:0:0:0:
320,192,41177,1,0,0:0:0:0:
448,192,41177,1,0,0:0:0:0:
64,192,41306,1,0,0:0:0:0:
192,192,41306,1,0,0:0:0:0:
320,192,41306,1,0,0:0:0:0:
448,192,41306,1,0,0:0:0:0:
448,192,41825,1,0,0:0:0:0:
320,192,41954,1,0,0:0:0:0:
192,192,42084,1,0,0:0:0:0:
64,192,42213,1,0,0:0:0:0:
192,192,42343,1,0,0:0:0:0:
320,192,42472,1,0,0:0:0:0:
448,192,42602,1,0,0:0:0:0:
320,192,42731,1,0,0:0:0:0:
64,192,42860,1,0,0:0:0:0:
192,192,42860,1,0,0:0:0:0:
448,192,42860,1,0,0:0:0:0:
64,192,42990,1,0,0:0:0:0:
320,192,42990,1,0,0:0:0:0:
64,192,43120,1,0,0:0:0:0:
192,192,43120,1,0,0:0:0:0:
320,192,43120,1,0,0:0:0:0:
192,192,43250,1,0,0:0:0:0:
448,192,43250,1,0,0:0:0:0:
448,192,43379,1,0,0:0:0:0:
320,192,43379,1,0,0:0:0:0:
192,192,43379,1,0,0:0:0:0:
64,192,43509,1,0,0:0:0:0:
320,192,43509,1,0,0:0:0:0:
64,192,43638,1,0,0:0:0:0:
320,192,43638,1,0,0:0:0:0:
448,192,43638,1,0,0:0:0:0:
320,192,43768,1,0,0:0:0:0:
192,192,43768,1,0,0:0:0:0:
64,192,43897,1,0,0:0:0:0:
192,192,43897,1,0,0:0:0:0:
448,192,43897,1,0,0:0:0:0:
448,192,44026,1,0,0:0:0:0:
320,192,44026,1,0,0:0:0:0:
320,192,44156,1,0,0:0:0:0:
64,192,44156,1,0,0:0:0:0:
448,192,44156,1,0,0:0:0:0:
320,192,44285,1,0,0:0:0:0:
64,192,44285,1,0,0:0:0:0:
64,192,44415,1,0,0:0:0:0:
192,192,44415,1,0,0:0:0:0:
320,192,44415,1,0,0:0:0:0:
192,192,44545,1,0,0:0:0:0:
448,192,44545,1,0,0:0:0:0:
192,192,44675,1,0,0:0:0:0:
448,192,44675,1,0,0:0:0:0:
448,192,44804,1,0,0:0:0:0:
192,192,44804,1,0,0:0:0:0:
192,192,44933,1,0,0:0:0:0:
320,192,44933,1,0,0:0:0:0:
448,192,44933,1,0,0:0:0:0:
320,192,45063,1,0,0:0:0:0:
64,192,45063,1,0,0:0:0:0:
64,192,45192,1,0,0:0:0:0:
320,192,45192,1,0,0:0:0:0:
448,192,45192,1,0,0:0:0:0:
64,192,45322,1,0,0:0:0:0:
192,192,45322,1,0,0:0:0:0:
192,192,45451,1,0,0:0:0:0:
320,192,45451,1,0,0:0:0:0:
448,192,45451,1,0,0:0:0:0:
320,192,45581,1,0,0:0:0:0:
448,192,45581,1,0,0:0:0:0:
448,192,45710,1,0,0:0:0:0:
64,192,45710,1,0,0:0:0:0:
192,192,45710,1,0,0:0:0:0:
64,192,45840,1,0,0:0:0:0:
320,192,45840,1,0,0:0:0:0:
192,192,45970,1,0,0:0:0:0:
320,192,45970,1,0,0:0:0:0:
64,192,45970,1,0,0:0:0:0:
192,192,46099,1,0,0:0:0:0:
320,192,46099,1,0,0:0:0:0:
64,192,46229,1,0,0:0:0:0:
448,192,46229,1,0,0:0:0:0:
192,192,46229,1,0,0:0:0:0:
64,192,46358,1,0,0:0:0:0:
192,192,46358,1,0,0:0:0:0:
192,192,46488,1,0,0:0:0:0:
64,192,46488,1,0,0:0:0:0:
448,192,46488,1,0,0:0:0:0:
320,192,46617,1,0,0:0:0:0:
448,192,46617,1,0,0:0:0:0:
320,192,46747,1,0,0:0:0:0:
448,192,46747,1,0,0:0:0:0:
320,192,46876,1,0,0:0:0:0:
448,192,46876,1,0,0:0:0:0:
448,192,47006,1,0,0:0:0:0:
64,192,47006,1,0,0:0:0:0:
320,192,47006,1,0,0:0:0:0:
192,192,47135,1,0,0:0:0:0:
64,192,47135,1,0,0:0:0:0:
64,192,47265,1,0,0:0:0:0:
320,192,47265,1,0,0:0:0:0:
448,192,47265,1,0,0:0:0:0:
448,192,47395,1,0,0:0:0:0:
192,192,47395,1,0,0:0:0:0:
320,192,47524,1,0,0:0:0:0:
448,192,47524,1,0,0:0:0:0:
64,192,47524,1,0,0:0:0:0:
64,192,47654,1,0,0:0:0:0:
192,192,47654,1,0,0:0:0:0:
192,192,47783,1,0,0:0:0:0:
320,192,47783,1,0,0:0:0:0:
448,192,47783,1,0,0:0:0:0:
320,192,47913,1,0,0:0:0:0:
64,192,47913,1,0,0:0:0:0:
64,192,48042,1,0,0:0:0:0:
192,192,48042,1,0,0:0:0:0:
320,192,48042,1,0,0:0:0:0:
192,192,48171,1,0,0:0:0:0:
448,192,48171,1,0,0:0:0:0:
192,192,48301,1,0,0:0:0:0:
320,192,48301,1,0,0:0:0:0:
448,192,48301,1,0,0:0:0:0:
320,192,48430,1,0,0:0:0:0:
448,192,48430,1,0,0:0:0:0:
320,192,48560,1,0,0:0:0:0:
448,192,48560,1,0,0:0:0:0:
64,192,48560,1,0,0:0:0:0:
64,192,48690,1,0,0:0:0:0:
192,192,48690,1,0,0:0:0:0:
64,192,48820,1,0,0:0:0:0:
192,192,48820,1,0,0:0:0:0:
64,192,48949,1,0,0:0:0:0:
192,192,48949,1,0,0:0:0:0:
64,192,49079,1,0,0:0:0:0:
320,192,49079,1,0,0:0:0:0:
192,192,49079,1,0,0:0:0:0:
448,192,49208,1,0,0:0:0:0:
320,192,49208,1,0,0:0:0:0:
64,192,49337,1,0,0:0:0:0:
192,192,49337,1,0,0:0:0:0:
320,192,49337,1,0,0:0:0:0:
64,192,49467,1,0,0:0:0:0:
448,192,49467,1,0,0:0:0:0:
192,192,49596,1,0,0:0:0:0:
320,192,49596,1,0,0:0:0:0:
448,192,49596,1,0,0:0:0:0:
320,192,49726,1,0,0:0:0:0:
64,192,49726,1,0,0:0:0:0:
64,192,49855,1,0,0:0:0:0:
320,192,49855,1,0,0:0:0:0:
448,192,49855,1,0,0:0:0:0:
192,192,49985,1,0,0:0:0:0:
448,192,49985,1,0,0:0:0:0:
64,192,50115,1,0,0:0:0:0:
192,192,50115,1,0,0:0:0:0:
320,192,50115,1,0,0:0:0:0:
448,192,50115,1,0,0:0:0:0:
320,192,50245,1,0,0:0:0:0:
448,192,50245,1,0,0:0:0:0:
64,192,50374,1,0,0:0:0:0:
448,192,50374,1,0,0:0:0:0:
192,192,50374,1,0,0:0:0:0:
320,192,50374,1,0,0:0:0:0:
64,192,50503,1,0,0:0:0:0:
192,192,50503,1,0,0:0:0:0:
64,192,50633,1,0,0:0:0:0:
192,192,50633,1,0,0:0:0:0:
320,192,50633,1,0,0:0:0:0:
448,192,50633,1,0,0:0:0:0:
320,192,50762,1,0,0:0:0:0:
448,192,50762,1,0,0:0:0:0:
192,192,50827,1,0,0:0:0:0:
64,192,50892,1,0,0:0:0:0:
320,192,50892,1,0,0:0:0:0:
448,192,50892,1,0,0:0:0:0:
64,192,51151,1,0,0:0:0:0:
448,192,51151,1,0,0:0:0:0:
192,192,51151,1,0,0:0:0:0:
320,192,51151,1,0,0:0:0:0:
64,192,51280,1,0,0:0:0:0:
320,192,51280,1,0,0:0:0:0:
64,192,51410,1,0,0:0:0:0:
320,192,51410,1,0,0:0:0:0:
448,192,51410,1,0,0:0:0:0:
448,192,51540,1,0,0:0:0:0:
192,192,51540,1,0,0:0:0:0:
320,192,51669,1,0,0:0:0:0:
192,192,51669,1,0,0:0:0:0:
64,192,51669,1,0,0:0:0:0:
192,192,51799,1,0,0:0:0:0:
320,192,51799,1,0,0:0:0:0:
320,192,51928,1,0,0:0:0:0:
448,192,51928,1,0,0:0:0:0:
64,192,51928,1,0,0:0:0:0:
448,192,52058,1,0,0:0:0:0:
192,192,52058,1,0,0:0:0:0:
320,192,52187,1,0,0:0:0:0:
192,192,52187,1,0,0:0:0:0:
64,192,52187,1,0,0:0:0:0:
64,192,52317,1,0,0:0:0:0:
320,192,52317,1,0,0:0:0:0:
64,192,52446,1,0,0:0:0:0:
320,192,52446,1,0,0:0:0:0:
448,192,52446,1,0,0:0:0:0:
448,192,52575,1,0,0:0:0:0:
192,192,52575,1,0,0:0:0:0:
320,192,52705,1,0,0:0:0:0:
192,192,52705,1,0,0:0:0:0:
64,192,52705,1,0,0:0:0:0:
192,192,52835,1,0,0:0:0:0:
320,192,52835,1,0,0:0:0:0:
320,192,52965,1,0,0:0:0:0:
448,192,52965,1,0,0:0:0:0:
64,192,52965,1,0,0:0:0:0:
448,192,53094,1,0,0:0:0:0:
192,192,53094,1,0,0:0:0:0:
64,192,53224,1,0,0:0:0:0:
320,192,53224,1,0,0:0:0:0:
448,192,53224,1,0,0:0:0:0:
192,192,53353,1,0,0:0:0:0:
448,192,53353,1,0,0:0:0:0:
320,192,53483,1,0,0:0:0:0:
64,192,53483,1,0,0:0:0:0:
192,192,53483,1,0,0:0:0:0:
64,192,53612,1,0,0:0:0:0:
448,192,53612,1,0,0:0:0:0:
192,192,53741,1,0,0:0:0:0:
320,192,53741,1,0,0:0:0:0:
448,192,53741,1,0,0:0:0:0:
448,192,53871,1,0,0:0:0:0:
64,192,53871,1,0,0:0:0:0:
64,192,54000,1,0,0:0:0:0:
320,192,54000,1,0,0:0:0:0:
192,192,54000,1,0,0:0:0:0:
192,192,54130,1,0,0:0:0:0:
448,192,54130,1,0,0:0:0:0:
448,192,54260,1,0,0:0:0:0:
320,192,54260,1,0,0:0:0:0:
64,192,54260,1,0,0:0:0:0:
320,192,54390,1,0,0:0:0:0:
64,192,54390,1,0,0:0:0:0:
64,192,54519,1,0,0:0:0:0:
192,192,54519,1,0,0:0:0:0:
448,192,54519,1,0,0:0:0:0:
192,192,54649,1,0,0:0:0:0:
320,192,54649,1,0,0:0:0:0:
64,192,54778,1,0,0:0:0:0:
320,192,54778,1,0,0:0:0:0:
448,192,54778,1,0,0:0:0:0:
64,192,54907,1,0,0:0:0:0:
192,192,54907,1,0,0:0:0:0:
192,192,55037,1,0,0:0:0:0:
320,192,55037,1,0,0:0:0:0:
448,192,55037,1,0,0:0:0:0:
320,192,55166,1,0,0:0:0:0:
64,192,55166,1,0,0:0:0:0:
64,192,55296,1,0,0:0:0:0:
320,192,55296,1,0,0:0:0:0:
448,192,55296,1,0,0:0:0:0:
448,192,55425,1,0,0:0:0:0:
320,192,55425,1,0,0:0:0:0:
448,192,55555,1,0,0:0:0:0:
192,192,55555,1,0,0:0:0:0:
64,192,55555,1,0,0:0:0:0:
64,192,55685,1,0,0:0:0:0:
320,192,55685,1,0,0:0:0:0:
192,192,55814,1,0,0:0:0:0:
320,192,55814,1,0,0:0:0:0:
448,192,55814,1,0,0:0:0:0:
64,192,55944,1,0,0:0:0:0:
320,192,55944,1,0,0:0:0:0:
192,192,56073,1,0,0:0:0:0:
320,192,56073,1,0,0:0:0:0:
448,192,56073,1,0,0:0:0:0:
448,192,56203,1,0,0:0:0:0:
192,192,56203,1,0,0:0:0:0:
192,192,56332,1,0,0:0:0:0:
320,192,56332,1,0,0:0:0:0:
64,192,56332,1,0,0:0:0:0:
64,192,56462,1,0,0:0:0:0:
192,192,56462,1,0,0:0:0:0:
64,192,56591,1,0,0:0:0:0:
320,192,56591,1,0,0:0:0:0:
448,192,56591,1,0,0:0:0:0:
64,192,56721,1,0,0:0:0:0:
320,192,56721,1,0,0:0:0:0:
192,192,56850,1,0,0:0:0:0:
320,192,56850,1,0,0:0:0:0:
448,192,56850,1,0,0:0:0:0:
448,192,56980,1,0,0:0:0:0:
192,192,56980,1,0,0:0:0:0:
192,192,57110,1,0,0:0:0:0:
320,192,57110,1,0,0:0:0:0:
448,192,57110,1,0,0:0:0:0:
64,192,57239,1,0,0:0:0:0:
320,192,57239,1,0,0:0:0:0:
64,192,57369,1,0,0:0:0:0:
448,192,57369,1,0,0:0:0:0:
320,192,57369,1,0,0:0:0:0:
64,192,57498,1,0,0:0:0:0:
192,192,57498,1,0,0:0:0:0:
192,192,57628,1,0,0:0:0:0:
448,192,57628,1,0,0:0:0:0:
320,192,57628,1,0,0:0:0:0:
64,192,57757,1,0,0:0:0:0:
320,192,57757,1,0,0:0:0:0:
64,192,57887,1,0,0:0:0:0:
448,192,57887,1,0,0:0:0:0:
320,192,57887,1,0,0:0:0:0:
192,192,58016,1,0,0:0:0:0:
320,192,58016,1,0,0:0:0:0:
64,192,58145,1,0,0:0:0:0:
448,192,58145,1,0,0:0:0:0:
192,192,58145,1,0,0:0:0:0:
64,192,58275,1,0,0:0:0:0:
192,192,58275,1,0,0:0:0:0:
192,192,58405,1,0,0:0:0:0:
448,192,58405,1,0,0:0:0:0:
320,192,58405,1,0,0:0:0:0:
64,192,58535,1,0,0:0:0:0:
320,192,58535,1,0,0:0:0:0:
448,192,58535,1,0,0:0:0:0:
64,192,58664,1,0,0:0:0:0:
192,192,58664,1,0,0:0:0:0:
320,192,58664,1,0,0:0:0:0:
192,192,58794,1,0,0:0:0:0:
448,192,58794,1,0,0:0:0:0:
320,192,58923,1,0,0:0:0:0:
192,192,58923,1,0,0:0:0:0:
64,192,58923,1,0,0:0:0:0:
64,192,59052,1,0,0:0:0:0:
320,192,59052,1,0,0:0:0:0:
192,192,59182,1,0,0:0:0:0:
320,192,59182,1,0,0:0:0:0:
448,192,59182,1,0,0:0:0:0:
64,192,59311,1,0,0:0:0:0:
320,192,59311,1,0,0:0:0:0:
448,192,59441,1,0,0:0:0:0:
320,192,59441,1,0,0:0:0:0:
64,192,59441,1,0,0:0:0:0:
64,192,59570,1,0,0:0:0:0:
192,192,59570,1,0,0:0:0:0:
192,192,59700,1,0,0:0:0:0:
320,192,59700,1,0,0:0:0:0:
448,192,59700,1,0,0:0:0:0:
320,192,59830,1,0,0:0:0:0:
64,192,59830,1,0,0:0:0:0:
64,192,59960,1,0,0:0:0:0:
320,192,59960,1,0,0:0:0:0:
448,192,59960,1,0,0:0:0:0:
192,192,60089,1,0,0:0:0:0:
320,192,60089,1,0,0:0:0:0:
64,192,60218,1,0,0:0:0:0:
192,192,60218,1,0,0:0:0:0:
448,192,60218,1,0,0:0:0:0:
192,192,60348,1,0,0:0:0:0:
448,192,60348,1,0,0:0:0:0:
320,192,60477,1,0,0:0:0:0:
192,192,60477,1,0,0:0:0:0:
64,192,60477,1,0,0:0:0:0:
320,192,60607,1,0,0:0:0:0:
448,192,60607,1,0,0:0:0:0:
320,192,60736,1,0,0:0:0:0:
192,192,60736,1,0,0:0:0:0:
448,192,60736,1,0,0:0:0:0:
64,192,60866,1,0,0:0:0:0:
320,192,60866,1,0,0:0:0:0:
64,192,60995,1,0,0:0:0:0:
192,192,60995,1,0,0:0:0:0:
448,192,60995,1,0,0:0:0:0:
192,192,61125,1,0,0:0:0:0:
64,192,61125,1,0,0:0:0:0:
192,192,61255,1,0,0:0:0:0:
320,192,61255,1,0,0:0:0:0:
448,192,61255,1,0,0:0:0:0:
320,192,61384,1,0,0:0:0:0:
64,192,61384,1,0,0:0:0:0:
192,192,61514,1,0,0:0:0:0:
320,192,61514,1,0,0:0:0:0:
448,192,61514,1,0,0:0:0:0:
192,192,61643,1,0,0:0:0:0:
448,192,61643,1,0,0:0:0:0:
320,192,61773,1,0,0:0:0:0:
192,192,61773,1,0,0:0:0:0:
64,192,61773,1,0,0:0:0:0:
64,192,61902,1,0,0:0:0:0:
448,192,61902,1,0,0:0:0:0:
320,192,62032,1,0,0:0:0:0:
192,192,62032,1,0,0:0:0:0:
448,192,62032,1,0,0:0:0:0:
448,192,62161,1,0,0:0:0:0:
64,192,62161,1,0,0:0:0:0:
320,192,62290,1,0,0:0:0:0:
192,192,62290,1,0,0:0:0:0:
64,192,62290,1,0,0:0:0:0:
192,192,62420,1,0,0:0:0:0:
448,192,62420,1,0,0:0:0:0:
320,192,62550,1,0,0:0:0:0:
192,192,62550,1,0,0:0:0:0:
64,192,62550,1,0,0:0:0:0:
64,192,62680,1,0,0:0:0:0:
448,192,62680,1,0,0:0:0:0:
192,192,62809,1,0,0:0:0:0:
320,192,62809,1,0,0:0:0:0:
448,192,62809,1,0,0:0:0:0:
192,192,62939,1,0,0:0:0:0:
320,192,62939,1,0,0:0:0:0:
192,192,63068,1,0,0:0:0:0:
64,192,63068,1,0,0:0:0:0:
448,192,63068,1,0,0:0:0:0:
320,192,63198,1,0,0:0:0:0:
448,192,63198,1,0,0:0:0:0:
320,192,63327,1,0,0:0:0:0:
448,192,63327,1,0,0:0:0:0:
64,192,63327,1,0,0:0:0:0:
64,192,63456,1,0,0:0:0:0:
320,192,63456,1,0,0:0:0:0:
192,192,63586,1,0,0:0:0:0:
448,192,63586,1,0,0:0:0:0:
64,192,63586,1,0,0:0:0:0:
64,192,63715,1,0,0:0:0:0:
320,192,63715,1,0,0:0:0:0:
192,192,63845,1,0,0:0:0:0:
448,192,63845,1,0,0:0:0:0:
320,192,63845,1,0,0:0:0:0:
192,192,63975,1,0,0:0:0:0:
320,192,63975,1,0,0:0:0:0:
192,192,64105,1,0,0:0:0:0:
64,192,64105,1,0,0:0:0:0:
448,192,64105,1,0,0:0:0:0:
64,192,64234,1,0,0:0:0:0:
320,192,64234,1,0,0:0:0:0:
192,192,64364,1,0,0:0:0:0:
320,192,64364,1,0,0:0:0:0:
448,192,64364,1,0,0:0:0:0:
64,192,64493,1,0,0:0:0:0:
320,192,64493,1,0,0:0:0:0:
64,192,64622,1,0,0:0:0:0:
320,192,64622,1,0,0:0:0:0:
448,192,64622,1,0,0:0:0:0:
64,192,64752,1,0,0:0:0:0:
192,192,64752,1,0,0:0:0:0:
192,192,64881,1,0,0:0:0:0:
320,192,64881,1,0,0:0:0:0:
448,192,64881,1,0,0:0:0:0:
320,192,65011,1,0,0:0:0:0:
448,192,65011,1,0,0:0:0:0:
320,192,65140,1,0,0:0:0:0:
192,192,65140,1,0,0:0:0:0:
64,192,65140,1,0,0:0:0:0:
64,192,65270,1,0,0:0:0:0:
192,192,65270,1,0,0:0:0:0:
192,192,65400,1,0,0:0:0:0:
448,192,65400,1,0,0:0:0:0:
320,192,65400,1,0,0:0:0:0:
192,192,65530,1,0,0:0:0:0:
320,192,65530,1,0,0:0:0:0:
64,192,65659,1,0,0:0:0:0:
320,192,65659,1,0,0:0:0:0:
448,192,65659,1,0,0:0:0:0:
320,192,65788,1,0,0:0:0:0:
64,192,65788,1,0,0:0:0:0:
64,192,65918,1,0,0:0:0:0:
320,192,65918,1,0,0:0:0:0:
448,192,65918,1,0,0:0:0:0:
192,192,66047,1,0,0:0:0:0:
448,192,66047,1,0,0:0:0:0:
320,192,66177,1,0,0:0:0:0:
192,192,66177,1,0,0:0:0:0:
64,192,66177,1,0,0:0:0:0:
64,192,66306,1,0,0:0:0:0:
320,192,66306,1,0,0:0:0:0:
192,192,66436,1,0,0:0:0:0:
320,192,66436,1,0,0:0:0:0:
448,192,66436,1,0,0:0:0:0:
64,192,66565,1,0,0:0:0:0:
448,192,66565,1,0,0:0:0:0:
320,192,66695,1,0,0:0:0:0:
448,192,66695,1,0,0:0:0:0:
64,192,66695,1,0,0:0:0:0:
192,192,66825,1,0,0:0:0:0:
320,192,66954,1,0,0:0:0:0:
448,192,67084,1,0,0:0:0:0:
320,192,67213,1,0,0:0:0:0:
192,192,67343,1,0,0:0:0:0:
64,192,67472,1,0,0:0:0:0:
192,192,67602,1,0,0:0:0:0:
320,192,67731,1,0,0:0:0:0:
448,192,67731,1,0,0:0:0:0:
64,192,67731,1,0,0:0:0:0:
192,192,67860,1,0,0:0:0:0:
448,192,67860,1,0,0:0:0:0:
64,192,67990,1,0,0:0:0:0:
192,192,67990,1,0,0:0:0:0:
320,192,67990,1,0,0:0:0:0:
64,192,68120,1,0,0:0:0:0:
320,192,68120,1,0,0:0:0:0:
192,192,68250,1,0,0:0:0:0:
320,192,68250,1,0,0:0:0:0:
448,192,68250,1,0,0:0:0:0:
448,192,68379,1,0,0:0:0:0:
320,192,68379,1,0,0:0:0:0:
320,192,68509,1,0,0:0:0:0:
64,192,68509,1,0,0:0:0:0:
192,192,68509,1,0,0:0:0:0:
64,192,68638,1,0,0:0:0:0:
192,192,68638,1,0,0:0:0:0:
64,192,68768,1,0,0:0:0:0:
320,192,68768,1,0,0:0:0:0:
448,192,68768,1,0,0:0:0:0:
192,192,68897,1,0,0:0:0:0:
320,192,68897,1,0,0:0:0:0:
64,192,69026,1,0,0:0:0:0:
320,192,69026,1,0,0:0:0:0:
448,192,69026,1,0,0:0:0:0:
448,192,69156,1,0,0:0:0:0:
192,192,69156,1,0,0:0:0:0:
320,192,69285,1,0,0:0:0:0:
448,192,69285,1,0,0:0:0:0:
64,192,69285,1,0,0:0:0:0:
64,192,69415,1,0,0:0:0:0:
192,192,69415,1,0,0:0:0:0:
192,192,69545,1,0,0:0:0:0:
448,192,69545,1,0,0:0:0:0:
320,192,69545,1,0,0:0:0:0:
64,192,69675,1,0,0:0:0:0:
320,192,69675,1,0,0:0:0:0:
64,192,69804,1,0,0:0:0:0:
192,192,69804,1,0,0:0:0:0:
448,192,69804,1,0,0:0:0:0:
64,192,69933,1,0,0:0:0:0:
320,192,69933,1,0,0:0:0:0:
64,192,70063,1,0,0:0:0:0:
320,192,70063,1,0,0:0:0:0:
448,192,70063,1,0,0:0:0:0:
320,192,70192,1,0,0:0:0:0:
448,192,70192,1,0,0:0:0:0:
320,192,70322,1,0,0:0:0:0:
64,192,70322,1,0,0:0:0:0:
448,192,70322,1,0,0:0:0:0:
192,192,70451,1,0,0:0:0:0:
320,192,70451,1,0,0:0:0:0:
64,192,70581,1,0,0:0:0:0:
320,192,70581,1,0,0:0:0:0:
448,192,70581,1,0,0:0:0:0:
64,192,70710,1,0,0:0:0:0:
192,192,70710,1,0,0:0:0:0:
192,192,70840,1,0,0:0:0:0:
448,192,70840,1,0,0:0:0:0:
320,192,70840,1,0,0:0:0:0:
64,192,70970,1,0,0:0:0:0:
448,192,70970,1,0,0:0:0:0:
448,192,71099,1,0,0:0:0:0:
64,192,71099,1,0,0:0:0:0:
192,192,71099,1,0,0:0:0:0:
64,192,71229,1,0,0:0:0:0:
320,192,71229,1,0,0:0:0:0:
192,192,71358,1,0,0:0:0:0:
320,192,71358,1,0,0:0:0:0:
448,192,71358,1,0,0:0:0:0:
64,192,71488,1,0,0:0:0:0:
320,192,71488,1,0,0:0:0:0:
64,192,71617,1,0,0:0:0:0:
192,192,71617,1,0,0:0:0:0:
320,192,71617,1,0,0:0:0:0:
64,192,71747,1,0,0:0:0:0:
448,192,71747,1,0,0:0:0:0:
192,192,71876,1,0,0:0:0:0:
320,192,71876,1,0,0:0:0:0:
448,192,71876,1,0,0:0:0:0:
320,192,72006,1,0,0:0:0:0:
64,192,72006,1,0,0:0:0:0:
192,192,72135,1,0,0:0:0:0:
320,192,72135,1,0,0:0:0:0:
448,192,72135,1,0,0:0:0:0:
64,192,72265,1,0,0:0:0:0:
192,192,72265,1,0,0:0:0:0:
192,192,72395,1,0,0:0:0:0:
320,192,72395,1,0,0:0:0:0:
448,192,72395,1,0,0:0:0:0:
448,192,72524,1,0,0:0:0:0:
64,192,72524,1,0,0:0:0:0:
192,192,72654,1,0,0:0:0:0:
320,192,72654,1,0,0:0:0:0:
448,192,72654,1,0,0:0:0:0:
320,192,72783,1,0,0:0:0:0:
64,192,72783,1,0,0:0:0:0:
64,192,72913,1,0,0:0:0:0:
320,192,72913,1,0,0:0:0:0:
192,192,72913,1,0,0:0:0:0:
192,192,73042,1,0,0:0:0:0:
320,192,73042,1,0,0:0:0:0:
192,192,73171,1,0,0:0:0:0:
448,192,73171,1,0,0:0:0:0:
64,192,73171,1,0,0:0:0:0:
64,192,73301,1,0,0:0:0:0:
320,192,73301,1,0,0:0:0:0:
192,192,73430,1,0,0:0:0:0:
448,192,73430,1,0,0:0:0:0:
320,192,73430,1,0,0:0:0:0:
64,192,73560,1,0,0:0:0:0:
320,192,73560,1,0,0:0:0:0:
192,192,73690,1,0,0:0:0:0:
320,192,73690,1,0,0:0:0:0:
448,192,73690,1,0,0:0:0:0:
320,192,73820,1,0,0:0:0:0:
64,192,73820,1,0,0:0:0:0:
64,192,73949,1,0,0:0:0:0:
448,192,73949,1,0,0:0:0:0:
320,192,73949,1,0,0:0:0:0:
192,192,74079,1,0,0:0:0:0:
448,192,74079,1,0,0:0:0:0:
448,192,74208,1,0,0:0:0:0:
192,192,74208,1,0,0:0:0:0:
64,192,74208,1,0,0:0:0:0:
64,192,74337,1,0,0:0:0:0:
192,192,74337,1,0,0:0:0:0:
64,192,74467,1,0,0:0:0:0:
320,192,74467,1,0,0:0:0:0:
448,192,74467,1,0,0:0:0:0:
192,192,74596,1,0,0:0:0:0:
448,192,74596,1,0,0:0:0:0:
320,192,74726,1,0,0:0:0:0:
64,192,74726,1,0,0:0:0:0:
448,192,74726,1,0,0:0:0:0:
64,192,74855,1,0,0:0:0:0:
192,192,74855,1,0,0:0:0:0:
192,192,74985,1,0,0:0:0:0:
320,192,74985,1,0,0:0:0:0:
448,192,74985,1,0,0:0:0:0:
64,192,75115,1,0,0:0:0:0:
320,192,75115,1,0,0:0:0:0:
64,192,75245,1,0,0:0:0:0:
448,192,75245,1,0,0:0:0:0:
320,192,75245,1,0,0:0:0:0:
192,192,75374,1,0,0:0:0:0:
320,192,75374,1,0,0:0:0:0:
448,192,75503,1,0,0:0:0:0:
192,192,75503,1,0,0:0:0:0:
64,192,75503,1,0,0:0:0:0:
64,192,75633,1,0,0:0:0:0:
192,192,75633,1,0,0:0:0:0:
192,192,75762,1,0,0:0:0:0:
320,192,75762,1,0,0:0:0:0:
448,192,75762,1,0,0:0:0:0:
64,192,75892,1,0,0:0:0:0:
448,192,75892,1,0,0:0:0:0:
64,192,76021,1,0,0:0:0:0:
192,192,76021,1,0,0:0:0:0:
320,192,76021,1,0,0:0:0:0:
192,192,76151,1,0,0:0:0:0:
64,192,76151,1,0,0:0:0:0:
192,192,76280,1,0,0:0:0:0:
448,192,76280,1,0,0:0:0:0:
320,192,76280,1,0,0:0:0:0:
64,192,76410,1,0,0:0:0:0:
320,192,76410,1,0,0:0:0:0:
448,192,76540,1,0,0:0:0:0:
192,192,76540,1,0,0:0:0:0:
64,192,76540,1,0,0:0:0:0:
192,192,76669,1,0,0:0:0:0:
448,192,76669,1,0,0:0:0:0:
320,192,76799,1,0,0:0:0:0:
448,192,76799,1,0,0:0:0:0:
64,192,76799,1,0,0:0:0:0:
64,192,76928,1,0,0:0:0:0:
192,192,76928,1,0,0:0:0:0:
192,192,77058,1,0,0:0:0:0:
320,192,77058,1,0,0:0:0:0:
448,192,77058,1,0,0:0:0:0:
64,192,77187,1,0,0:0:0:0:
192,192,77187,1,0,0:0:0:0:
64,192,77317,1,0,0:0:0:0:
320,192,77317,1,0,0:0:0:0:
448,192,77317,1,0,0:0:0:0:
320,192,77446,1,0,0:0:0:0:
448,192,77446,1,0,0:0:0:0:
320,192,77575,1,0,0:0:0:0:
64,192,77575,1,0,0:0:0:0:
192,192,77575,1,0,0:0:0:0:
64,192,77705,1,0,0:0:0:0:
320,192,77705,1,0,0:0:0:0:
192,192,77835,1,0,0:0:0:0:
320,192,77835,1,0,0:0:0:0:
448,192,77835,1,0,0:0:0:0:
192,192,77965,1,0,0:0:0:0:
320,192,77965,1,0,0:0:0:0:
448,192,78094,1,0,0:0:0:0:
64,192,78094,1,0,0:0:0:0:
192,192,78094,1,0,0:0:0:0:
320,192,78224,1,0,0:0:0:0:
448,192,78224,1,0,0:0:0:0:
320,192,78353,1,0,0:0:0:0:
448,192,78353,1,0,0:0:0:0:
64,192,78353,1,0,0:0:0:0:
192,192,78483,1,0,0:0:0:0:
448,192,78483,1,0,0:0:0:0:
320,192,78612,1,0,0:0:0:0:
192,192,78612,1,0,0:0:0:0:
64,192,78612,1,0,0:0:0:0:
64,192,78741,1,0,0:0:0:0:
192,192,78741,1,0,0:0:0:0:
192,192,78871,1,0,0:0:0:0:
320,192,78871,1,0,0:0:0:0:
448,192,78871,1,0,0:0:0:0:
64,192,79000,1,0,0:0:0:0:
320,192,79000,1,0,0:0:0:0:
64,192,79130,1,0,0:0:0:0:
320,192,79130,1,0,0:0:0:0:
448,192,79130,1,0,0:0:0:0:
320,192,79260,1,0,0:0:0:0:
192,192,79260,1,0,0:0:0:0:
192,192,79390,1,0,0:0:0:0:
320,192,79390,1,0,0:0:0:0:
448,192,79390,1,0,0:0:0:0:
64,192,79519,1,0,0:0:0:0:
320,192,79519,1,0,0:0:0:0:
192,192,79649,1,0,0:0:0:0:
320,192,79649,1,0,0:0:0:0:
448,192,79649,1,0,0:0:0:0:
448,192,79778,1,0,0:0:0:0:
192,192,79778,1,0,0:0:0:0:
320,192,79907,1,0,0:0:0:0:
192,192,79907,1,0,0:0:0:0:
64,192,79907,1,0,0:0:0:0:
448,192,80037,1,0,0:0:0:0:
320,192,80037,1,0,0:0:0:0:
192,192,80166,1,0,0:0:0:0:
64,192,80166,1,0,0:0:0:0:
320,192,80166,1,0,0:0:0:0:
64,192,80296,1,0,0:0:0:0:
192,192,80296,1,0,0:0:0:0:
64,192,80425,1,0,0:0:0:0:
320,192,80425,1,0,0:0:0:0:
448,192,80425,1,0,0:0:0:0:
192,192,80555,1,0,0:0:0:0:
448,192,80555,1,0,0:0:0:0:
192,192,80685,1,0,0:0:0:0:
320,192,80685,1,0,0:0:0:0:
64,192,80685,1,0,0:0:0:0:
64,192,80814,1,0,0:0:0:0:
448,192,80814,1,0,0:0:0:0:
320,192,80944,1,0,0:0:0:0:
64,192,80944,1,0,0:0:0:0:
192,192,80944,1,0,0:0:0:0:
192,192,81073,1,0,0:0:0:0:
320,192,81073,1,0,0:0:0:0:
64,192,81203,1,0,0:0:0:0:
320,192,81203,1,0,0:0:0:0:
448,192,81203,1,0,0:0:0:0:
192,192,81332,1,0,0:0:0:0:
448,192,81332,1,0,0:0:0:0:
320,192,81462,1,0,0:0:0:0:
192,192,81462,1,0,0:0:0:0:
448,192,81462,1,0,0:0:0:0:
320,192,81591,1,0,0:0:0:0:
64,192,81591,1,0,0:0:0:0:
64,192,81721,1,0,0:0:0:0:
192,192,81721,1,0,0:0:0:0:
320,192,81721,1,0,0:0:0:0:
192,192,81850,1,0,0:0:0:0:
448,192,81850,1,0,0:0:0:0:
64,192,81980,1,0,0:0:0:0:
192,192,81980,1,0,0:0:0:0:
320,192,81980,1,0,0:0:0:0:
64,192,82110,1,0,0:0:0:0:
320,192,82110,1,0,0:0:0:0:
192,192,82239,1,0,0:0:0:0:
448,192,82239,1,0,0:0:0:0:
320,192,82239,1,0,0:0:0:0:
64,192,82369,1,0,0:0:0:0:
320,192,82369,1,0,0:0:0:0:
64,192,82498,1,0,0:0:0:0:
320,192,82498,1,0,0:0:0:0:
448,192,82498,1,0,0:0:0:0:
448,192,82628,1,0,0:0:0:0:
192,192,82628,1,0,0:0:0:0:
320,192,82757,1,0,0:0:0:0:
64,192,82757,1,0,0:0:0:0:
192,192,82757,1,0,0:0:0:0:
192,192,82887,1,0,0:0:0:0:
448,192,82887,1,0,0:0:0:0:
320,192,83016,1,0,0:0:0:0:
448,192,83016,1,0,0:0:0:0:
64,192,83016,1,0,0:0:0:0:
448,192,83145,1,0,0:0:0:0:
64,192,83145,1,0,0:0:0:0:
448,192,83275,1,0,0:0:0:0:
320,192,83275,1,0,0:0:0:0:
64,192,83275,1,0,0:0:0:0:
192,192,83405,1,0,0:0:0:0:
320,192,83405,1,0,0:0:0:0:
192,192,83535,1,0,0:0:0:0:
320,192,83535,1,0,0:0:0:0:
448,192,83535,1,0,0:0:0:0:
64,192,83664,1,0,0:0:0:0:
320,192,83664,1,0,0:0:0:0:
64,192,83794,1,0,0:0:0:0:
192,192,83794,1,0,0:0:0:0:
320,192,83794,1,0,0:0:0:0:
64,192,83923,1,0,0:0:0:0:
448,192,83923,1,0,0:0:0:0:
192,192,84052,1,0,0:0:0:0:
320,192,84052,1,0,0:0:0:0:
448,192,84052,1,0,0:0:0:0:
320,192,84182,1,0,0:0:0:0:
64,192,84182,1,0,0:0:0:0:
64,192,84311,1,0,0:0:0:0:
192,192,84311,1,0,0:0:0:0:
448,192,84311,1,0,0:0:0:0:
320,192,84441,1,0,0:0:0:0:
448,192,84441,1,0,0:0:0:0:
448,192,84570,1,0,0:0:0:0:
192,192,84570,1,0,0:0:0:0:
64,192,84570,1,0,0:0:0:0:
64,192,84700,1,0,0:0:0:0:
320,192,84700,1,0,0:0:0:0:
192,192,84830,1,0,0:0:0:0:
448,192,84830,1,0,0:0:0:0:
320,192,84830,1,0,0:0:0:0:
64,192,84960,1,0,0:0:0:0:
448,192,84960,1,0,0:0:0:0:
320,192,85089,1,0,0:0:0:0:
192,192,85089,1,0,0:0:0:0:
64,192,85089,1,0,0:0:0:0:
64,192,85218,1,0,0:0:0:0:
192,192,85218,1,0,0:0:0:0:
192,192,85348,1,0,0:0:0:0:
320,192,85348,1,0,0:0:0:0:
448,192,85348,1,0,0:0:0:0:
320,192,85477,1,0,0:0:0:0:
64,192,85477,1,0,0:0:0:0:
448,192,85607,1,0,0:0:0:0:
192,192,85607,1,0,0:0:0:0:
64,192,85607,1,0,0:0:0:0:
320,192,85736,1,0,0:0:0:0:
64,192,85736,1,0,0:0:0:0:
320,192,85866,1,0,0:0:0:0:
192,192,85866,1,0,0:0:0:0:
448,192,85866,1,0,0:0:0:0:
320,192,85995,1,0,0:0:0:0:
192,192,85995,1,0,0:0:0:0:
64,192,86125,1,0,0:0:0:0:
192,192,86125,1,0,0:0:0:0:
320,192,86125,1,0,0:0:0:0:
448,192,86255,1,0,0:0:0:0:
64,192,86255,1,0,0:0:0:0:
192,192,86384,1,0,0:0:0:0:
320,192,86384,1,0,0:0:0:0:
448,192,86384,1,0,0:0:0:0:
320,192,86514,1,0,0:0:0:0:
64,192,86514,1,0,0:0:0:0:
192,192,86643,1,0,0:0:0:0:
320,192,86643,1,0,0:0:0:0:
448,192,86643,1,0,0:0:0:0:
448,192,86773,1,0,0:0:0:0:
64,192,86773,1,0,0:0:0:0:
320,192,86902,1,0,0:0:0:0:
192,192,86902,1,0,0:0:0:0:
64,192,86902,1,0,0:0:0:0:
320,192,87032,1,0,0:0:0:0:
448,192,87032,1,0,0:0:0:0:
448,192,87161,1,0,0:0:0:0:
320,192,87161,1,0,0:0:0:0:
192,192,87161,1,0,0:0:0:0:
64,192,87290,1,0,0:0:0:0:
320,192,87290,1,0,0:0:0:0:
192,192,87420,1,0,0:0:0:0:
448,192,87420,1,0,0:0:0:0:
64,192,87420,1,0,0:0:0:0:
192,192,87550,1,0,0:0:0:0:
320,192,87550,1,0,0:0:0:0:
64,192,87680,1,0,0:0:0:0:
320,192,87680,1,0,0:0:0:0:
448,192,87680,1,0,0:0:0:0:
64,192,87809,1,0,0:0:0:0:
192,192,87809,1,0,0:0:0:0:
192,192,87939,1,0,0:0:0:0:
320,192,87939,1,0,0:0:0:0:
448,192,87939,1,0,0:0:0:0:
448,192,88068,1,0,0:0:0:0:
320,192,88068,1,0,0:0:0:0:
192,192,88198,1,0,0:0:0:0:
64,192,88198,1,0,0:0:0:0:
448,192,88198,1,0,0:0:0:0:
64,192,88327,1,0,0:0:0:0:
320,192,88327,1,0,0:0:0:0:
192,192,88456,1,0,0:0:0:0:
320,192,88456,1,0,0:0:0:0:
448,192,88456,1,0,0:0:0:0:
320,192,88586,1,0,0:0:0:0:
64,192,88586,1,0,0:0:0:0:
64,192,88715,1,0,0:0:0:0:
320,192,88715,1,0,0:0:0:0:
448,192,88715,1,0,0:0:0:0:
192,192,88845,1,0,0:0:0:0:
320,192,88845,1,0,0:0:0:0:
192,192,88975,1,0,0:0:0:0:
320,192,88975,1,0,0:0:0:0:
448,192,88975,1,0,0:0:0:0:
320,192,89105,1,0,0:0:0:0:
64,192,89105,1,0,0:0:0:0:
64,192,89234,1,0,0:0:0:0:
192,192,89234,1,0,0:0:0:0:
320,192,89234,1,0,0:0:0:0:
64,192,89364,1,0,0:0:0:0:
320,192,89364,1,0,0:0:0:0:
192,192,89493,1,0,0:0:0:0:
320,192,89493,1,0,0:0:0:0:
448,192,89493,1,0,0:0:0:0:
320,192,89622,1,0,0:0:0:0:
64,192,89622,1,0,0:0:0:0:
64,192,89752,1,0,0:0:0:0:
192,192,89752,1,0,0:0:0:0:
320,192,89752,1,0,0:0:0:0:
192,192,89881,1,0,0:0:0:0:
448,192,89881,1,0,0:0:0:0:
320,192,90011,1,0,0:0:0:0:
64,192,90011,1,0,0:0:0:0:
192,192,90011,1,0,0:0:0:0:
192,192,90140,1,0,0:0:0:0:
64,192,90140,1,0,0:0:0:0:
192,192,90270,1,0,0:0:0:0:
320,192,90270,1,0,0:0:0:0:
448,192,90270,1,0,0:0:0:0:
192,192,90400,1,0,0:0:0:0:
64,192,90400,1,0,0:0:0:0:
448,192,90530,1,0,0:0:0:0:
64,192,90530,1,0,0:0:0:0:
192,192,90530,1,0,0:0:0:0:
320,192,90530,1,0,0:0:0:0:
448,192,90659,1,0,0:0:0:0:
64,192,90659,1,0,0:0:0:0:
192,192,90659,1,0,0:0:0:0:
320,192,90659,1,0,0:0:0:0:
448,192,90788,1,0,0:0:0:0:
64,192,90788,1,0,0:0:0:0:
192,192,90788,1,0,0:0:0:0:
320,192,90788,1,0,0:0:0:0:
64,192,90918,1,0,0:0:0:0:
448,192,90918,1,0,0:0:0:0:
192,192,90918,1,0,0:0:0:0:
320,192,90918,1,0,0:0:0:0:
448,192,91047,1,0,0:0:0:0:
64,192,91047,1,0,0:0:0:0:
192,192,91047,1,0,0:0:0:0:
320,192,91047,1,0,0:0:0:0:
