osu file format v14

[General]
AudioFilename: 10.Dormir - Une mage blanche.mp3
AudioLeadIn: 2000
PreviewTime: 80561
Countdown: 0
SampleSet: Soft
StackLeniency: 0.7
Mode: 0
LetterboxInBreaks: 0
WidescreenStoryboard: 0

[Editor]
Bookmarks: 354,11545,31442,51338,61286,81183,101079
DistanceSpacing: 1
BeatDivisor: 4
GridSize: 4
TimelineZoom: 2.3

[Metadata]
Title:Une mage blanche
TitleUnicode:Une mage blanche
Artist:Dormir
ArtistUnicode:Dormir
Creator:Realazy
Version:Hyper
Source:REFLEC BEAT limelight
Tags:Kyuukai yaleufeu Arrival Linada plus french petit march colette groovin'!! bemani tomosuke crimm konami white funaki 舟木智介 くりむ Upper
BeatmapID:1123180
BeatmapSetID:529729

[Difficulty]
HPDrainRate:5
CircleSize:4
OverallDifficulty:8
ApproachRate:9
SliderMultiplier:1.92
SliderTickRate:2

[Events]
//Background and Video events
0,0,"wallpaper-1497711.jpg",0,0
//Break Periods
2,51538,60686
//Storyboard Layer 0 (Background)
//Storyboard Layer 1 (Fail)
//Storyboard Layer 2 (Pass)
//Storyboard Layer 3 (Foreground)
//Storyboard Sound Samples

[TimingPoints]
354,310.880829015544,4,2,1,55,1,0
3773,-100,4,2,1,65,0,0
4162,-100,4,2,1,55,0,0
6260,-100,4,2,1,65,0,0
6649,-100,4,2,1,55,0,0
8745,-100,4,2,1,40,0,0
9211,-100,4,2,1,55,0,0
9991,-100,4,2,1,70,0,0
11545,-100,4,2,1,55,0,0
11623,-100,4,2,1,55,0,0
21183,-100,4,2,1,65,0,0
21571,-100,4,2,1,55,0,0
30198,-100,4,2,1,50,0,0
31442,-100,4,2,1,55,0,0
35949,-100,4,2,1,60,0,0
36416,-100,4,2,1,55,0,0
40146,-100,4,2,1,65,0,0
40923,-100,4,2,1,55,0,0
48851,-100,4,2,1,75,0,0
50094,-100,4,2,1,55,0,0
51338,-100,4,2,1,65,0,0
61286,-100,4,2,1,55,0,0
79939,-100,4,2,1,55,0,0
81183,-100,4,2,1,65,0,1
89887,-100,4,2,1,75,0,1
91208,-100,4,2,1,65,0,1
101079,-100,4,2,1,55,0,0
108540,-100,4,2,1,80,0,0

[Colours]
Combo1 : 241,135,175
Combo2 : 191,77,253
Combo3 : 150,126,175
Combo4 : 95,65,216

[HitObjects]
100,260,354,6,0,B|168:192,1,96,8|0,0:0|0:0,0:0:0:0:
168,328,664,2,0,B|236:260,1,96,8|0,0:0|0:0,0:0:0:0:
240,80,975,1,0,1:0:0:0:
240,176,1131,1,2,3:2:0:0:
328,224,1286,1,2,3:2:0:0:
328,128,1442,1,2,3:2:0:0:
264,264,1597,6,0,B|291:306|354:322|400:277|403:226,1,192,4|10,1:2|0:0,0:0:0:0:
368,136,2063,1,0,0:0:0:0:
280,96,2219,1,2,0:0:0:0:
192,132,2374,2,0,P|176:176|191:220,1,96,0|8,0:0|0:2,0:0:0:0:
108,269,2685,2,0,P|81:179|109:88,1,192,2|2,0:0|0:0,0:0:0:0:
193,42,3151,1,8,0:0:0:0:
288,48,3307,2,0,B|332:24|380:48|380:48|428:72|472:48,1,192,2|2,0:0|0:0,0:0:0:0:
496,192,3773,1,12,0:0:0:0:
352,216,3929,1,2,0:0:0:0:
376,360,4084,6,0,B|296:284|200:344,1,192,12|10,0:0|0:0,0:0:0:0:
118,211,4550,2,0,B|168:208|204:248,1,96,0|2,0:0|0:0,0:0:0:0:
128,312,4861,1,0,0:0:0:0:
37,279,5017,1,8,0:0:0:0:
32,182,5172,2,0,P|102:122|188:153,1,192,2|2,0:0|0:0,0:0:0:0:
204,248,5638,1,8,0:0:0:0:
208,344,5794,2,0,B|260:341|301:305|312:251|284:200,1,192,2|2,0:0|0:0,0:0:0:0:
399,131,6260,1,12,0:0:0:0:
469,244,6416,1,2,0:0:0:0:
355,312,6571,6,0,B|252:151,1,192,12|10,0:0|0:0,0:0:0:0:
152,152,7037,1,0,0:0:0:0:
64,192,7193,2,0,B|44:236|44:236|64:280,1,96,2|0,0:0|0:0,0:0:0:0:
124,352,7504,1,8,0:0:0:0:
220,336,7659,2,0,B|208:280|256:252|256:252|304:224|292:168,1,192,2|2,0:0|0:0,0:0:0:0:
256,72,8126,1,8,0:0:0:0:
218,173,8281,2,0,B|208:224|256:252|256:252|304:280|292:336,1,192,2|2,0:0|0:0,0:0:0:0:
376,376,8747,1,10,0:0:0:0:
408,288,8903,1,2,0:0:0:0:
468,364,9058,5,2,0:0:0:0:
500,276,9214,1,0,0:0:0:0:
440,200,9369,2,0,B|343:190,1,96,10|0,0:0|0:0,0:0:0:0:
404,112,9680,1,2,0:0:0:0:
456,32,9835,2,0,B|359:22,1,96,0|8,0:0|0:0,0:0:0:0:
304,104,10146,6,0,B|288:152|231:182|176:152|160:104,1,192,8|0,0:0|0:0,0:0:0:0:
119,15,10613,2,0,P|85:48|63:91,1,96,8|0,0:0|0:0,0:0:0:0:
28,180,10923,1,8,3:0:0:0:
32,276,11079,1,0,0:0:0:0:
32,276,11157,1,0,0:0:0:0:
32,276,11234,1,8,0:0:0:0:
220,304,11545,6,0,B|296:248|408:264,1,192,4|10,0:0|0:0,0:0:0:0:
480,204,12012,1,2,0:0:0:0:
424,128,12167,2,0,P|325:122|272:51,1,192,0|10,0:0|0:0,0:0:0:0:
173,72,12633,2,0,P|129:90|100:128,1,96,0|2,0:0|0:0,0:0:0:0:
188,168,12944,1,0,0:0:0:0:
244,244,13100,1,10,0:0:0:0:
320,304,13255,2,0,P|428:284|456:216,1,192,0|0,0:0|0:0,0:0:0:0:
468,120,13721,1,10,0:0:0:0:
396,56,13877,6,0,P|345:127|364:224,1,192,2|2,0:0|0:0,0:0:0:0:
412,309,14343,2,0,P|447:276|464:232,2,96,10|0|0,0:0|0:0|0:0,0:0:0:0:
308,304,14809,1,0,0:0:0:0:
264,216,14965,1,10,0:0:0:0:
192,152,15120,1,0,0:0:0:0:
100,124,15276,2,0,L|100:26,2,96,2|0|10,0:0|0:0|0:0,0:0:0:0:
16,172,15742,2,0,P|28:272|104:308,1,192,0|0,0:0|0:0,0:0:0:0:
200,304,16208,1,8,0:0:0:0:
198,111,16519,6,0,L|386:67,1,192,8|10,0:0|0:0,0:0:0:0:
481,72,16986,1,0,0:0:0:0:
502,165,17141,1,0,0:0:0:0:
427,225,17297,1,0,0:0:0:0:
336,268,17452,2,0,P|288:288|244:280,1,96,10|0,0:0|0:0,0:0:0:0:
280,192,17763,1,2,0:0:0:0:
184,208,17918,2,0,B|132:256|142:336|208:368,1,192
111,380,18385,2,0,P|87:338|78:291,1,96,0|2,0:0|0:0,0:0:0:0:
76,195,18695,1,10,0:0:0:0:
119,109,18851,6,0,P|199:117|267:37,1,192
352,80,19317,1,10,0:0:0:0:
388,168,19473,1,0,0:0:0:0:
384,264,19628,2,0,P|332:258|292:239,1,96,2|0,0:0|0:0,0:0:0:0:
210,189,19939,1,10,0:0:0:0:
292,136,20094,2,0,P|268:95|276:49,1,96,2|0,0:0|0:0,0:0:0:0:
184,20,20405,2,0,P|160:60|116:76,1,96,0|8,0:0|0:0,0:0:0:0:
108,172,20716,2,0,P|178:172|232:217,1,144,2|0,0:0|0:0,0:0:0:0:
241,239,21027,2,0,P|272:279|316:288,1,96,2|8,0:0|0:0,0:0:0:0:
325,192,21338,1,0,0:0:0:0:
409,147,21493,6,0,B|469:332,1,192,8|10,0:0|0:0,0:0:0:0:
378,366,21960,1,0,0:0:0:0:
291,323,22115,2,0,L|262:232,1,96,0|0,1:0|0:0,0:0:0:0:
174,215,22426,2,0,L|145:124,1,96,10|0,0:0|0:0,0:0:0:0:
167,29,22737,1,2,0:0:0:0:
167,29,22892,2,0,L|68:28,1,96,0|10,0:0|0:0,0:0:0:0:
4,108,23203,2,0,P|40:136|48:188,1,96
40,280,23514,1,0,0:0:0:0:
135,294,23670,2,0,P|177:306|227:289,1,96,10|0,0:0|0:0,0:0:0:0:
320,268,23980,6,0,P|368:268|408:300,1,96,2|0,0:0|0:0,0:0:0:0:
511,158,24291,2,0,P|483:196|484:244,1,96,10|0,0:0|0:0,0:0:0:0:
400,76,24602,1,2,0:0:0:0:
320,20,24758,1,0,0:0:0:0:
224,20,24913,1,10,0:0:0:0:
136,60,25069,1,0,0:0:0:0:
100,148,25224,2,0,P|79:189|34:201,2,96,2|0|8,0:0|0:0|0:0,0:0:0:0:
136,60,25690,2,0,P|196:124|172:220,1,192,0|2,0:0|0:0,0:0:0:0:
108,288,26157,1,10,0:0:0:0:
294,112,26467,6,0,P|350:48|450:60,1,192,8|10,0:0|0:0,0:0:0:0:
390,140,26934,1,0,0:0:0:0:
486,168,27089,2,0,P|430:232|330:220,1,192,2|10,0:0|0:0,0:0:0:0:
255,281,27556,1,0,0:0:0:0:
159,284,27711,1,8,0:0:0:0:
92,216,27866,2,0,L|204:60,1,192,2|0,0:0|0:0,0:0:0:0:
296,36,28333,1,0,0:0:0:0:
388,64,28488,2,0,L|424:156,1,96,2|10,0:0|0:0,0:0:0:0:
368,232,28799,1,0,0:0:0:0:
372,328,28955,6,0,P|292:292|280:192,1,192,8|10,0:0|0:0,0:0:0:0:
368,232,29421,1,0,0:0:0:0:
278,197,29576,2,0,L|90:245,1,192,10|10,0:0|0:0,0:0:0:0:
52,156,30043,1,0,0:0:0:0:
120,88,30198,5,2,0:0:0:0:
141,73,30276,1,0,0:0:0:0:
164,68,30353,1,0,0:0:0:0:
188,67,30431,1,0,0:0:0:0:
211,71,30509,2,0,P|237:73|263:68,3,48,10|0|0|0,0:0|0:0|0:0|0:0,0:0:0:0:
216,144,30820,2,0,P|256:148|280:160,2,64,2|2|2,0:0|0:0|0:0,0:0:0:0:
232,216,31131,2,0,P|264:272|324:284,1,128,10|2,0:0|0:0,0:0:0:0:
392,263,31442,6,0,P|446:188|421:99,1,192,8|10,0:0|0:0,0:0:0:0:
340,47,31908,1,0,0:0:0:0:
244,39,32063,2,0,L|52:57,1,192,8|10,0:0|0:0,0:0:0:0:
88,147,32530,6,0,P|100:195|88:239,1,96,8|0,0:0|0:0,0:0:0:0:
182,257,32841,2,0,P|170:305|182:349,1,96,8|0,0:0|0:0,0:0:0:0:
267,305,33151,1,0,0:0:0:0:
362,300,33307,2,0,P|350:254|317:221,1,96,8|8,0:0|0:0,0:0:0:0:
340,76,33618,2,0,P|352:121|385:155,1,96,10|8,0:0|0:0,0:0:0:0:
481,165,33929,6,0,P|443:252|360:300,1,192,8|10,0:0|0:0,0:0:0:0:
268,319,34395,1,0,0:0:0:0:
183,364,34550,2,0,B|159:320|183:272|183:272|207:224|183:179,1,192,8|10,0:0|0:0,0:0:0:0:
150,88,35017,2,0,L|243:71,1,96,8|0,0:0|0:0,0:0:0:0:
310,1,35328,2,0,P|336:40|340:89,1,96,8|10,0:0|0:0,0:0:0:0:
282,161,35638,5,2,0:0:0:0:
244,72,35794,1,0,0:0:0:0:
148,56,35949,1,8,0:0:0:0:
64,104,36105,2,0,P|88:148|88:192,1,96,8|0,0:0|0:0,0:0:0:0:
162,244,36416,6,0,B|290:267|360:172|256:68|151:174|221:267|349:244,1,384,8|8,0:0|0:0,0:0:0:0:
444,224,37193,1,2,0:0:0:0:
460,128,37348,1,8,0:0:0:0:
388,64,37504,2,0,P|292:84|200:64,1,192,2|2,0:0|0:0,0:0:0:0:
128,128,37970,2,0,P|148:224|128:316,1,192,10|10,0:0|0:0,0:0:0:0:
311,313,38436,6,0,L|220:344,1,96,2|10,0:0|0:0,0:0:0:0:
380,248,38747,2,0,B|357:119|244:86|182:219|317:282|381:184|316:72,1,384,2|0,0:0|0:0,0:0:0:0:
220,80,39524,1,10,0:0:0:0:
152,148,39680,1,0,0:0:0:0:
92,224,39835,2,0,P|84:276|96:324,1,96,10|0,0:0|0:0,0:0:0:0:
180,272,40146,6,0,L|264:320,1,96,8|0,0:0|0:0,0:0:0:0:
352,284,40457,2,0,L|268:236,2,96,8|0|8,0:0|0:0|0:0,0:0:0:0:
312,172,40923,1,8,0:0:0:0:
337,186,41079,1,0,0:0:0:0:
363,200,41234,1,0,0:0:0:0:
388,213,41390,6,0,P|432:288|368:360,1,192,12|8,0:0|0:0,0:0:0:0:
276,340,41856,1,0,0:0:0:0:
125,191,42012,1,12,0:0:0:0:
125,191,42167,2,0,P|133:237|161:276,1,96,0|10,0:0|0:0,0:0:0:0:
180,88,42478,2,0,P|272:100|356:52,1,192,12|0,0:0|0:0,0:0:0:0:
441,207,42944,2,0,P|418:166|424:120,2,96,10|0|0,0:0|0:0|0:0,0:0:0:0:
348,180,43410,1,2,0:3:0:0:
344,184,43566,1,10,0:0:0:0:
340,188,43721,1,0,0:0:0:0:
336,192,43877,6,0,L|168:288,1,192,12|10,0:0|0:0,0:0:0:0:
74,302,44343,1,0,0:0:0:0:
125,121,44499,1,12,0:0:0:0:
125,121,44654,2,0,L|19:105,1,96,0|10,0:0|0:0,0:0:0:0:
256,140,44965,2,0,P|332:92|416:140,1,192,12|0,0:0|0:0,0:0:0:0:
336,180,45431,2,0,P|368:214|414:225,2,96,10|0|0,0:0|0:0|0:0,0:0:0:0:
188,152,45898,1,2,0:3:0:0:
160,164,46053,1,10,0:0:0:0:
132,160,46208,1,0,0:0:0:0:
108,144,46364,6,0,P|72:224|123:311,1,192,12|10,0:0|0:0,0:0:0:0:
208,348,46830,1,0,0:0:0:0:
391,267,46986,1,12,0:0:0:0:
391,267,47141,2,0,P|341:280|301:261,1,96,2|10,0:0|0:0,0:0:0:0:
368,152,47452,2,0,P|272:120|240:40,1,192,12|0,0:0|0:0,0:0:0:0:
152,84,47918,1,10,0:0:0:0:
103,170,48074,2,0,P|112:284|173:324,1,192,0|2,0:0|0:3,0:0:0:0:
189,326,48540,1,10,0:0:0:0:
208,327,48695,1,0,0:0:0:0:
227,327,48851,5,12,0:0:0:0:
375,218,49006,1,8,0:0:0:0:
190,218,49162,1,8,0:0:0:0:
339,327,49317,1,8,0:0:0:0:
283,151,49473,1,8,0:0:0:0:
375,218,50094,5,2,0:0:0:0:
387,190,50172,1,0,0:0:0:0:
391,162,50250,1,0,0:0:0:0:
387,134,50328,1,0,0:0:0:0:
379,106,50405,2,0,L|359:58,3,48,0|0|0|0,0:0|0:0|0:0|0:0,0:0:0:0:
311,6,50716,5,2,0:0:0:0:
291,26,50794,1,0,0:0:0:0:
267,42,50872,1,0,0:0:0:0:
239,50,50949,1,0,0:0:0:0:
210,49,51027,2,0,L|162:41,3,48
95,22,51338,5,14,0:0:0:0:
260,80,61286,6,0,P|332:136|336:232,1,192,4|10,0:0|0:0,0:0:0:0:
428,260,61752,2,0,L|483:181,1,96,2|0,0:0|0:0,0:0:0:0:
512,288,62063,2,0,L|456:366,1,96,0|10,0:0|0:0,0:0:0:0:
368,328,62374,2,0,P|276:312|216:380,1,192,2|0,0:0|0:0,0:0:0:0:
120,384,62841,1,10,0:0:0:0:
136,288,62996,2,0,L|216:112,2,192,2|0|0,0:0|0:0|0:0,0:0:0:0:
84,208,63773,6,0,P|32:132|80:52,1,192,8|10,0:0|0:0,0:0:0:0:
172,40,64240,1,2,0:0:0:0:
256,88,64395,1,0,0:0:0:0:
352,88,64550,1,0,0:0:0:0:
436,136,64706,1,10,0:0:0:0:
436,232,64861,2,0,P|388:320|304:332,1,192,0|0,0:0|0:0,0:0:0:0:
256,248,65328,1,10,0:0:0:0:
207,332,65483,2,0,P|116:315|76:231,1,192,0|0,0:0|0:0,0:0:0:0:
140,160,65949,1,10,0:0:0:0:
236,148,66105,1,0,0:0:0:0:
332,132,66260,6,0,L|432:296,1,192,8|10,0:0|0:0,0:0:0:0:
336,308,66727,2,0,B|351:361|392:381,2,96,2|0|0,0:0|0:0|0:0,0:0:0:0:
265,241,67193,1,10,0:0:0:0:
170,228,67348,2,0,P|126:148|174:64,1,192,2|0,0:0|0:0,0:0:0:0:
226,148,67815,1,10,0:0:0:0:
170,228,67970,2,0,L|18:344,2,192,2|2|0,0:0|0:0|0:0,0:0:0:0:
224,308,68747,6,0,L|304:368,2,96,8|0|10,0:0|0:0|0:0,0:0:0:0:
224,200,69214,1,2,0:0:0:0:
352,184,69370,1,0,0:0:0:0:
240,120,69525,1,0,0:0:0:0:
296,240,69680,1,10,0:0:0:0:
317,110,69835,2,0,B|396:43|504:43,1,192,2|0,0:0|0:0,0:0:0:0:
508,140,70302,1,10,0:0:0:0:
448,212,70457,2,0,B|372:280|261:279,2,192,2|2|0,0:0|0:0|0:0,0:0:0:0:
488,280,71234,6,0,L|324:384,1,192,8|10,0:0|0:0,0:0:0:0:
236,344,71701,1,0,0:0:0:0:
160,288,71856,2,0,L|116:200,1,96
116,104,72167,1,10,0:0:0:0:
204,140,72322,2,0,B|244:109|294:131|294:131|343:154|384:121,1,192,2|0,0:0|0:0,0:0:0:0:
442,45,72789,1,10,0:0:0:0:
346,58,72944,2,0,B|299:77|293:131|293:131|288:186|239:205,2,192,2|2|0,0:0|0:0|0:0,0:0:0:0:
442,45,73721,6,0,L|480:236,1,192,8|10,0:0|0:0,0:0:0:0:
412,300,74188,1,0,0:0:0:0:
320,320,74343,2,0,P|272:316|224:268,1,96
308,224,74654,1,10,0:0:0:0:
404,216,74809,2,0,P|352:136|260:140,1,192,2|0,0:0|0:0,0:0:0:0:
208,216,75276,1,10,0:0:0:0:
308,224,75431,2,0,L|420:64,2,192,2|2|0,0:0|0:0|0:0,0:0:0:0:
256,144,76208,6,0,B|188:76|188:76|92:76,1,192,10|10,0:0|0:0,0:0:0:0:
4,232,76675,2,0,L|100:232,1,96,2|0,0:0|0:0,0:0:0:0:
152,152,76986,2,0,L|56:152,1,96,2|10,0:0|0:0,0:0:0:0:
196,252,77297,2,0,P|268:306|346:260,1,192,2|0,0:0|0:0,0:0:0:0:
348,164,77763,1,10,0:0:0:0:
275,225,77918,2,0,P|287:314|375:336,2,192,2|2|0,0:0|0:0|0:0,0:0:0:0:
348,164,78695,6,0,P|277:101|185:105,1,192,8|10,0:0|0:0,0:0:0:0:
88,116,79162,1,2,0:0:0:0:
72,212,79317,1,0,0:0:0:0:
100,304,79473,2,0,P|56:320|8:312,2,96,0|10|2,0:0|0:0|0:0,0:0:0:0:
168,372,79939,5,2,0:0:0:0:
198,372,80017,1,0,0:0:0:0:
228,366,80094,1,0,0:0:0:0:
252,354,80172,1,0,0:0:0:0:
276,338,80250,2,0,P|294:324|309:305,3,48,2|0|0|0,0:0|0:0|0:0|0:0,0:0:0:0:
328,232,80561,5,2,0:0:0:0:
320,204,80638,1,0,0:0:0:0:
308,176,80716,1,0,0:0:0:0:
292,152,80794,1,0,0:0:0:0:
271,131,80872,2,0,P|251:117|228:111,3,48,2|0|0|0,0:0|0:0|0:0|0:0,0:0:0:0:
152,124,81183,6,0,P|64:96|40:8,1,192,4|10,0:0|0:0,0:0:0:0:
136,28,81649,2,0,P|184:20|232:28,1,96,0|0,0:0|0:0,0:0:0:0:
376,138,81960,1,0,0:0:0:0:
327,54,82115,1,10,0:0:0:0:
320,219,82271,2,0,L|416:219,1,96,2|0,0:0|0:0,0:0:0:0:
271,131,82581,2,0,L|224:215,1,96,2|10,0:0|0:0,0:0:0:0:
376,138,82892,2,0,L|328:55,2,96,2|0|0,0:0|0:0|0:0,0:0:0:0:
271,131,83359,1,10,0:0:0:0:
176,135,83514,1,0,0:0:0:0:
83,163,83670,6,0,P|123:251|111:343,1,192,8|10,0:0|0:0,0:0:0:0:
202,372,84136,2,0,L|282:316,1,96
347,248,84447,1,0,0:0:0:0:
296,166,84602,1,10,0:0:0:0:
192,176,84758,2,0,L|140:256,1,96,2|0,0:0|0:0,0:0:0:0:
240,84,85069,2,0,L|335:89,1,96,2|10,0:0|0:0,0:0:0:0:
137,89,85379,2,0,L|93:3,1,96,2|0,0:0|0:0,0:0:0:0:
16,60,85690,2,0,L|59:145,1,96,0|10,0:0|0:0,0:0:0:0:
100,232,86001,1,0,0:0:0:0:
172,176,86157,6,0,P|261:178|299:96,1,192,8|10,0:0|0:0,0:0:0:0:
221,108,86623,2,0,P|281:174|366:141,1,192,0|0,0:0|0:0,0:0:0:0:
448,192,87089,1,10,0:0:0:0:
380,260,87245,2,0,L|328:344,1,96,2|0,0:0|0:0,0:0:0:0:
282,270,87556,2,0,L|232:352,1,96,2|10,0:0|0:0,0:0:0:0:
188,272,87866,2,0,L|136:356,1,96,2|0,0:0|0:0,0:0:0:0:
68,288,88177,1,2,0:0:0:0:
32,200,88333,1,10,0:0:0:0:
92,128,88488,1,2,0:0:0:0:
164,192,88644,6,0,B|208:176|256:192|256:192|304:208|352:192,1,192,8|10,0:0|0:0,0:0:0:0:
444,168,89110,2,0,L|480:76,1,96,2|0,0:0|0:0,0:0:0:0:
400,24,89421,2,0,L|364:116,1,96,0|10,0:0|0:0,0:0:0:0:
376,208,89732,1,0,0:0:0:0:
305,272,89887,5,10,0:0:0:0:
204,111,90042,1,0,0:0:0:0:
234,284,90198,1,10,0:0:0:0:
276,98,90353,1,0,0:3:0:0:
254,191,90508,5,8,0:3:0:0:
291,31,90664,1,10,0:0:0:0:
162,170,90819,1,10,0:0:0:0:
347,211,90974,1,10,0:0:0:0:
204,111,91131,6,0,P|157:191|201:272,1,192,14|10,0:0|0:0,0:0:0:0:
310,269,91597,2,0,P|350:185|301:108,1,192
254,191,92063,1,10,0:0:0:0:
199,270,92219,2,0,P|106:252|11:268,2,192,2|2|2,0:0|0:0|0:0,0:0:0:0:
292,297,92996,2,0,L|388:280,1,96
354,189,93307,2,0,L|258:206,1,96,10|0,0:0|0:0,0:0:0:0:
164,184,93618,6,0,P|188:96|276:68,1,192,8|10,0:0|0:0,0:0:0:0:
372,48,94084,2,0,P|348:136|260:164,1,192,0|0,0:0|0:0,0:0:0:0:
320,244,94550,1,10,0:0:0:0:
400,192,94706,2,0,P|416:232|400:296,1,96,2|0,0:0|0:0,0:0:0:0:
252,296,95017,2,0,P|236:256|252:192,1,96,2|10,0:0|0:0,0:0:0:0:
172,144,95328,1,2,0:0:0:0:
77,140,95483,2,0,P|84:190|114:226,1,96,0|0,0:0|0:0,0:0:0:0:
207,228,95794,2,0,P|199:177|169:141,1,96,10|0,0:0|0:0,0:0:0:0:
239,67,96105,6,0,P|297:142|309:236,1,192,8|10,0:0|0:0,0:0:0:0:
404,236,96571,2,0,P|424:143|488:73,1,192,0|0,0:0|0:0,0:0:0:0:
400,32,97037,1,10,0:0:0:0:
340,104,97193,2,0,L|288:184,1,96,2|0,0:0|0:0,0:0:0:0:
236,104,97504,2,0,L|150:147,1,96,2|10,0:0|0:0,0:0:0:0:
148,52,97815,2,0,L|52:46,2,96,2|0|0,0:0|0:0|0:0,0:0:0:0:
240,20,98281,2,0,L|335:25,1,96,10|0,0:0|0:0,0:0:0:0:
424,64,98592,6,0,P|380:146|410:234,1,192,8|10,0:0|0:0,0:0:0:0:
340,300,99058,2,0,P|252:256|168:288,1,192,0|0,0:0|0:0,0:0:0:0:
88,232,99524,1,10,0:0:0:0:
108,136,99680,2,0,L|224:96,1,96,2|0,0:0|0:0,0:0:0:0:
327,60,99991,2,0,L|366:176,1,96,2|0,0:0|0:0,0:0:0:0:
403,279,100302,2,0,L|286:318,1,96,2|0,0:0|0:0,0:0:0:0:
183,355,100613,1,8,0:0:0:0:
192,260,100768,1,2,3:0:0:0:
196,252,100846,1,2,3:0:0:0:
200,244,100923,1,0,3:0:0:0:
204,236,101001,1,0,3:0:0:0:
208,228,101079,6,0,L|288:52,1,192,6|10,0:0|0:0,0:0:0:0:
376,88,101545,1,2,0:0:0:0:
416,176,101701,1,0,0:0:0:0:
376,264,101856,1,2,0:0:0:0:
296,316,102012,1,10,0:0:0:0:
204,340,102167,2,0,L|16:376,1,192,2|2,0:0|0:0,0:0:0:0:
2,280,102633,1,10,0:0:0:0:
49,196,102789,2,0,L|237:160,1,192,2|2,0:0|0:0,0:0:0:0:
332,180,103255,1,2,3:0:0:0:
340,182,103333,1,2,3:0:0:0:
348,185,103410,1,0,3:0:0:0:
356,188,103488,1,0,3:0:0:0:
364,192,103566,6,0,P|440:245|440:340,1,192,4|10,0:0|0:0,0:0:0:0:
268,339,104032,1,0,0:0:0:0:
272,236,104188,1,2,0:0:0:0:
352,292,104343,1,0,0:0:0:0:
188,283,104499,1,10,0:0:0:0:
178,187,104654,2,0,P|172:109|237:154,1,192,2|2,0:0|0:0,0:0:0:0:
420,184,105276,2,0,P|411:107|355:162,1,192,2|2,0:0|0:0,0:0:0:0:
308,256,105742,1,2,3:0:0:0:
296,268,105820,1,2,3:0:0:0:
284,276,105898,1,0,3:0:0:0:
272,280,105975,1,0,3:0:0:0:
256,284,106053,6,0,L|64:284,1,192,6|10,0:0|0:0,0:0:0:0:
54,188,106519,1,0,0:0:0:0:
120,118,106675,1,2,0:0:0:0:
215,118,106830,1,0,0:0:0:0:
281,188,106986,1,10,0:0:0:0:
256,284,107141,1,2,0:0:0:0:
448,296,107452,1,2,0:0:0:0:
256,284,107762,1,2,0:0:0:0:
448,296,108073,1,2,0:0:0:0:
429,95,108540,5,10,0:0:0:0:
324,268,108695,1,10,0:0:0:0:
510,187,108851,1,10,0:0:0:0:
311,141,109006,1,10,0:0:0:0:
448,296,109162,1,14,0:0:0:0:
