osu file format v14

[General]
AudioFilename: audio.mp3
AudioLeadIn: 0
PreviewTime: 58124
Countdown: 0
SampleSet: Soft
StackLeniency: 0.6
Mode: 0
LetterboxInBreaks: 0
WidescreenStoryboard: 0

[Editor]
DistanceSpacing: 2.7
BeatDivisor: 4
GridSize: 4
TimelineZoom: 1.8

[Metadata]
Title:Sayonara Trip
TitleUnicode:さよならトリップ
Artist:Dormir
ArtistUnicode:Dormir
Creator:Present
Version:886.
Source:jubeat knit
Tags:REFLEC BEAT knit Japanese Video Game Konami crimm TOMOSUKE colorful multicolored Garden papple104 pappl_e_104
BeatmapID:2206615
BeatmapSetID:1055808

[Difficulty]
HPDrainRate:4.4
CircleSize:4
OverallDifficulty:7.6
ApproachRate:8
SliderMultiplier:1.3
SliderTickRate:2

[Events]
//Background and Video events
0,0,"1f9e439b7763eebe26372f2f9040dbe3951ae224.jpg",0,0
//Break Periods
//Storyboard Layer 0 (Background)
//Storyboard Layer 1 (Fail)
//Storyboard Layer 2 (Pass)
//Storyboard Layer 3 (Foreground)
//Storyboard Layer 4 (Overlay)
//Storyboard Sound Samples

[TimingPoints]
7598,451.127819548872,4,2,1,60,1,0
13011,-100,4,2,1,50,0,0
14816,-100,4,2,1,70,0,0
19891,-100,4,2,1,5,0,0
20004,-100,4,2,1,70,0,0
27447,-100,4,2,1,50,0,0
29252,-100,4,2,1,70,0,0
41883,-100,4,2,1,50,0,0
43688,-100,4,2,1,60,0,0
54515,-100,4,2,1,60,0,0
57222,-76.9230769230769,4,2,1,70,0,0
58124,-76.9230769230769,4,2,1,70,0,1
72560,-100,4,2,1,60,0,0
83387,-83.3333333333333,4,2,1,50,0,0
86545,-76.9230769230769,4,2,1,70,0,0
86996,-71.4285714285714,4,2,1,70,0,1
88011,-71.4285714285714,4,2,1,5,0,1
88124,-71.4285714285714,4,2,1,70,0,1
89816,-71.4285714285714,4,2,1,5,0,1
89928,-71.4285714285714,4,2,1,70,0,1
91620,-71.4285714285714,4,2,1,5,0,1
91733,-71.4285714285714,4,2,1,70,0,1
93763,-71.4285714285714,4,2,1,50,0,0
94214,-66.6666666666667,4,2,1,70,0,1
95229,-66.6666666666667,4,2,1,5,0,1
95342,-66.6666666666667,4,2,1,70,0,1
97034,-66.6666666666667,4,2,1,5,0,1
97146,-66.6666666666667,4,2,1,70,0,1
100530,-83.3333333333333,4,2,1,70,0,1
101432,-100,4,2,1,70,0,0
103237,-100,4,2,1,40,0,0

[Colours]
Combo1 : 255,255,96
Combo2 : 255,152,102
Combo3 : 65,225,254

[HitObjects]
102,66,7597,6,0,P|82:128|92:191,1,130,14|8,0:0|0:0,0:0:0:0:
91,190,8500,1,2,0:0:0:0:
196,263,8725,1,0,0:0:0:0:
54,342,8951,2,0,L|49:307,2,32.5,8|0|0,0:0|0:0|0:0,0:0:0:0:
196,263,9402,6,0,P|257:245|319:263,1,130,2|8,1:2|0:0,0:0:0:0:
420,190,10304,1,2,0:0:0:0:
319,263,10529,1,0,0:0:0:0:
458,342,10755,2,0,L|463:307,2,32.5,8|0|0,0:0|0:0|0:0,0:0:0:0:
420,190,11207,6,0,P|429:127|410:66,1,130,2|8,1:2|0:0,0:0:0:0:
409,64,12109,1,2,0:0:0:0:
420,190,12334,1,0,0:0:0:0:
256,63,12560,2,0,L|256:96,2,32.5,8|0|0,0:0|0:0|0:0,0:0:0:0:
255,203,13011,5,8,1:2:0:0:
243,191,13124,1,0,3:0:0:0:
255,179,13237,1,0,3:0:0:0:
267,191,13349,1,0,3:0:0:0:
251,205,13462,5,8,3:2:0:0:
241,187,13575,1,0,3:0:0:0:
259,177,13688,1,0,3:0:0:0:
269,195,13800,1,0,3:0:0:0:
247,205,13913,5,8,3:2:0:0:
241,183,14026,1,0,3:0:0:0:
263,177,14139,1,0,3:0:0:0:
269,199,14251,1,0,3:0:0:0:
243,203,14364,5,8,3:2:0:0:
243,179,14477,1,0,3:0:0:0:
267,179,14590,1,2,3:2:0:0:
267,203,14702,1,0,3:0:0:0:
256,192,14816,6,0,P|190:186|132:209,1,130,6|8,1:2|0:0,0:0:0:0:
94,312,15492,1,0,0:0:0:0:
1,250,15718,2,0,L|29:120,1,130,2|8,1:2|0:0,0:0:0:0:
74,22,16394,1,2,0:0:0:0:
150,101,16620,2,0,P|91:129|13:115,1,130,2|8,1:2|0:0,0:0:0:0:
74,22,17297,1,0,0:0:0:0:
150,101,17522,2,0,P|209:129|287:115,1,130,2|8,1:2|0:0,0:0:0:0:
358,190,18199,1,2,0:0:0:0:
303,286,18425,6,0,P|303:321|310:351,1,65,2|0,1:2|0:0,0:0:0:0:
439,337,18876,2,0,P|439:302|432:272,1,65,10|0,0:0|0:0,0:0:0:0:
358,190,19327,1,2,0:0:0:0:
303,286,19552,2,0,P|254:302|209:298,1,97.5,0|0,1:0|0:0,0:0:0:0:
177,286,20004,1,8,0:0:0:0:
238,142,20229,1,0,1:0:0:0:
238,142,20455,6,0,L|246:209,2,65,0|8|2,1:2|0:0|0:0,0:0:0:0:
296,64,21131,2,0,L|288:-3,1,65,0|0,1:0|1:0,0:0:0:0:
373,123,21582,1,10,0:0:0:0:
238,142,21808,1,2,0:0:0:0:
438,185,22034,6,0,P|462:126|443:65,1,130,2|8,1:2|0:0,0:0:0:0:
313,23,22710,1,2,0:0:0:0:
243,115,22936,2,0,L|373:123,1,130,0|8,1:0|0:0,0:0:0:0:
313,23,23613,1,2,0:0:0:0:
179,53,23838,2,0,P|154:112|173:173,1,130,0|8,1:0|0:0,0:0:0:0:
279,249,24515,1,2,0:0:0:0:
160,302,24740,2,0,L|173:171,1,130,0|8,1:0|0:0,0:0:0:0:
318,130,25417,1,2,0:0:0:0:
199,101,25643,6,0,P|166:97|135:107,2,65,0|0|8,1:0|0:0|0:0,0:0:0:0:
250,188,26319,2,0,B|239:100|239:100|265:67,1,130,2|0,1:2|0:0,0:0:0:0:
392,185,26996,2,0,P|370:208|339:219,1,65,10|0,0:0|0:0,0:0:0:0:
236,286,27447,6,0,L|241:323,3,32.5,0|0|0|0,3:0|3:0|3:0|3:0,3:0:0:0:
173,226,27898,2,0,L|168:189,3,32.5,0|0|0|0,3:0|3:0|3:0|3:0,3:0:0:0:
130,302,28349,2,0,L|135:339,3,32.5,0|0|0|0,3:0|3:0|3:0|3:0,3:0:0:0:
67,242,28800,2,0,L|62:205,3,32.5,0|0|0|0,3:0|3:0|3:0|3:0,3:0:0:0:
129,102,29252,6,0,P|194:101|252:134,1,130,2|8,1:2|0:0,0:0:0:0:
281,244,29928,1,2,0:0:0:0:
365,162,30154,2,0,P|363:97|330:42,1,130,0|8,1:0|0:0,0:0:0:0:
249,131,30831,1,2,0:0:0:0:
365,162,31056,2,0,L|495:148,1,130,0|8,1:0|0:0,0:0:0:0:
330,42,31733,1,2,0:0:0:0:
249,131,31958,2,0,L|263:261,1,130,0|8,1:0|0:0,0:0:0:0:
365,162,32635,1,2,0:0:0:0:
249,131,32861,6,0,P|179:125|111:159,2,130,0|8|0,1:0|0:0|1:0,0:0:0:0:
365,162,33988,1,2,1:2:0:0:
235,227,34214,2,0,P|201:237|171:236,1,65,8|0,0:0|0:0,0:0:0:0:
36,193,34665,5,0,1:2:0:0:
82,282,34891,1,0,0:0:0:0:
171,236,35116,1,8,0:0:0:0:
125,147,35342,1,0,0:0:0:0:
82,282,35567,2,0,P|44:293|12:293,2,65,2|0|8,1:2|1:2|0:0,0:0:0:0:
171,236,36244,1,2,0:0:0:0:
272,309,36470,6,0,L|281:180,1,130,2|8,1:2|0:0,0:0:0:0:
171,236,37146,1,2,0:0:0:0:
224,93,37372,2,0,P|289:78|349:100,1,130,2|8,1:2|0:0,0:0:0:0:
382,247,38049,1,2,0:0:0:0:
281,180,38274,2,0,L|272:309,1,130,0|8,1:0|0:0,0:0:0:0:
382,247,38951,1,2,0:0:0:0:
347,98,39176,2,0,P|286:77|224:93,1,130,0|8,1:0|2:2,0:0:0:0:
171,236,39853,5,2,0:0:0:0:
281,180,40079,1,0,1:0:0:0:
382,247,40304,2,0,P|413:256|447:251,1,65,10|0,0:0|0:0,0:0:0:0:
281,180,40755,2,0,L|272:309,1,130,8|0,0:0|0:0,0:0:0:0:
444,251,41432,2,0,P|453:220|448:186,1,65,2|0,1:2|1:0,0:0:0:0:
345,119,41883,6,0,L|347:85,3,32.5,0|0|0|0,3:0|3:0|3:0|3:0,3:0:0:0:
281,180,42334,2,0,L|279:214,3,32.5,0|0|0|0,3:0|3:0|3:0|3:0,3:0:0:0:
245,103,42785,2,0,L|247:69,3,32.5,0|0|0|0,3:0|3:0|3:0|3:0,3:0:0:0:
181,164,43236,2,0,L|179:198,3,32.5,0|0|0|0,3:0|3:0|3:0|3:0,3:0:0:0:
139,89,43688,5,4,1:2:0:0:
139,89,44139,2,0,P|115:109|101:140,1,65,2|0,0:0|0:0,0:0:0:0:
38,189,44590,2,0,L|46:253,3,65,2|0|0|0,0:0|0:0|0:0|0:0,0:0:0:0:
124,277,45492,1,2,0:0:0:0:
171,209,45718,1,0,0:0:0:0:
171,209,46169,2,0,B|214:216|256:254|256:254|298:216|341:209,1,195,2|0,0:0|0:0,0:0:0:0:
340,209,47297,5,8,0:0:0:0:
340,209,47748,2,0,P|373:217|396:236,1,65,2|0,0:0|0:0,0:0:0:0:
466,280,48199,2,0,L|474:347,3,65,2|0|0|0,0:0|0:0|0:0|0:0,0:0:0:0:
393,325,49101,2,0,L|263:337,1,130,2|0,0:0|0:0,0:0:0:0:
222,264,49778,2,0,P|167:233|185:319,1,195,2|0,0:0|0:0,0:0:0:0:
178,319,50906,5,8,0:0:0:0:
178,319,51357,2,0,L|165:255,1,65,2|0,0:0|0:0,0:0:0:0:
248,268,51808,2,0,L|257:203,1,65,2|0,0:0|0:0,0:0:0:0:
331,244,52259,2,0,L|362:186,1,65,2|0,0:0|0:0,0:0:0:0:
417,250,52710,2,0,L|465:206,2,65,2|0|0,0:0|0:0|0:0,0:0:0:0:
369,324,53387,2,0,B|314:351|314:351|178:339,1,195,2|0,0:0|0:0,0:0:0:0:
62,300,54515,6,0,L|57:261,3,32.5,0|0|0|0,3:0|3:0|3:0|3:0,3:0:0:0:
140,242,54966,2,0,L|145:203,3,32.5,0|0|0|0,3:0|3:0|3:0|3:0,3:0:0:0:
74,161,55417,2,0,L|69:122,3,32.5,0|0|0|0,3:0|3:0|3:0|3:0,3:0:0:0:
138,78,55868,2,0,L|177:83,3,32.5,0|0|0|0,3:0|3:0|3:0|3:0,3:0:0:0:
251,176,56319,5,0,3:0:0:0:
239,196,56432,1,0,3:0:0:0:
259,208,56545,1,0,3:0:0:0:
271,188,56658,1,0,3:0:0:0:
246,176,56770,5,0,3:0:0:0:
239,201,56883,1,0,3:0:0:0:
264,208,56996,1,0,3:0:0:0:
271,183,57109,1,0,3:0:0:0:
256,192,57222,6,0,P|246:233|254:281,1,84.4999961318971,8|0,0:0|0:0,0:0:0:0:
356,309,57673,2,0,L|400:314,2,42.2499980659486,2|0|0,0:0|0:0|0:0,0:0:0:0:
94,152,58124,5,6,1:2:0:0:
54,315,58349,1,0,0:0:0:0:
216,353,58575,1,8,0:0:0:0:
256,192,58801,1,0,0:0:0:0:
87,141,59026,5,2,0:0:0:0:
43,321,59251,1,0,0:0:0:0:
222,363,59477,1,8,0:0:0:0:
266,182,59702,1,0,0:0:0:0:
402,318,59928,6,0,P|425:325|444:326,2,42.2499980659486,2|0|0,0:0|0:0|0:0,0:0:0:0:
222,363,60379,2,0,L|215:279,1,84.4999961318971,8|0,0:0|0:0,0:0:0:0:
190,62,60831,5,2,0:0:0:0:
147,208,61056,1,0,0:0:0:0:
291,251,61282,1,8,0:0:0:0:
336,106,61507,1,0,0:0:0:0:
179,43,61733,5,2,0:2:0:0:
128,218,61958,1,0,0:0:0:0:
301,269,62184,1,8,0:0:0:0:
355,95,62409,1,0,0:0:0:0:
167,20,62635,5,2,0:0:0:0:
105,230,62860,1,0,0:0:0:0:
313,292,63086,1,8,0:0:0:0:
377,83,63311,1,0,0:0:0:0:
238,210,63537,6,0,P|213:248|204:288,1,84.4999961318971,2|0,2:2|0:0,0:0:0:0:
419,318,63988,2,0,P|420:276|407:237,1,84.4999961318971,8|0,0:0|0:0,0:0:0:0:
335,147,64440,1,2,0:2:0:0:
313,292,64665,2,0,L|307:338,2,42.2499980659486,8|0|8,0:0|0:0|0:0,0:0:0:0:
335,147,65116,1,2,0:0:0:0:
51,247,65342,5,6,1:2:0:0:
91,84,65567,1,0,0:0:0:0:
253,124,65793,1,8,0:0:0:0:
213,285,66019,1,0,0:0:0:0:
98,172,66244,6,0,P|49:160|15:166,1,84.4999961318971,2|0,0:0|0:0,0:0:0:0:
3,326,66695,2,0,P|52:338|86:332,1,84.4999961318971,8|0,0:0|0:0,0:0:0:0:
232,366,67146,5,2,0:0:0:0:
192,205,67372,1,0,0:0:0:0:
354,165,67598,1,8,0:0:0:0:
394,328,67823,1,0,0:0:0:0:
232,366,68049,5,2,0:0:0:0:
192,205,68274,1,0,0:0:0:0:
354,165,68500,2,0,P|396:158|437:171,1,84.4999961318971,8|0,0:0|0:0,0:0:0:0:
315,297,68951,6,0,P|312:318|313:340,1,42.2499980659486,8|0,1:2|3:0,0:0:0:0:
181,258,69176,2,0,P|161:256|140:256,1,42.2499980659486,8|0,3:2|3:0,0:0:0:0:
220,126,69402,2,0,P|223:105|222:83,1,42.2499980659486,8|0,3:2|3:0,0:0:0:0:
353,164,69628,2,0,P|373:166|394:166,1,42.2499980659486,8|0,3:2|3:0,0:0:0:0:
237,328,69853,6,0,P|217:343|199:363,1,42.2499980659486,8|0,3:2|3:0,0:0:0:0:
156,183,70078,2,0,P|141:162|123:145,1,42.2499980659486,8|0,3:2|3:2,0:0:0:0:
302,102,70304,2,0,P|322:87|340:67,1,42.2499980659486,8|0,3:2|3:0,0:0:0:0:
382,247,70530,2,0,P|397:267|416:285,1,42.2499980659486,8|0,3:2|3:0,0:0:0:0:
145,282,70755,6,0,P|115:277|83:279,1,42.2499980659486,8|0,3:2|3:0,0:0:0:0:
198,89,70981,2,0,P|203:68|203:47,1,42.2499980659486,8|0,3:2|3:0,0:0:0:0:
335,336,71206,6,0,P|331:356|330:377,1,42.2499980659486,8|0,3:2|3:0,0:0:0:0:
390,144,71432,2,0,P|411:148|432:147,1,42.2499980659486,8|0,3:2|3:0,0:0:0:0:
145,282,71658,6,0,P|115:277|83:279,3,42.2499980659486,2|0|0|0,3:2|3:0|3:0|3:0,0:0:0:0:
335,336,72109,2,0,P|330:356|329:377,3,42.2499980659486,2|0|0|0,3:2|3:0|3:0|3:0,0:0:0:0:
274,216,72560,5,6,1:2:0:0:
74,301,73011,1,8,0:0:0:0:
74,301,73237,2,0,B|143:295|164:190|92:162|92:162|112:131|109:93,1,260,2|0,0:0|0:0,0:0:0:0:
62,228,74364,5,2,0:2:0:0:
278,180,74816,1,8,0:0:0:0:
278,180,75041,2,0,B|316:198|360:181|376:144|376:144|421:193|412:250|366:284,1,260,2|0,0:0|0:0,0:0:0:0:
310,115,76169,5,2,0:0:0:0:
244,326,76620,1,8,0:0:0:0:
244,326,76846,2,0,B|164:360|164:360|114:306|114:306|209:265,1,260,2|0,0:0|0:0,0:0:0:0:
80,379,77973,5,2,0:0:0:0:
128,167,78425,1,8,0:0:0:0:
128,167,78650,2,0,B|172:130|172:130|206:268|206:268|249:225,1,260,2|0,0:0|0:0,0:0:0:0:
120,242,79778,5,2,0:0:0:0:
323,328,80229,1,8,0:0:0:0:
323,328,80455,2,0,P|421:305|331:251,1,260,2|0,0:0|0:0,0:0:0:0:
465,302,81582,5,2,0:0:0:0:
435,82,82034,1,8,0:0:0:0:
435,82,82259,2,0,B|298:36|322:159|184:97,1,260,2|0,0:0|0:0,0:0:0:0:
71,141,83387,6,0,L|33:150,3,38.9999988098145,2|0|0|0,3:2|3:0|3:0|3:0,3:0:0:0:
147,190,83838,2,0,L|185:199,3,38.9999988098145,0|0|0|0,3:0|3:0|3:0|3:0,3:0:0:0:
67,227,84289,2,0,L|29:236,3,38.9999988098145,2|0|0|0,3:2|3:0|3:0|3:0,3:0:0:0:
143,275,84740,2,0,L|181:284,3,38.9999988098145,0|0|0|0,3:0|3:0|3:0|3:0,3:0:0:0:
355,327,85191,5,2,3:2:0:0:
342,307,85304,1,0,3:0:0:0:
363,294,85417,1,0,3:0:0:0:
375,315,85529,1,0,3:0:0:0:
348,327,85643,5,2,3:2:0:0:
342,300,85755,1,0,3:0:0:0:
369,294,85868,1,0,3:0:0:0:
375,321,85980,1,0,3:0:0:0:
343,326,86093,5,2,3:2:0:0:
343,295,86206,1,0,3:0:0:0:
374,295,86319,1,2,3:2:0:0:
374,326,86431,1,0,3:0:0:0:
360,312,86545,6,0,P|319:327|277:325,1,84.4999961318971,2|0,1:2|0:0,0:0:0:0:
100,226,86996,6,0,P|143:210|187:212,1,90.9999972229005,6|0,1:2|0:0,0:0:0:0:
305,246,87447,1,8,0:0:0:0:
305,246,87673,2,0,B|312:147|312:147|306:107,1,136.499995834351,2|0,0:0|0:0,0:0:0:0:
232,151,88124,1,8,0:0:0:0:
390,121,88349,6,0,L|375:30,1,90.9999972229005,10|0,0:0|0:0,0:0:0:0:
217,61,88801,2,0,L|232:152,1,90.9999972229005,0|0,1:0|0:0,0:0:0:0:
341,273,89252,1,8,0:0:0:0:
341,273,89477,2,0,B|366:299|411:305|442:276|442:276|435:265|420:260,1,136.499995834351,2|0,0:0|0:0,0:0:0:0:
372,196,89928,1,8,0:0:0:0:
297,342,90154,6,0,P|257:358|209:352,1,90.9999972229005,8|0,0:0|0:0,0:0:0:0:
194,206,90605,2,0,P|234:190|282:196,1,90.9999972229005,0|0,1:0|0:0,0:0:0:0:
442,274,91056,1,8,0:0:0:0:
442,274,91282,2,0,B|457:167|457:167|451:135,1,136.499995834351,2|0,0:0|0:0,0:0:0:0:
380,169,91733,1,8,0:0:0:0:
347,36,91958,1,8,0:0:0:0:
480,5,92184,1,0,0:0:0:0:
380,169,92410,6,0,L|284:158,1,90.9999972229005,0|0,1:0|0:0,0:0:0:0:
195,276,92861,1,8,0:0:0:0:
326,242,93086,1,0,0:0:0:0:
135,215,93312,2,0,P|111:254|112:298,1,90.9999972229005,2|8,0:0|0:0,0:0:0:0:
143,342,93650,1,0,0:0:0:0:
143,342,93763,2,0,L|233:352,1,90.9999972229005,8|0,0:0|0:0,0:0:0:0:
422,252,94214,6,0,L|325:241,1,97.50000371933,6|0,1:2|0:0,0:0:0:0:
267,135,94665,1,8,0:0:0:0:
267,135,94891,2,0,L|120:149,1,146.250005578995,2|0,0:0|0:0,0:0:0:0:
48,97,95342,6,0,P|32:145|43:197,2,97.50000371933,8|8|0,0:0|0:0|0:0,0:0:0:0:
152,25,96019,2,0,L|249:14,1,97.50000371933,2|0,0:0|0:0,0:0:0:0:
385,96,96470,1,8,0:0:0:0:
385,96,96695,2,0,B|343:152|418:176|370:243,1,146.250005578995
311,196,97146,5,8,0:0:0:0:
150,268,97372,1,8,0:0:0:0:
168,93,97597,1,0,0:0:0:0:
44,271,97823,6,0,P|59:317|94:351,1,97.50000371933,0|0,1:0|0:0,0:0:0:0:
198,174,98274,1,8,0:0:0:0:
198,174,98500,2,0,P|151:164|105:178,1,97.50000371933,2|0,0:0|0:0,0:0:0:0:
206,356,98951,1,8,0:0:0:0:
206,356,99176,2,0,P|238:320|250:274,1,97.50000371933,8|0,0:0|0:0,0:0:0:0:
214,103,99628,5,0,1:0:0:0:
163,278,99853,1,0,0:0:0:0:
336,329,100079,1,8,0:0:0:0:
390,155,100304,1,0,0:0:0:0:
189,60,100530,5,0,1:0:0:0:
120,299,100755,2,0,L|78:320,2,38.9999988098145,8|0|8,0:0|0:0|0:0,0:0:0:0:
357,368,101207,1,2,0:0:0:0:
429,130,101432,1,6,1:2:0:0:
256,192,101545,12,0,103237,0:0:0:0:
