osu file format v14

[General]
AudioFilename: audio.mp3
AudioLeadIn: 0
PreviewTime: 72565
Countdown: 0
SampleSet: Normal
StackLeniency: 0.7
Mode: 1
LetterboxInBreaks: 0
WidescreenStoryboard: 1

[Editor]
DistanceSpacing: 1
BeatDivisor: 2
GridSize: 4
TimelineZoom: 0.5999999

[Metadata]
Title:Sayonara Trip
TitleUnicode:さよならトリップ
Artist:Dormir
ArtistUnicode:Dormir
Creator:Kurtisdede
Version:skolodojko's Kantan
Source:jubeat knit
Tags:ost original soundtrack Dandelion Shirt TOMOSUKE crimm いそにん REFLEC BEAT plus pack konami bemani We0l japanese video game skolodojko Batu electronic
BeatmapID:3943918
BeatmapSetID:1911906

[Difficulty]
HPDrainRate:8
CircleSize:2
OverallDifficulty:3
ApproachRate:5
SliderMultiplier:1.4
SliderTickRate:1

[Events]
//Background and Video events
0,0,"bg.jpg",0,-128
//Break Periods
//Storyboard Layer 0 (Background)
//Storyboard Layer 1 (Fail)
//Storyboard Layer 2 (Pass)
//Storyboard Layer 3 (Foreground)
//Storyboard Layer 4 (Overlay)
//Storyboard Sound Samples

[TimingPoints]
385,451.127819548872,4,1,0,60,1,0
385,-100,4,1,0,50,0,0
14821,-100,4,1,0,60,0,0
72565,-100,4,1,0,80,0,1
87001,-100,4,1,0,80,0,0
87227,-100,4,1,0,60,0,0

[HitObjects]
218,177,14821,5,4,0:0:0:0:
190,198,15723,1,8,0:0:0:0:
190,198,16625,1,0,0:0:0:0:
190,198,17076,1,0,0:0:0:0:
190,198,17527,1,8,0:0:0:0:
171,194,18430,1,0,0:0:0:0:
178,216,19332,1,8,0:0:0:0:
178,216,20234,1,8,0:0:0:0:
178,216,21588,5,8,0:0:0:0:
178,216,22039,1,0,0:0:0:0:
178,216,22941,1,8,0:0:0:0:
178,216,23843,1,0,0:0:0:0:
275,110,24745,1,8,0:0:0:0:
178,216,25648,1,0,0:0:0:0:
178,216,26550,1,8,0:0:0:0:
228,204,27452,1,8,0:0:0:0:
228,204,27903,1,8,0:0:0:0:
228,204,28354,1,8,0:0:0:0:
228,204,28806,1,8,0:0:0:0:
228,204,29257,1,4,0:0:0:0:
228,204,30159,1,8,0:0:0:0:
228,204,31061,1,0,0:0:0:0:
228,204,31512,1,0,0:0:0:0:
228,204,31963,1,8,0:0:0:0:
228,204,32866,1,0,0:0:0:0:
228,204,33768,1,8,0:0:0:0:
228,204,34670,1,0,0:0:0:0:
228,204,35121,1,0,0:0:0:0:
228,204,36475,5,8,0:0:0:0:
228,204,37377,1,0,0:0:0:0:
229,97,37828,1,0,0:0:0:0:
228,204,38279,1,8,0:0:0:0:
228,204,39181,1,8,0:0:0:0:
183,191,40084,1,0,0:0:0:0:
235,162,41888,1,8,0:0:0:0:
235,162,42339,1,8,0:0:0:0:
235,162,42791,1,8,0:0:0:0:
235,162,43242,1,8,0:0:0:0:
235,162,43693,1,4,0:0:0:0:
235,162,44595,1,8,0:0:0:0:
235,162,45497,1,0,0:0:0:0:
235,162,45948,1,0,0:0:0:0:
235,162,46400,1,8,0:0:0:0:
235,162,47302,1,0,0:0:0:0:
235,162,48204,1,8,0:0:0:0:
235,162,49106,1,0,0:0:0:0:
235,162,49557,1,8,0:0:0:0:
235,162,50911,5,0,0:0:0:0:
235,162,51813,1,8,0:0:0:0:
235,162,52715,1,0,0:0:0:0:
235,162,53166,1,0,0:0:0:0:
235,162,53618,1,8,0:0:0:0:
235,162,54520,1,0,0:0:0:0:
234,166,56324,1,8,0:0:0:0:
191,196,56775,1,8,0:0:0:0:
191,196,57227,1,8,0:0:0:0:
191,196,57678,1,8,0:0:0:0:
191,196,58129,1,4,0:0:0:0:
191,196,59031,1,0,0:0:0:0:
191,196,59933,1,8,0:0:0:0:
191,196,60836,1,8,0:0:0:0:
191,196,61287,1,8,0:0:0:0:
191,196,61738,1,0,0:0:0:0:
191,196,62640,1,8,0:0:0:0:
191,196,63542,1,0,0:0:0:0:
191,198,65347,1,0,0:0:0:0:
191,198,66249,1,8,0:0:0:0:
191,198,67151,1,0,0:0:0:0:
191,198,68054,1,0,0:0:0:0:
191,198,68956,1,0,0:0:0:0:
191,198,69407,1,0,0:0:0:0:
191,198,69858,1,8,0:0:0:0:
191,198,70309,1,8,0:0:0:0:
191,198,70760,1,0,0:0:0:0:
191,198,72565,1,12,0:0:0:0:
191,198,73467,1,0,0:0:0:0:
191,198,74369,1,8,0:0:0:0:
191,198,74821,1,8,0:0:0:0:
191,198,75272,1,0,0:0:0:0:
191,198,75723,1,0,0:0:0:0:
191,198,76174,1,8,0:0:0:0:
171,176,77076,1,0,0:0:0:0:
173,186,77978,1,8,0:0:0:0:
173,186,79783,1,0,0:0:0:0:
173,186,80685,1,8,0:0:0:0:
173,186,81136,1,0,0:0:0:0:
173,186,81588,1,8,0:0:0:0:
173,186,82490,1,0,0:0:0:0:
173,186,83392,1,8,0:0:0:0:
173,186,83843,1,8,0:0:0:0:
173,186,84294,1,8,0:0:0:0:
173,186,84745,1,8,0:0:0:0:
173,186,85197,1,0,0:0:0:0:
173,186,86099,1,8,0:0:0:0:
173,186,87001,1,4,0:0:0:0:
173,186,88806,1,8,0:0:0:0:
173,186,89708,1,0,0:0:0:0:
173,186,90159,1,0,0:0:0:0:
173,186,90610,1,8,0:0:0:0:
173,186,91512,1,0,0:0:0:0:
173,186,92415,1,8,0:0:0:0:
173,186,93768,1,0,0:0:0:0:
173,186,94219,1,0,0:0:0:0:
173,186,95121,1,8,0:0:0:0:
173,186,96024,1,8,0:0:0:0:
173,186,96475,1,0,0:0:0:0:
173,186,96926,1,8,0:0:0:0:
173,186,97828,1,8,0:0:0:0:
173,186,98279,1,8,0:0:0:0:
173,186,98730,1,8,0:0:0:0:
173,186,99181,1,8,0:0:0:0:
173,186,99633,1,0,0:0:0:0:
173,186,100535,1,8,0:0:0:0:
173,186,101437,1,4,0:0:0:0:
