osu file format v14

[General]
AudioFilename: audio.mp3
AudioLeadIn: 0
PreviewTime: 144737
Countdown: 1
SampleSet: Soft
StackLeniency: 0.7
Mode: 3
LetterboxInBreaks: 0
SpecialStyle: 0
WidescreenStoryboard: 0

[Editor]
DistanceSpacing: 1.2
BeatDivisor: 4
GridSize: 8
TimelineZoom: 2.6

[Metadata]
Title:Sayonara Trip
TitleUnicode:さよならトリップ
Artist:Dormir
ArtistUnicode:Dormir
Creator:KenZ
Version:ForXenoJam
Source:jubeat knit
Tags:Zenonia LostCool o2jam LN TOMOSUKE crimm Petit March japanese bemani video game pop
BeatmapID:1974030
BeatmapSetID:945295

[Difficulty]
HPDrainRate:7
CircleSize:7
OverallDifficulty:3
ApproachRate:5
SliderMultiplier:1.4
SliderTickRate:1

[Events]
//Background and Video events
0,0,"sayonaratrip.png",0,0
//Break Periods
//Storyboard Layer 0 (Background)
//Storyboard Layer 1 (Fail)
//Storyboard Layer 2 (Pass)
//Storyboard Layer 3 (Foreground)
//Storyboard Layer 4 (Overlay)
//Storyboard Sound Samples

[TimingPoints]
377,451.127819548872,4,2,0,0,1,0

[HitObjects]
256,192,377,128,0,602:0:0:0:0:
475,192,377,128,0,602:0:0:0:0:
36,192,377,1,0,0:0:0:0:
182,192,602,128,0,828:0:0:0:0:
402,192,602,128,0,828:0:0:0:0:
109,192,828,128,0,1053:0:0:0:0:
329,192,828,128,0,1053:0:0:0:0:
256,192,1053,128,0,1279:0:0:0:0:
402,192,1053,128,0,1279:0:0:0:0:
182,192,1279,128,0,1504:0:0:0:0:
36,192,1279,128,0,1504:0:0:0:0:
329,192,1504,128,0,1730:0:0:0:0:
475,192,1504,128,0,1730:0:0:0:0:
109,192,1730,128,0,1955:0:0:0:0:
256,192,1730,128,0,1955:0:0:0:0:
329,192,1955,128,0,2181:0:0:0:0:
475,192,1955,128,0,2181:0:0:0:0:
256,192,2181,128,0,2407:0:0:0:0:
36,192,2181,128,0,2407:0:0:0:0:
402,192,2181,1,0,0:0:0:0:
329,192,2407,128,0,2632:0:0:0:0:
109,192,2407,128,0,2632:0:0:0:0:
402,192,2632,128,0,2858:0:0:0:0:
182,192,2632,128,0,2858:0:0:0:0:
256,192,2858,128,0,3083:0:0:0:0:
109,192,2858,128,0,3083:0:0:0:0:
329,192,3083,128,0,3309:0:0:0:0:
475,192,3083,128,0,3309:0:0:0:0:
182,192,3309,128,0,3534:0:0:0:0:
36,192,3309,128,0,3534:0:0:0:0:
402,192,3534,128,0,3760:0:0:0:0:
256,192,3534,128,0,3760:0:0:0:0:
182,192,3760,128,0,3986:0:0:0:0:
36,192,3760,128,0,3986:0:0:0:0:
329,192,3986,128,0,4437:0:0:0:0:
475,192,3986,128,0,4211:0:0:0:0:
256,192,3986,1,0,0:0:0:0:
182,192,4211,128,0,4437:0:0:0:0:
36,192,4211,128,0,4437:0:0:0:0:
256,192,4437,128,0,4888:0:0:0:0:
402,192,4437,128,0,4662:0:0:0:0:
109,192,4662,128,0,4888:0:0:0:0:
475,192,4662,128,0,4888:0:0:0:0:
182,192,4888,128,0,5339:0:0:0:0:
329,192,4888,128,0,5113:0:0:0:0:
402,192,5113,128,0,5339:0:0:0:0:
36,192,5113,128,0,5339:0:0:0:0:
109,192,5339,128,0,5790:0:0:0:0:
256,192,5339,128,0,5564:0:0:0:0:
329,192,5564,128,0,5790:0:0:0:0:
36,192,5790,128,0,6016:0:0:0:0:
182,192,5790,1,0,0:0:0:0:
402,192,5790,128,0,5903:0:0:0:0:
182,192,6016,128,0,6241:0:0:0:0:
329,192,6016,128,0,6128:0:0:0:0:
109,192,6241,128,0,6467:0:0:0:0:
402,192,6241,128,0,6354:0:0:0:0:
256,192,6467,128,0,6692:0:0:0:0:
475,192,6467,1,0,0:0:0:0:
402,192,6467,1,0,0:0:0:0:
36,192,6467,128,0,6580:0:0:0:0:
329,192,6580,1,0,0:0:0:0:
182,192,6692,128,0,6918:0:0:0:0:
475,192,6692,1,0,0:0:0:0:
402,192,6692,1,0,0:0:0:0:
109,192,6692,128,0,6805:0:0:0:0:
402,192,6918,128,0,7143:0:0:0:0:
256,192,6918,128,0,7031:0:0:0:0:
109,192,7143,1,0,0:0:0:0:
36,192,7143,1,0,0:0:0:0:
329,192,7143,128,0,7369:0:0:0:0:
109,192,7256,1,0,0:0:0:0:
36,192,7256,1,0,0:0:0:0:
475,192,7369,1,0,0:0:0:0:
402,192,7369,1,0,0:0:0:0:
36,192,7595,1,0,0:0:0:0:
109,192,7595,1,0,0:0:0:0:
329,192,7595,128,0,7820:0:0:0:0:
402,192,7595,128,0,7820:0:0:0:0:
182,192,7707,1,0,0:0:0:0:
256,192,7820,1,0,0:0:0:0:
36,192,7820,128,0,8046:0:0:0:0:
475,192,7820,128,0,8046:0:0:0:0:
329,192,7933,1,0,0:0:0:0:
182,192,8046,128,0,8271:0:0:0:0:
109,192,8046,128,0,8271:0:0:0:0:
402,192,8046,1,0,0:0:0:0:
329,192,8158,1,0,0:0:0:0:
256,192,8271,1,0,0:0:0:0:
402,192,8271,128,0,8497:0:0:0:0:
475,192,8271,128,0,8497:0:0:0:0:
182,192,8384,1,0,0:0:0:0:
329,192,8497,1,0,0:0:0:0:
109,192,8497,128,0,8722:0:0:0:0:
36,192,8497,128,0,8722:0:0:0:0:
256,192,8610,1,0,0:0:0:0:
182,192,8722,128,0,8948:0:0:0:0:
475,192,8722,128,0,8948:0:0:0:0:
402,192,8722,1,0,0:0:0:0:
329,192,8835,1,0,0:0:0:0:
256,192,8948,128,0,9173:0:0:0:0:
36,192,8948,1,0,0:0:0:0:
402,192,8948,128,0,9173:0:0:0:0:
109,192,9061,1,0,0:0:0:0:
329,192,9173,1,0,0:0:0:0:
475,192,9173,128,0,9399:0:0:0:0:
36,192,9173,128,0,9399:0:0:0:0:
256,192,9286,1,0,0:0:0:0:
182,192,9399,1,0,0:0:0:0:
329,192,9399,128,0,9850:0:0:0:0:
109,192,9399,128,0,9625:0:0:0:0:
256,192,9512,1,0,0:0:0:0:
36,192,9625,1,0,0:0:0:0:
402,192,9625,128,0,9850:0:0:0:0:
109,192,9737,1,0,0:0:0:0:
256,192,9850,128,0,10301:0:0:0:0:
182,192,9850,1,0,0:0:0:0:
475,192,9850,128,0,10076:0:0:0:0:
109,192,9963,1,0,0:0:0:0:
36,192,10076,1,0,0:0:0:0:
329,192,10076,128,0,10301:0:0:0:0:
109,192,10189,1,0,0:0:0:0:
182,192,10301,128,0,10752:0:0:0:0:
36,192,10301,128,0,10527:0:0:0:0:
475,192,10301,1,0,0:0:0:0:
402,192,10414,1,0,0:0:0:0:
256,192,10527,128,0,10752:0:0:0:0:
329,192,10527,1,0,0:0:0:0:
402,192,10640,1,0,0:0:0:0:
109,192,10752,128,0,11204:0:0:0:0:
329,192,10752,128,0,10978:0:0:0:0:
475,192,10752,1,0,0:0:0:0:
36,192,10752,1,0,0:0:0:0:
182,192,10865,1,0,0:0:0:0:
475,192,10978,128,0,11204:0:0:0:0:
256,192,10978,1,0,0:0:0:0:
329,192,11091,1,0,0:0:0:0:
402,192,11204,1,0,0:0:0:0:
36,192,11204,1,0,0:0:0:0:
182,192,11204,128,0,11655:0:0:0:0:
109,192,11316,1,0,0:0:0:0:
329,192,11429,128,0,11655:0:0:0:0:
402,192,11429,1,0,0:0:0:0:
256,192,11542,1,0,0:0:0:0:
109,192,11655,128,0,12106:0:0:0:0:
475,192,11655,1,0,0:0:0:0:
402,192,11767,1,0,0:0:0:0:
256,192,11880,128,0,12106:0:0:0:0:
329,192,11880,1,0,0:0:0:0:
402,192,11993,1,0,0:0:0:0:
36,192,12106,128,0,12557:0:0:0:0:
475,192,12106,1,0,0:0:0:0:
182,192,12106,1,0,0:0:0:0:
256,192,12219,1,0,0:0:0:0:
182,192,12331,128,0,12557:0:0:0:0:
329,192,12331,1,0,0:0:0:0:
402,192,12444,1,0,0:0:0:0:
475,192,12557,128,0,13008:0:0:0:0:
329,192,12557,1,0,0:0:0:0:
109,192,12557,1,0,0:0:0:0:
256,192,12670,1,0,0:0:0:0:
329,192,12783,128,0,13008:0:0:0:0:
182,192,12783,1,0,0:0:0:0:
109,192,12895,1,0,0:0:0:0:
182,192,13008,128,0,13459:0:0:0:0:
36,192,13008,128,0,13234:0:0:0:0:
402,192,13008,1,0,0:0:0:0:
329,192,13121,1,0,0:0:0:0:
109,192,13234,128,0,13459:0:0:0:0:
256,192,13234,1,0,0:0:0:0:
402,192,13346,1,0,0:0:0:0:
329,192,13459,128,0,13910:0:0:0:0:
256,192,13459,128,0,13685:0:0:0:0:
475,192,13459,1,0,0:0:0:0:
36,192,13572,1,0,0:0:0:0:
182,192,13685,128,0,13910:0:0:0:0:
109,192,13685,1,0,0:0:0:0:
256,192,13798,1,0,0:0:0:0:
36,192,13910,128,0,14361:0:0:0:0:
402,192,13910,128,0,14136:0:0:0:0:
109,192,13910,1,0,0:0:0:0:
182,192,14023,1,0,0:0:0:0:
329,192,14136,128,0,14361:0:0:0:0:
256,192,14136,1,0,0:0:0:0:
109,192,14249,1,0,0:0:0:0:
475,192,14361,1,0,0:0:0:0:
402,192,14361,1,0,0:0:0:0:
182,192,14361,128,0,14587:0:0:0:0:
402,192,14474,1,0,0:0:0:0:
475,192,14474,1,0,0:0:0:0:
36,192,14587,1,0,0:0:0:0:
109,192,14587,1,0,0:0:0:0:
36,192,14813,128,0,16166:0:0:0:0:
329,192,14813,1,0,0:0:0:0:
182,192,14813,128,0,15038:0:0:0:0:
475,192,14813,128,0,15038:0:0:0:0:
256,192,15038,128,0,15264:0:0:0:0:
402,192,15038,128,0,15264:0:0:0:0:
329,192,15264,1,0,0:0:0:0:
182,192,15264,128,0,15489:0:0:0:0:
109,192,15264,128,0,15489:0:0:0:0:
256,192,15489,128,0,15715:0:0:0:0:
402,192,15489,128,0,15715:0:0:0:0:
329,192,15715,1,0,0:0:0:0:
475,192,15715,128,0,15940:0:0:0:0:
182,192,15715,128,0,15940:0:0:0:0:
256,192,15940,128,0,16166:0:0:0:0:
402,192,15940,128,0,16166:0:0:0:0:
329,192,16166,1,0,0:0:0:0:
109,192,16166,128,0,16392:0:0:0:0:
182,192,16166,128,0,16392:0:0:0:0:
256,192,16392,128,0,16617:0:0:0:0:
402,192,16392,128,0,16617:0:0:0:0:
475,192,16617,128,0,17970:0:0:0:0:
182,192,16617,1,0,0:0:0:0:
36,192,16617,128,0,16843:0:0:0:0:
329,192,16617,128,0,16843:0:0:0:0:
256,192,16843,128,0,17068:0:0:0:0:
109,192,16843,128,0,17068:0:0:0:0:
182,192,17068,1,0,0:0:0:0:
402,192,17068,128,0,17294:0:0:0:0:
329,192,17068,128,0,17294:0:0:0:0:
256,192,17294,128,0,17519:0:0:0:0:
109,192,17294,128,0,17519:0:0:0:0:
182,192,17519,1,0,0:0:0:0:
36,192,17519,128,0,17745:0:0:0:0:
329,192,17519,128,0,17745:0:0:0:0:
109,192,17745,128,0,17970:0:0:0:0:
256,192,17745,128,0,17970:0:0:0:0:
182,192,17970,1,0,0:0:0:0:
329,192,17970,128,0,18196:0:0:0:0:
402,192,17970,128,0,18196:0:0:0:0:
109,192,18196,128,0,18422:0:0:0:0:
256,192,18196,128,0,18422:0:0:0:0:
36,192,18422,128,0,19775:0:0:0:0:
329,192,18422,1,0,0:0:0:0:
475,192,18422,128,0,18647:0:0:0:0:
182,192,18422,128,0,18647:0:0:0:0:
402,192,18647,128,0,18873:0:0:0:0:
109,192,18647,128,0,18873:0:0:0:0:
329,192,18873,1,0,0:0:0:0:
475,192,18873,128,0,19098:0:0:0:0:
256,192,18873,128,0,19098:0:0:0:0:
182,192,19098,128,0,19324:0:0:0:0:
402,192,19098,128,0,19324:0:0:0:0:
329,192,19324,1,0,0:0:0:0:
475,192,19324,128,0,19549:0:0:0:0:
109,192,19324,128,0,19549:0:0:0:0:
182,192,19549,128,0,19775:0:0:0:0:
402,192,19549,128,0,19775:0:0:0:0:
329,192,19775,1,0,0:0:0:0:
256,192,19775,128,0,20226:0:0:0:0:
475,192,19775,128,0,20001:0:0:0:0:
402,192,20001,128,0,20226:0:0:0:0:
109,192,20001,128,0,20226:0:0:0:0:
475,192,20226,128,0,21580:0:0:0:0:
182,192,20226,1,0,0:0:0:0:
36,192,20226,128,0,20452:0:0:0:0:
329,192,20226,128,0,20452:0:0:0:0:
402,192,20452,128,0,20677:0:0:0:0:
109,192,20452,128,0,20677:0:0:0:0:
182,192,20677,1,0,0:0:0:0:
36,192,20677,128,0,20903:0:0:0:0:
256,192,20677,128,0,20903:0:0:0:0:
329,192,20903,128,0,21128:0:0:0:0:
109,192,20903,128,0,21128:0:0:0:0:
182,192,21128,1,0,0:0:0:0:
36,192,21128,128,0,21354:0:0:0:0:
402,192,21128,128,0,21354:0:0:0:0:
256,192,21354,128,0,21580:0:0:0:0:
109,192,21354,128,0,21580:0:0:0:0:
182,192,21580,1,0,0:0:0:0:
329,192,21580,1,0,0:0:0:0:
36,192,21580,1,0,0:0:0:0:
329,192,21692,1,0,0:0:0:0:
36,192,21692,1,0,0:0:0:0:
182,192,21805,1,0,0:0:0:0:
402,192,21805,1,0,0:0:0:0:
182,192,22031,1,0,0:0:0:0:
475,192,22031,128,0,22256:0:0:0:0:
256,192,22031,128,0,22256:0:0:0:0:
402,192,22031,128,0,22256:0:0:0:0:
109,192,22031,1,0,0:0:0:0:
329,192,22256,128,0,22482:0:0:0:0:
182,192,22256,128,0,22482:0:0:0:0:
256,192,22482,128,0,22707:0:0:0:0:
109,192,22482,128,0,22707:0:0:0:0:
36,192,22482,128,0,22707:0:0:0:0:
402,192,22482,1,0,0:0:0:0:
182,192,22707,128,0,22933:0:0:0:0:
329,192,22707,128,0,22933:0:0:0:0:
256,192,22933,128,0,23158:0:0:0:0:
402,192,22933,128,0,23158:0:0:0:0:
475,192,22933,128,0,23158:0:0:0:0:
109,192,22933,1,0,0:0:0:0:
329,192,23158,128,0,23384:0:0:0:0:
182,192,23158,128,0,23384:0:0:0:0:
402,192,23384,1,0,0:0:0:0:
256,192,23384,128,0,23610:0:0:0:0:
109,192,23384,128,0,23610:0:0:0:0:
36,192,23384,128,0,23610:0:0:0:0:
182,192,23610,128,0,23835:0:0:0:0:
329,192,23610,128,0,23835:0:0:0:0:
109,192,23835,1,0,0:0:0:0:
402,192,23835,128,0,24286:0:0:0:0:
475,192,23835,128,0,24061:0:0:0:0:
329,192,24061,128,0,24286:0:0:0:0:
109,192,24061,128,0,24173:0:0:0:0:
256,192,24286,128,0,24737:0:0:0:0:
182,192,24286,128,0,24512:0:0:0:0:
36,192,24286,1,0,0:0:0:0:
329,192,24512,128,0,24737:0:0:0:0:
475,192,24512,128,0,24625:0:0:0:0:
109,192,24737,128,0,25189:0:0:0:0:
36,192,24737,128,0,24963:0:0:0:0:
402,192,24737,1,0,0:0:0:0:
182,192,24963,128,0,25189:0:0:0:0:
329,192,24963,128,0,25076:0:0:0:0:
256,192,25189,128,0,25640:0:0:0:0:
329,192,25189,128,0,25414:0:0:0:0:
475,192,25189,1,0,0:0:0:0:
182,192,25414,128,0,25640:0:0:0:0:
475,192,25414,128,0,25527:0:0:0:0:
36,192,25640,128,0,26091:0:0:0:0:
109,192,25640,1,0,0:0:0:0:
109,192,25865,128,0,26316:0:0:0:0:
182,192,25865,1,0,0:0:0:0:
182,192,26091,128,0,26542:0:0:0:0:
256,192,26091,1,0,0:0:0:0:
256,192,26316,128,0,26767:0:0:0:0:
329,192,26316,1,0,0:0:0:0:
36,192,26316,128,0,26429:0:0:0:0:
329,192,26542,128,0,26993:0:0:0:0:
402,192,26542,1,0,0:0:0:0:
109,192,26542,128,0,26655:0:0:0:0:
402,192,26767,128,0,27219:0:0:0:0:
475,192,26767,1,0,0:0:0:0:
182,192,26767,128,0,26880:0:0:0:0:
36,192,26767,128,0,26993:0:0:0:0:
475,192,26993,128,0,27444:0:0:0:0:
256,192,26993,128,0,27106:0:0:0:0:
109,192,26993,128,0,27219:0:0:0:0:
329,192,27219,128,0,27331:0:0:0:0:
182,192,27219,128,0,27444:0:0:0:0:
256,192,27444,1,0,0:0:0:0:
402,192,27444,128,0,27557:0:0:0:0:
36,192,27444,1,0,0:0:0:0:
109,192,27444,1,0,0:0:0:0:
329,192,27557,1,0,0:0:0:0:
182,192,27557,1,0,0:0:0:0:
256,192,27670,1,0,0:0:0:0:
475,192,27670,1,0,0:0:0:0:
402,192,27670,1,0,0:0:0:0:
329,192,27783,1,0,0:0:0:0:
182,192,27783,1,0,0:0:0:0:
36,192,27895,1,0,0:0:0:0:
109,192,27895,1,0,0:0:0:0:
256,192,27895,1,0,0:0:0:0:
182,192,28008,1,0,0:0:0:0:
329,192,28008,1,0,0:0:0:0:
256,192,28121,1,0,0:0:0:0:
475,192,28121,1,0,0:0:0:0:
402,192,28121,1,0,0:0:0:0:
329,192,28234,1,0,0:0:0:0:
182,192,28234,1,0,0:0:0:0:
256,192,28346,1,0,0:0:0:0:
109,192,28346,1,0,0:0:0:0:
36,192,28346,1,0,0:0:0:0:
475,192,28459,1,0,0:0:0:0:
402,192,28459,1,0,0:0:0:0:
36,192,28572,1,0,0:0:0:0:
256,192,28572,1,0,0:0:0:0:
109,192,28572,1,0,0:0:0:0:
402,192,28685,1,0,0:0:0:0:
475,192,28685,1,0,0:0:0:0:
256,192,28798,1,0,0:0:0:0:
109,192,28798,1,0,0:0:0:0:
36,192,28798,1,0,0:0:0:0:
109,192,28910,1,0,0:0:0:0:
36,192,28910,1,0,0:0:0:0:
329,192,28910,1,0,0:0:0:0:
475,192,29023,1,0,0:0:0:0:
402,192,29023,1,0,0:0:0:0:
182,192,29023,1,0,0:0:0:0:
402,192,29136,1,0,0:0:0:0:
475,192,29136,1,0,0:0:0:0:
256,192,29136,1,0,0:0:0:0:
109,192,29249,1,0,0:0:0:0:
36,192,29249,1,0,0:0:0:0:
182,192,29249,128,0,30151:0:0:0:0:
329,192,29249,1,0,0:0:0:0:
256,192,29361,1,0,0:0:0:0:
402,192,29474,1,0,0:0:0:0:
475,192,29474,1,0,0:0:0:0:
329,192,29587,1,0,0:0:0:0:
256,192,29700,1,0,0:0:0:0:
36,192,29700,1,0,0:0:0:0:
402,192,29700,1,0,0:0:0:0:
109,192,29813,1,0,0:0:0:0:
329,192,29925,128,0,30038:0:0:0:0:
256,192,29925,1,0,0:0:0:0:
109,192,30038,1,0,0:0:0:0:
329,192,30151,128,0,31053:0:0:0:0:
36,192,30151,1,0,0:0:0:0:
475,192,30151,1,0,0:0:0:0:
402,192,30264,1,0,0:0:0:0:
256,192,30376,1,0,0:0:0:0:
109,192,30376,1,0,0:0:0:0:
402,192,30489,1,0,0:0:0:0:
475,192,30602,1,0,0:0:0:0:
36,192,30602,1,0,0:0:0:0:
109,192,30602,1,0,0:0:0:0:
182,192,30715,1,0,0:0:0:0:
475,192,30828,128,0,30940:0:0:0:0:
256,192,30828,1,0,0:0:0:0:
109,192,30940,1,0,0:0:0:0:
475,192,31053,128,0,31955:0:0:0:0:
182,192,31053,1,0,0:0:0:0:
402,192,31053,1,0,0:0:0:0:
256,192,31166,1,0,0:0:0:0:
182,192,31279,1,0,0:0:0:0:
329,192,31279,1,0,0:0:0:0:
109,192,31392,1,0,0:0:0:0:
36,192,31504,1,0,0:0:0:0:
256,192,31504,1,0,0:0:0:0:
402,192,31504,1,0,0:0:0:0:
182,192,31617,1,0,0:0:0:0:
329,192,31730,128,0,31843:0:0:0:0:
109,192,31730,1,0,0:0:0:0:
182,192,31843,1,0,0:0:0:0:
329,192,31955,128,0,32858:0:0:0:0:
256,192,31955,1,0,0:0:0:0:
36,192,31955,1,0,0:0:0:0:
109,192,32068,1,0,0:0:0:0:
182,192,32181,1,0,0:0:0:0:
475,192,32181,1,0,0:0:0:0:
256,192,32294,1,0,0:0:0:0:
402,192,32407,1,0,0:0:0:0:
475,192,32407,1,0,0:0:0:0:
109,192,32407,1,0,0:0:0:0:
256,192,32519,1,0,0:0:0:0:
182,192,32632,128,0,32745:0:0:0:0:
36,192,32632,1,0,0:0:0:0:
109,192,32745,1,0,0:0:0:0:
182,192,32858,128,0,33309:0:0:0:0:
256,192,32858,1,0,0:0:0:0:
475,192,32858,1,0,0:0:0:0:
402,192,32970,1,0,0:0:0:0:
256,192,33083,1,0,0:0:0:0:
109,192,33083,1,0,0:0:0:0:
329,192,33196,1,0,0:0:0:0:
36,192,33309,128,0,33534:0:0:0:0:
475,192,33309,1,0,0:0:0:0:
256,192,33309,1,0,0:0:0:0:
109,192,33309,1,0,0:0:0:0:
402,192,33422,1,0,0:0:0:0:
182,192,33534,128,0,33760:0:0:0:0:
329,192,33534,1,0,0:0:0:0:
402,192,33647,1,0,0:0:0:0:
109,192,33760,128,0,33986:0:0:0:0:
475,192,33760,1,0,0:0:0:0:
256,192,33760,1,0,0:0:0:0:
329,192,33873,1,0,0:0:0:0:
256,192,33986,128,0,34437:0:0:0:0:
402,192,33986,1,0,0:0:0:0:
329,192,34098,1,0,0:0:0:0:
36,192,34211,1,0,0:0:0:0:
109,192,34211,1,0,0:0:0:0:
475,192,34211,1,0,0:0:0:0:
402,192,34324,1,0,0:0:0:0:
182,192,34437,128,0,34549:0:0:0:0:
329,192,34437,1,0,0:0:0:0:
402,192,34549,1,0,0:0:0:0:
182,192,34662,128,0,35113:0:0:0:0:
475,192,34662,1,0,0:0:0:0:
36,192,34662,1,0,0:0:0:0:
109,192,34662,1,0,0:0:0:0:
256,192,34775,1,0,0:0:0:0:
329,192,34888,128,0,35001:0:0:0:0:
402,192,34888,1,0,0:0:0:0:
109,192,35001,1,0,0:0:0:0:
329,192,35113,128,0,35564:0:0:0:0:
402,192,35113,1,0,0:0:0:0:
36,192,35113,1,0,0:0:0:0:
256,192,35226,1,0,0:0:0:0:
109,192,35339,1,0,0:0:0:0:
182,192,35452,1,0,0:0:0:0:
256,192,35564,1,0,0:0:0:0:
475,192,35564,128,0,35677:0:0:0:0:
36,192,35564,128,0,35677:0:0:0:0:
329,192,35677,128,0,35790:0:0:0:0:
109,192,35677,128,0,35790:0:0:0:0:
402,192,35790,128,0,35903:0:0:0:0:
182,192,35790,128,0,35903:0:0:0:0:
475,192,35903,128,0,36016:0:0:0:0:
256,192,35903,128,0,36016:0:0:0:0:
402,192,36016,128,0,36128:0:0:0:0:
182,192,36016,128,0,36128:0:0:0:0:
36,192,36016,128,0,36128:0:0:0:0:
109,192,36128,128,0,36241:0:0:0:0:
329,192,36128,128,0,36241:0:0:0:0:
256,192,36241,128,0,36354:0:0:0:0:
36,192,36241,128,0,36354:0:0:0:0:
402,192,36241,128,0,36354:0:0:0:0:
182,192,36354,128,0,36467:0:0:0:0:
475,192,36354,128,0,36467:0:0:0:0:
256,192,36467,128,0,37369:0:0:0:0:
36,192,36467,128,0,37369:0:0:0:0:
329,192,36467,1,0,0:0:0:0:
109,192,36467,1,0,0:0:0:0:
182,192,36692,1,0,0:0:0:0:
402,192,36692,1,0,0:0:0:0:
182,192,36918,1,0,0:0:0:0:
109,192,36918,1,0,0:0:0:0:
475,192,36918,1,0,0:0:0:0:
402,192,36918,1,0,0:0:0:0:
329,192,36918,1,0,0:0:0:0:
329,192,37143,128,0,37256:0:0:0:0:
475,192,37143,128,0,37256:0:0:0:0:
109,192,37143,1,0,0:0:0:0:
329,192,37369,128,0,38271:0:0:0:0:
475,192,37369,128,0,38271:0:0:0:0:
402,192,37369,1,0,0:0:0:0:
182,192,37369,1,0,0:0:0:0:
109,192,37369,1,0,0:0:0:0:
256,192,37595,1,0,0:0:0:0:
109,192,37595,1,0,0:0:0:0:
256,192,37820,1,0,0:0:0:0:
182,192,37820,1,0,0:0:0:0:
109,192,37820,1,0,0:0:0:0:
36,192,37820,1,0,0:0:0:0:
402,192,37820,1,0,0:0:0:0:
109,192,38046,128,0,38158:0:0:0:0:
256,192,38046,128,0,38158:0:0:0:0:
402,192,38046,1,0,0:0:0:0:
109,192,38271,128,0,39173:0:0:0:0:
256,192,38271,128,0,39173:0:0:0:0:
402,192,38271,1,0,0:0:0:0:
182,192,38271,1,0,0:0:0:0:
36,192,38271,1,0,0:0:0:0:
329,192,38497,1,0,0:0:0:0:
475,192,38497,1,0,0:0:0:0:
36,192,38722,1,0,0:0:0:0:
182,192,38722,1,0,0:0:0:0:
329,192,38722,1,0,0:0:0:0:
475,192,38722,1,0,0:0:0:0:
402,192,38722,1,0,0:0:0:0:
329,192,38948,128,0,39061:0:0:0:0:
402,192,38948,128,0,39061:0:0:0:0:
182,192,38948,1,0,0:0:0:0:
329,192,39173,128,0,40076:0:0:0:0:
402,192,39173,128,0,40076:0:0:0:0:
475,192,39173,1,0,0:0:0:0:
182,192,39173,1,0,0:0:0:0:
36,192,39173,1,0,0:0:0:0:
109,192,39399,1,0,0:0:0:0:
256,192,39399,1,0,0:0:0:0:
36,192,39625,1,0,0:0:0:0:
109,192,39625,1,0,0:0:0:0:
182,192,39625,1,0,0:0:0:0:
256,192,39625,1,0,0:0:0:0:
475,192,39625,1,0,0:0:0:0:
109,192,39850,128,0,39963:0:0:0:0:
36,192,39850,128,0,39963:0:0:0:0:
256,192,39850,1,0,0:0:0:0:
36,192,40076,128,0,40527:0:0:0:0:
182,192,40076,1,0,0:0:0:0:
256,192,40076,1,0,0:0:0:0:
109,192,40076,128,0,40527:0:0:0:0:
475,192,40076,128,0,40301:0:0:0:0:
182,192,40301,1,0,0:0:0:0:
402,192,40301,1,0,0:0:0:0:
256,192,40301,128,0,40527:0:0:0:0:
329,192,40527,128,0,40865:0:0:0:0:
475,192,40527,128,0,40752:0:0:0:0:
182,192,40527,128,0,40978:0:0:0:0:
402,192,40527,1,0,0:0:0:0:
402,192,40752,128,0,41091:0:0:0:0:
36,192,40752,128,0,40978:0:0:0:0:
109,192,40752,1,0,0:0:0:0:
329,192,40978,128,0,41542:0:0:0:0:
109,192,40978,128,0,41429:0:0:0:0:
256,192,40978,1,0,0:0:0:0:
402,192,41204,128,0,41316:0:0:0:0:
256,192,41204,128,0,41429:0:0:0:0:
36,192,41204,1,0,0:0:0:0:
402,192,41429,128,0,41767:0:0:0:0:
36,192,41429,128,0,41880:0:0:0:0:
182,192,41429,1,0,0:0:0:0:
475,192,41429,1,0,0:0:0:0:
329,192,41655,128,0,41993:0:0:0:0:
182,192,41655,128,0,41880:0:0:0:0:
402,192,41880,128,0,42219:0:0:0:0:
475,192,41880,1,0,0:0:0:0:
109,192,41880,1,0,0:0:0:0:
182,192,41993,1,0,0:0:0:0:
109,192,42106,1,0,0:0:0:0:
329,192,42106,128,0,42444:0:0:0:0:
182,192,42219,1,0,0:0:0:0:
402,192,42331,128,0,42783:0:0:0:0:
109,192,42331,1,0,0:0:0:0:
182,192,42444,1,0,0:0:0:0:
329,192,42557,128,0,42783:0:0:0:0:
109,192,42557,1,0,0:0:0:0:
182,192,42670,1,0,0:0:0:0:
109,192,42783,1,0,0:0:0:0:
36,192,42783,1,0,0:0:0:0:
475,192,42783,128,0,43008:0:0:0:0:
256,192,42895,1,0,0:0:0:0:
182,192,42895,1,0,0:0:0:0:
109,192,43008,1,0,0:0:0:0:
36,192,43008,1,0,0:0:0:0:
329,192,43008,128,0,43234:0:0:0:0:
256,192,43121,1,0,0:0:0:0:
182,192,43121,1,0,0:0:0:0:
109,192,43234,1,0,0:0:0:0:
36,192,43234,1,0,0:0:0:0:
402,192,43234,128,0,43459:0:0:0:0:
109,192,43346,1,0,0:0:0:0:
36,192,43346,1,0,0:0:0:0:
256,192,43459,1,0,0:0:0:0:
182,192,43459,1,0,0:0:0:0:
475,192,43459,1,0,0:0:0:0:
182,192,43572,1,0,0:0:0:0:
256,192,43572,1,0,0:0:0:0:
109,192,43685,1,0,0:0:0:0:
36,192,43685,1,0,0:0:0:0:
402,192,43685,1,0,0:0:0:0:
329,192,43685,1,0,0:0:0:0:
475,192,43685,128,0,44136:0:0:0:0:
256,192,43798,1,0,0:0:0:0:
182,192,43798,1,0,0:0:0:0:
402,192,43910,1,0,0:0:0:0:
329,192,43910,1,0,0:0:0:0:
109,192,44023,1,0,0:0:0:0:
182,192,44023,1,0,0:0:0:0:
256,192,44136,1,0,0:0:0:0:
329,192,44136,1,0,0:0:0:0:
36,192,44136,1,0,0:0:0:0:
475,192,44249,1,0,0:0:0:0:
109,192,44249,1,0,0:0:0:0:
329,192,44361,1,0,0:0:0:0:
182,192,44361,1,0,0:0:0:0:
256,192,44474,1,0,0:0:0:0:
109,192,44474,1,0,0:0:0:0:
329,192,44587,128,0,45264:0:0:0:0:
36,192,44587,128,0,44700:0:0:0:0:
182,192,44587,128,0,44700:0:0:0:0:
109,192,44700,128,0,44813:0:0:0:0:
256,192,44700,128,0,44813:0:0:0:0:
182,192,44813,128,0,44925:0:0:0:0:
402,192,44813,128,0,44925:0:0:0:0:
256,192,44925,128,0,45038:0:0:0:0:
475,192,44925,128,0,45038:0:0:0:0:
36,192,45038,128,0,45151:0:0:0:0:
109,192,45038,128,0,45151:0:0:0:0:
402,192,45151,128,0,45264:0:0:0:0:
256,192,45151,128,0,45264:0:0:0:0:
182,192,45264,128,0,45376:0:0:0:0:
109,192,45264,128,0,45376:0:0:0:0:
402,192,45376,128,0,45489:0:0:0:0:
475,192,45376,128,0,45489:0:0:0:0:
182,192,45489,128,0,46166:0:0:0:0:
36,192,45489,1,0,0:0:0:0:
329,192,45489,1,0,0:0:0:0:
109,192,45602,1,0,0:0:0:0:
256,192,45602,1,0,0:0:0:0:
329,192,45715,1,0,0:0:0:0:
475,192,45715,1,0,0:0:0:0:
256,192,45828,1,0,0:0:0:0:
402,192,45828,1,0,0:0:0:0:
329,192,45940,1,0,0:0:0:0:
109,192,45940,1,0,0:0:0:0:
256,192,46053,1,0,0:0:0:0:
36,192,46053,1,0,0:0:0:0:
109,192,46166,1,0,0:0:0:0:
329,192,46166,1,0,0:0:0:0:
402,192,46279,1,0,0:0:0:0:
182,192,46279,1,0,0:0:0:0:
36,192,46392,128,0,47068:0:0:0:0:
256,192,46392,128,0,46504:0:0:0:0:
475,192,46392,128,0,46504:0:0:0:0:
402,192,46504,128,0,46617:0:0:0:0:
182,192,46504,128,0,46617:0:0:0:0:
109,192,46617,128,0,46730:0:0:0:0:
329,192,46617,128,0,46730:0:0:0:0:
256,192,46730,128,0,46843:0:0:0:0:
475,192,46730,128,0,46843:0:0:0:0:
182,192,46843,128,0,46955:0:0:0:0:
329,192,46843,128,0,46955:0:0:0:0:
402,192,46955,128,0,47068:0:0:0:0:
109,192,46955,128,0,47068:0:0:0:0:
475,192,47068,128,0,47181:0:0:0:0:
182,192,47068,128,0,47181:0:0:0:0:
36,192,47181,128,0,47294:0:0:0:0:
256,192,47181,128,0,47294:0:0:0:0:
329,192,47294,128,0,47745:0:0:0:0:
109,192,47294,1,0,0:0:0:0:
475,192,47294,1,0,0:0:0:0:
402,192,47294,1,0,0:0:0:0:
182,192,47407,1,0,0:0:0:0:
256,192,47519,1,0,0:0:0:0:
402,192,47519,1,0,0:0:0:0:
109,192,47632,1,0,0:0:0:0:
182,192,47745,128,0,48196:0:0:0:0:
36,192,47745,1,0,0:0:0:0:
475,192,47745,1,0,0:0:0:0:
402,192,47745,1,0,0:0:0:0:
329,192,47858,1,0,0:0:0:0:
256,192,47970,1,0,0:0:0:0:
109,192,47970,1,0,0:0:0:0:
402,192,48083,1,0,0:0:0:0:
329,192,48196,1,0,0:0:0:0:
109,192,48196,1,0,0:0:0:0:
36,192,48196,1,0,0:0:0:0:
475,192,48196,1,0,0:0:0:0:
256,192,48309,1,0,0:0:0:0:
329,192,48422,128,0,48647:0:0:0:0:
182,192,48422,1,0,0:0:0:0:
475,192,48422,1,0,0:0:0:0:
36,192,48534,1,0,0:0:0:0:
256,192,48647,1,0,0:0:0:0:
109,192,48647,1,0,0:0:0:0:
402,192,48647,1,0,0:0:0:0:
475,192,48760,1,0,0:0:0:0:
182,192,48873,1,0,0:0:0:0:
329,192,48873,1,0,0:0:0:0:
109,192,48986,1,0,0:0:0:0:
36,192,49098,128,0,49324:0:0:0:0:
256,192,49098,1,0,0:0:0:0:
475,192,49098,1,0,0:0:0:0:
329,192,49211,1,0,0:0:0:0:
182,192,49324,128,0,49549:0:0:0:0:
475,192,49324,1,0,0:0:0:0:
402,192,49324,1,0,0:0:0:0:
256,192,49437,1,0,0:0:0:0:
36,192,49549,128,0,49775:0:0:0:0:
329,192,49549,1,0,0:0:0:0:
475,192,49662,1,0,0:0:0:0:
182,192,49775,128,0,50226:0:0:0:0:
402,192,49775,1,0,0:0:0:0:
256,192,49775,1,0,0:0:0:0:
475,192,50001,1,0,0:0:0:0:
36,192,50001,1,0,0:0:0:0:
329,192,50001,1,0,0:0:0:0:
109,192,50226,1,0,0:0:0:0:
256,192,50226,1,0,0:0:0:0:
182,192,50452,1,0,0:0:0:0:
475,192,50452,1,0,0:0:0:0:
36,192,50452,1,0,0:0:0:0:
402,192,50452,1,0,0:0:0:0:
402,192,50677,1,0,0:0:0:0:
329,192,50677,1,0,0:0:0:0:
182,192,50677,128,0,50790:0:0:0:0:
36,192,50677,128,0,50790:0:0:0:0:
256,192,50903,1,0,0:0:0:0:
36,192,50903,128,0,51354:0:0:0:0:
182,192,50903,128,0,51354:0:0:0:0:
475,192,50903,1,0,0:0:0:0:
402,192,50978,1,0,0:0:0:0:
329,192,51053,1,0,0:0:0:0:
256,192,51128,1,0,0:0:0:0:
109,192,51128,1,0,0:0:0:0:
475,192,51204,1,0,0:0:0:0:
402,192,51279,1,0,0:0:0:0:
329,192,51354,1,0,0:0:0:0:
109,192,51354,1,0,0:0:0:0:
256,192,51429,1,0,0:0:0:0:
182,192,51504,1,0,0:0:0:0:
329,192,51580,128,0,51692:0:0:0:0:
475,192,51580,128,0,51692:0:0:0:0:
109,192,51580,1,0,0:0:0:0:
36,192,51580,1,0,0:0:0:0:
329,192,51805,128,0,52256:0:0:0:0:
475,192,51805,128,0,52256:0:0:0:0:
36,192,51805,128,0,51880:0:0:0:0:
256,192,51805,1,0,0:0:0:0:
109,192,51880,128,0,51955:0:0:0:0:
182,192,51955,128,0,52031:0:0:0:0:
256,192,52031,128,0,52106:0:0:0:0:
402,192,52031,128,0,52106:0:0:0:0:
36,192,52106,128,0,52181:0:0:0:0:
109,192,52181,128,0,52256:0:0:0:0:
182,192,52256,128,0,52331:0:0:0:0:
402,192,52256,128,0,52331:0:0:0:0:
256,192,52331,128,0,52407:0:0:0:0:
329,192,52407,128,0,52482:0:0:0:0:
109,192,52482,128,0,52595:0:0:0:0:
402,192,52482,128,0,52595:0:0:0:0:
109,192,52707,128,0,53158:0:0:0:0:
402,192,52707,128,0,53158:0:0:0:0:
182,192,52707,1,0,0:0:0:0:
475,192,52707,1,0,0:0:0:0:
36,192,52707,1,0,0:0:0:0:
256,192,52783,1,0,0:0:0:0:
329,192,52858,1,0,0:0:0:0:
475,192,52933,1,0,0:0:0:0:
36,192,52933,1,0,0:0:0:0:
182,192,53008,1,0,0:0:0:0:
256,192,53083,1,0,0:0:0:0:
329,192,53158,1,0,0:0:0:0:
402,192,53234,1,0,0:0:0:0:
109,192,53234,1,0,0:0:0:0:
182,192,53309,1,0,0:0:0:0:
36,192,53384,128,0,53497:0:0:0:0:
475,192,53384,128,0,53497:0:0:0:0:
256,192,53384,1,0,0:0:0:0:
36,192,53610,128,0,54061:0:0:0:0:
475,192,53610,128,0,54061:0:0:0:0:
402,192,53610,128,0,53685:0:0:0:0:
109,192,53610,128,0,53685:0:0:0:0:
329,192,53685,128,0,53760:0:0:0:0:
256,192,53760,128,0,53835:0:0:0:0:
182,192,53835,128,0,53910:0:0:0:0:
109,192,53910,128,0,53986:0:0:0:0:
402,192,53986,128,0,54061:0:0:0:0:
329,192,54061,128,0,54136:0:0:0:0:
256,192,54136,128,0,54211:0:0:0:0:
182,192,54211,128,0,54286:0:0:0:0:
475,192,54286,1,0,0:0:0:0:
402,192,54286,1,0,0:0:0:0:
109,192,54286,128,0,54361:0:0:0:0:
329,192,54512,128,0,54737:0:0:0:0:
256,192,54512,1,0,0:0:0:0:
36,192,54512,1,0,0:0:0:0:
109,192,54625,1,0,0:0:0:0:
182,192,54737,128,0,54963:0:0:0:0:
402,192,54737,1,0,0:0:0:0:
475,192,54737,1,0,0:0:0:0:
256,192,54850,1,0,0:0:0:0:
402,192,54963,128,0,55189:0:0:0:0:
109,192,54963,1,0,0:0:0:0:
36,192,54963,1,0,0:0:0:0:
182,192,55076,1,0,0:0:0:0:
109,192,55189,128,0,55414:0:0:0:0:
475,192,55189,1,0,0:0:0:0:
329,192,55189,1,0,0:0:0:0:
256,192,55301,1,0,0:0:0:0:
182,192,55414,128,0,55640:0:0:0:0:
36,192,55414,1,0,0:0:0:0:
329,192,55414,1,0,0:0:0:0:
475,192,55527,1,0,0:0:0:0:
109,192,55640,128,0,55865:0:0:0:0:
256,192,55640,1,0,0:0:0:0:
402,192,55640,1,0,0:0:0:0:
329,192,55752,1,0,0:0:0:0:
256,192,55865,128,0,56091:0:0:0:0:
36,192,55865,1,0,0:0:0:0:
475,192,55865,1,0,0:0:0:0:
402,192,55978,1,0,0:0:0:0:
182,192,56091,128,0,56316:0:0:0:0:
109,192,56091,1,0,0:0:0:0:
36,192,56091,1,0,0:0:0:0:
256,192,56204,1,0,0:0:0:0:
402,192,56316,1,0,0:0:0:0:
475,192,56316,1,0,0:0:0:0:
329,192,56316,128,0,56542:0:0:0:0:
109,192,56429,1,0,0:0:0:0:
36,192,56429,1,0,0:0:0:0:
402,192,56542,1,0,0:0:0:0:
475,192,56542,1,0,0:0:0:0:
182,192,56542,128,0,56767:0:0:0:0:
109,192,56655,1,0,0:0:0:0:
36,192,56655,1,0,0:0:0:0:
402,192,56767,1,0,0:0:0:0:
475,192,56767,1,0,0:0:0:0:
329,192,56767,128,0,56993:0:0:0:0:
256,192,56767,1,0,0:0:0:0:
109,192,56880,1,0,0:0:0:0:
36,192,56880,1,0,0:0:0:0:
475,192,56993,1,0,0:0:0:0:
402,192,56993,1,0,0:0:0:0:
182,192,56993,128,0,57219:0:0:0:0:
36,192,57106,1,0,0:0:0:0:
109,192,57106,1,0,0:0:0:0:
475,192,57219,1,0,0:0:0:0:
329,192,57219,1,0,0:0:0:0:
402,192,57219,128,0,57331:0:0:0:0:
256,192,57219,1,0,0:0:0:0:
182,192,57331,1,0,0:0:0:0:
36,192,57331,1,0,0:0:0:0:
109,192,57331,128,0,57444:0:0:0:0:
475,192,57444,1,0,0:0:0:0:
329,192,57444,1,0,0:0:0:0:
402,192,57444,128,0,57557:0:0:0:0:
182,192,57557,1,0,0:0:0:0:
36,192,57557,1,0,0:0:0:0:
109,192,57557,128,0,57670:0:0:0:0:
256,192,57557,1,0,0:0:0:0:
329,192,57670,1,0,0:0:0:0:
402,192,57670,1,0,0:0:0:0:
475,192,57670,1,0,0:0:0:0:
256,192,57670,1,0,0:0:0:0:
329,192,57783,1,0,0:0:0:0:
402,192,57783,1,0,0:0:0:0:
475,192,57783,1,0,0:0:0:0:
182,192,57895,1,0,0:0:0:0:
109,192,57895,1,0,0:0:0:0:
36,192,57895,1,0,0:0:0:0:
256,192,57895,1,0,0:0:0:0:
182,192,58008,1,0,0:0:0:0:
109,192,58008,1,0,0:0:0:0:
36,192,58008,1,0,0:0:0:0:
256,192,58121,1,0,0:0:0:0:
402,192,58121,1,0,0:0:0:0:
329,192,58121,1,0,0:0:0:0:
475,192,58121,1,0,0:0:0:0:
182,192,58346,1,0,0:0:0:0:
109,192,58346,1,0,0:0:0:0:
329,192,58572,1,0,0:0:0:0:
475,192,58685,1,0,0:0:0:0:
329,192,58685,1,0,0:0:0:0:
182,192,58798,1,0,0:0:0:0:
475,192,58798,1,0,0:0:0:0:
36,192,58910,1,0,0:0:0:0:
182,192,58910,1,0,0:0:0:0:
256,192,59023,1,0,0:0:0:0:
36,192,59023,1,0,0:0:0:0:
402,192,59136,1,0,0:0:0:0:
256,192,59136,1,0,0:0:0:0:
109,192,59249,1,0,0:0:0:0:
402,192,59249,1,0,0:0:0:0:
182,192,59361,1,0,0:0:0:0:
109,192,59361,1,0,0:0:0:0:
329,192,59474,1,0,0:0:0:0:
182,192,59474,1,0,0:0:0:0:
402,192,59587,1,0,0:0:0:0:
329,192,59587,1,0,0:0:0:0:
402,192,59700,1,0,0:0:0:0:
256,192,59925,1,0,0:0:0:0:
475,192,59925,1,0,0:0:0:0:
402,192,59925,1,0,0:0:0:0:
329,192,59925,1,0,0:0:0:0:
36,192,59925,1,0,0:0:0:0:
182,192,59925,1,0,0:0:0:0:
109,192,59925,1,0,0:0:0:0:
329,192,60151,1,0,0:0:0:0:
402,192,60151,1,0,0:0:0:0:
182,192,60376,1,0,0:0:0:0:
36,192,60489,1,0,0:0:0:0:
182,192,60489,128,0,60602:0:0:0:0:
329,192,60602,1,0,0:0:0:0:
36,192,60602,128,0,60715:0:0:0:0:
475,192,60715,1,0,0:0:0:0:
329,192,60715,128,0,60828:0:0:0:0:
256,192,60828,1,0,0:0:0:0:
475,192,60828,128,0,60940:0:0:0:0:
109,192,60940,1,0,0:0:0:0:
256,192,60940,128,0,61053:0:0:0:0:
402,192,61053,1,0,0:0:0:0:
109,192,61053,128,0,61166:0:0:0:0:
329,192,61166,1,0,0:0:0:0:
402,192,61166,128,0,61279:0:0:0:0:
182,192,61279,1,0,0:0:0:0:
329,192,61279,128,0,61392:0:0:0:0:
109,192,61392,1,0,0:0:0:0:
182,192,61392,128,0,61504:0:0:0:0:
109,192,61504,128,0,61617:0:0:0:0:
109,192,61730,1,0,0:0:0:0:
402,192,61730,1,0,0:0:0:0:
182,192,61730,1,0,0:0:0:0:
256,192,61730,1,0,0:0:0:0:
329,192,61730,1,0,0:0:0:0:
475,192,61730,1,0,0:0:0:0:
36,192,61730,1,0,0:0:0:0:
182,192,61955,1,0,0:0:0:0:
36,192,61955,1,0,0:0:0:0:
329,192,62181,1,0,0:0:0:0:
329,192,62294,128,0,62519:0:0:0:0:
475,192,62294,1,0,0:0:0:0:
475,192,62407,128,0,62632:0:0:0:0:
182,192,62407,1,0,0:0:0:0:
182,192,62519,128,0,62745:0:0:0:0:
36,192,62519,1,0,0:0:0:0:
36,192,62632,128,0,62858:0:0:0:0:
256,192,62632,1,0,0:0:0:0:
256,192,62745,128,0,62970:0:0:0:0:
402,192,62745,1,0,0:0:0:0:
402,192,62858,128,0,63083:0:0:0:0:
109,192,62858,1,0,0:0:0:0:
182,192,62970,1,0,0:0:0:0:
109,192,62970,128,0,63083:0:0:0:0:
329,192,63083,1,0,0:0:0:0:
182,192,63083,128,0,63196:0:0:0:0:
402,192,63196,1,0,0:0:0:0:
329,192,63196,128,0,63309:0:0:0:0:
402,192,63309,128,0,63422:0:0:0:0:
256,192,63534,1,0,0:0:0:0:
475,192,63534,1,0,0:0:0:0:
402,192,63534,1,0,0:0:0:0:
329,192,63534,1,0,0:0:0:0:
36,192,63534,1,0,0:0:0:0:
182,192,63534,1,0,0:0:0:0:
109,192,63534,1,0,0:0:0:0:
329,192,63760,1,0,0:0:0:0:
475,192,63760,1,0,0:0:0:0:
182,192,63986,1,0,0:0:0:0:
182,192,64098,128,0,64324:0:0:0:0:
36,192,64098,1,0,0:0:0:0:
36,192,64211,128,0,64437:0:0:0:0:
329,192,64211,1,0,0:0:0:0:
329,192,64324,128,0,64549:0:0:0:0:
475,192,64324,1,0,0:0:0:0:
475,192,64437,128,0,64662:0:0:0:0:
256,192,64437,1,0,0:0:0:0:
256,192,64549,128,0,64775:0:0:0:0:
109,192,64549,1,0,0:0:0:0:
109,192,64662,128,0,64888:0:0:0:0:
402,192,64662,1,0,0:0:0:0:
329,192,64775,1,0,0:0:0:0:
402,192,64775,128,0,64888:0:0:0:0:
182,192,64888,1,0,0:0:0:0:
329,192,64888,128,0,65001:0:0:0:0:
109,192,65001,1,0,0:0:0:0:
182,192,65001,128,0,65113:0:0:0:0:
109,192,65113,128,0,65226:0:0:0:0:
109,192,65339,1,0,0:0:0:0:
36,192,65339,1,0,0:0:0:0:
182,192,65339,1,0,0:0:0:0:
329,192,65339,1,0,0:0:0:0:
256,192,65339,1,0,0:0:0:0:
475,192,65339,1,0,0:0:0:0:
402,192,65339,1,0,0:0:0:0:
329,192,65564,1,0,0:0:0:0:
182,192,65564,1,0,0:0:0:0:
182,192,65790,128,0,65903:0:0:0:0:
475,192,65790,128,0,65903:0:0:0:0:
36,192,65903,128,0,66128:0:0:0:0:
256,192,65903,128,0,66016:0:0:0:0:
109,192,66016,128,0,66241:0:0:0:0:
329,192,66016,128,0,66128:0:0:0:0:
182,192,66128,128,0,66354:0:0:0:0:
402,192,66128,128,0,66241:0:0:0:0:
256,192,66241,128,0,66467:0:0:0:0:
36,192,66241,128,0,66354:0:0:0:0:
475,192,66241,128,0,66354:0:0:0:0:
329,192,66354,128,0,66580:0:0:0:0:
109,192,66354,128,0,66467:0:0:0:0:
402,192,66467,128,0,66692:0:0:0:0:
182,192,66467,128,0,66580:0:0:0:0:
36,192,66580,1,0,0:0:0:0:
475,192,66580,128,0,66805:0:0:0:0:
256,192,66580,128,0,66692:0:0:0:0:
109,192,66692,1,0,0:0:0:0:
36,192,66692,128,0,66805:0:0:0:0:
329,192,66692,128,0,66805:0:0:0:0:
182,192,66805,1,0,0:0:0:0:
109,192,66805,128,0,66918:0:0:0:0:
402,192,66805,128,0,66918:0:0:0:0:
182,192,66918,128,0,67031:0:0:0:0:
475,192,66918,128,0,67031:0:0:0:0:
475,192,67143,1,0,0:0:0:0:
402,192,67143,1,0,0:0:0:0:
256,192,67143,1,0,0:0:0:0:
329,192,67143,1,0,0:0:0:0:
109,192,67143,1,0,0:0:0:0:
182,192,67143,1,0,0:0:0:0:
36,192,67143,1,0,0:0:0:0:
109,192,67369,1,0,0:0:0:0:
402,192,67369,1,0,0:0:0:0:
329,192,67595,128,0,67707:0:0:0:0:
36,192,67595,128,0,67707:0:0:0:0:
475,192,67707,128,0,67933:0:0:0:0:
256,192,67707,128,0,67820:0:0:0:0:
402,192,67820,128,0,68046:0:0:0:0:
182,192,67820,128,0,67933:0:0:0:0:
329,192,67933,128,0,68158:0:0:0:0:
109,192,67933,128,0,68046:0:0:0:0:
256,192,68046,128,0,68271:0:0:0:0:
475,192,68046,128,0,68158:0:0:0:0:
36,192,68046,128,0,68158:0:0:0:0:
182,192,68158,128,0,68384:0:0:0:0:
402,192,68158,128,0,68271:0:0:0:0:
109,192,68271,128,0,68497:0:0:0:0:
329,192,68271,128,0,68384:0:0:0:0:
475,192,68384,1,0,0:0:0:0:
36,192,68384,128,0,68610:0:0:0:0:
256,192,68384,128,0,68497:0:0:0:0:
402,192,68497,1,0,0:0:0:0:
475,192,68497,128,0,68610:0:0:0:0:
182,192,68497,128,0,68610:0:0:0:0:
329,192,68610,1,0,0:0:0:0:
402,192,68610,128,0,68722:0:0:0:0:
109,192,68610,128,0,68722:0:0:0:0:
329,192,68722,128,0,68835:0:0:0:0:
36,192,68722,128,0,68835:0:0:0:0:
109,192,68948,1,0,0:0:0:0:
36,192,68948,1,0,0:0:0:0:
475,192,68948,1,0,0:0:0:0:
402,192,68948,1,0,0:0:0:0:
256,192,69061,1,0,0:0:0:0:
329,192,69061,1,0,0:0:0:0:
182,192,69061,1,0,0:0:0:0:
109,192,69173,1,0,0:0:0:0:
36,192,69173,1,0,0:0:0:0:
402,192,69173,1,0,0:0:0:0:
475,192,69173,1,0,0:0:0:0:
256,192,69286,1,0,0:0:0:0:
182,192,69286,1,0,0:0:0:0:
329,192,69286,1,0,0:0:0:0:
36,192,69399,1,0,0:0:0:0:
475,192,69399,1,0,0:0:0:0:
109,192,69399,1,0,0:0:0:0:
402,192,69399,1,0,0:0:0:0:
256,192,69512,1,0,0:0:0:0:
329,192,69512,1,0,0:0:0:0:
182,192,69512,1,0,0:0:0:0:
36,192,69625,1,0,0:0:0:0:
475,192,69625,1,0,0:0:0:0:
109,192,69625,1,0,0:0:0:0:
402,192,69625,1,0,0:0:0:0:
256,192,69737,1,0,0:0:0:0:
182,192,69737,1,0,0:0:0:0:
329,192,69737,1,0,0:0:0:0:
109,192,69850,1,0,0:0:0:0:
402,192,69850,1,0,0:0:0:0:
36,192,69850,1,0,0:0:0:0:
475,192,69850,1,0,0:0:0:0:
182,192,69963,1,0,0:0:0:0:
329,192,69963,1,0,0:0:0:0:
256,192,69963,1,0,0:0:0:0:
109,192,70076,1,0,0:0:0:0:
402,192,70076,1,0,0:0:0:0:
36,192,70076,1,0,0:0:0:0:
475,192,70076,1,0,0:0:0:0:
329,192,70189,1,0,0:0:0:0:
182,192,70189,1,0,0:0:0:0:
256,192,70189,1,0,0:0:0:0:
36,192,70301,1,0,0:0:0:0:
475,192,70301,1,0,0:0:0:0:
109,192,70301,1,0,0:0:0:0:
402,192,70301,1,0,0:0:0:0:
256,192,70414,1,0,0:0:0:0:
329,192,70414,1,0,0:0:0:0:
182,192,70414,1,0,0:0:0:0:
36,192,70527,1,0,0:0:0:0:
475,192,70527,1,0,0:0:0:0:
109,192,70527,1,0,0:0:0:0:
402,192,70527,1,0,0:0:0:0:
256,192,70640,1,0,0:0:0:0:
182,192,70640,1,0,0:0:0:0:
329,192,70640,1,0,0:0:0:0:
402,192,70752,128,0,70865:0:0:0:0:
475,192,70752,128,0,70865:0:0:0:0:
109,192,70752,128,0,70865:0:0:0:0:
36,192,70752,128,0,70865:0:0:0:0:
256,192,70865,128,0,70978:0:0:0:0:
182,192,70865,128,0,70978:0:0:0:0:
329,192,70865,128,0,70978:0:0:0:0:
475,192,70978,128,0,71091:0:0:0:0:
402,192,70978,128,0,71091:0:0:0:0:
109,192,70978,128,0,71091:0:0:0:0:
36,192,70978,128,0,71091:0:0:0:0:
329,192,71091,128,0,71204:0:0:0:0:
256,192,71091,128,0,71204:0:0:0:0:
182,192,71091,128,0,71204:0:0:0:0:
109,192,71204,128,0,71316:0:0:0:0:
475,192,71204,128,0,71316:0:0:0:0:
36,192,71204,128,0,71316:0:0:0:0:
402,192,71204,128,0,71316:0:0:0:0:
182,192,71316,128,0,71429:0:0:0:0:
256,192,71316,128,0,71429:0:0:0:0:
329,192,71316,128,0,71429:0:0:0:0:
109,192,71429,128,0,71542:0:0:0:0:
475,192,71429,128,0,71542:0:0:0:0:
36,192,71429,128,0,71542:0:0:0:0:
402,192,71429,128,0,71542:0:0:0:0:
329,192,71542,128,0,71655:0:0:0:0:
182,192,71542,128,0,71655:0:0:0:0:
256,192,71542,128,0,71655:0:0:0:0:
109,192,71655,1,0,0:0:0:0:
36,192,71655,1,0,0:0:0:0:
475,192,71655,1,0,0:0:0:0:
402,192,71655,1,0,0:0:0:0:
256,192,71880,1,0,0:0:0:0:
329,192,72106,1,0,0:0:0:0:
182,192,72219,1,0,0:0:0:0:
329,192,72331,1,0,0:0:0:0:
256,192,72557,128,0,72783:0:0:0:0:
36,192,72557,128,0,72670:0:0:0:0:
402,192,72557,128,0,72895:0:0:0:0:
475,192,72557,1,0,0:0:0:0:
109,192,72670,128,0,72783:0:0:0:0:
182,192,72783,128,0,72895:0:0:0:0:
329,192,72783,1,0,0:0:0:0:
256,192,72895,128,0,73008:0:0:0:0:
329,192,73008,128,0,73234:0:0:0:0:
109,192,73008,128,0,73121:0:0:0:0:
402,192,73008,1,0,0:0:0:0:
475,192,73008,128,0,73346:0:0:0:0:
182,192,73121,128,0,73234:0:0:0:0:
256,192,73234,128,0,73346:0:0:0:0:
36,192,73234,1,0,0:0:0:0:
329,192,73346,128,0,73459:0:0:0:0:
182,192,73459,128,0,73572:0:0:0:0:
402,192,73459,128,0,73685:0:0:0:0:
36,192,73459,128,0,73798:0:0:0:0:
475,192,73459,1,0,0:0:0:0:
256,192,73572,128,0,73685:0:0:0:0:
329,192,73685,128,0,73798:0:0:0:0:
109,192,73685,1,0,0:0:0:0:
402,192,73798,128,0,73910:0:0:0:0:
256,192,73910,128,0,74023:0:0:0:0:
475,192,73910,128,0,74136:0:0:0:0:
109,192,73910,128,0,74249:0:0:0:0:
36,192,73910,1,0,0:0:0:0:
329,192,74023,128,0,74136:0:0:0:0:
402,192,74136,128,0,74249:0:0:0:0:
182,192,74136,1,0,0:0:0:0:
475,192,74249,1,0,0:0:0:0:
475,192,74361,128,0,74474:0:0:0:0:
256,192,74361,128,0,74587:0:0:0:0:
109,192,74361,128,0,74700:0:0:0:0:
36,192,74361,1,0,0:0:0:0:
402,192,74474,128,0,74587:0:0:0:0:
329,192,74587,128,0,74700:0:0:0:0:
182,192,74587,1,0,0:0:0:0:
256,192,74700,128,0,74813:0:0:0:0:
402,192,74813,128,0,74925:0:0:0:0:
182,192,74813,128,0,75038:0:0:0:0:
36,192,74813,128,0,75151:0:0:0:0:
109,192,74813,1,0,0:0:0:0:
329,192,74925,128,0,75038:0:0:0:0:
256,192,75038,128,0,75151:0:0:0:0:
475,192,75038,1,0,0:0:0:0:
182,192,75151,128,0,75264:0:0:0:0:
329,192,75264,128,0,75376:0:0:0:0:
109,192,75264,128,0,75489:0:0:0:0:
475,192,75264,128,0,75602:0:0:0:0:
36,192,75264,1,0,0:0:0:0:
256,192,75376,128,0,75489:0:0:0:0:
182,192,75489,128,0,75602:0:0:0:0:
402,192,75489,1,0,0:0:0:0:
109,192,75602,128,0,75715:0:0:0:0:
256,192,75715,128,0,75828:0:0:0:0:
36,192,75715,128,0,75940:0:0:0:0:
402,192,75715,128,0,76053:0:0:0:0:
475,192,75715,1,0,0:0:0:0:
182,192,75828,128,0,75940:0:0:0:0:
329,192,75940,1,0,0:0:0:0:
109,192,75940,128,0,76053:0:0:0:0:
36,192,76053,1,0,0:0:0:0:
256,192,76166,128,0,76392:0:0:0:0:
36,192,76166,128,0,76279:0:0:0:0:
402,192,76166,128,0,76504:0:0:0:0:
475,192,76166,1,0,0:0:0:0:
109,192,76279,128,0,76392:0:0:0:0:
182,192,76392,128,0,76504:0:0:0:0:
329,192,76392,1,0,0:0:0:0:
256,192,76504,128,0,76617:0:0:0:0:
329,192,76617,128,0,76843:0:0:0:0:
109,192,76617,128,0,76730:0:0:0:0:
402,192,76617,1,0,0:0:0:0:
475,192,76617,128,0,76955:0:0:0:0:
182,192,76730,128,0,76843:0:0:0:0:
256,192,76843,128,0,76955:0:0:0:0:
36,192,76843,1,0,0:0:0:0:
329,192,76955,128,0,77068:0:0:0:0:
182,192,77068,128,0,77181:0:0:0:0:
402,192,77068,128,0,77294:0:0:0:0:
36,192,77068,128,0,77407:0:0:0:0:
475,192,77068,1,0,0:0:0:0:
256,192,77181,128,0,77294:0:0:0:0:
329,192,77294,128,0,77407:0:0:0:0:
109,192,77294,1,0,0:0:0:0:
402,192,77407,128,0,77519:0:0:0:0:
256,192,77519,128,0,77632:0:0:0:0:
475,192,77519,128,0,77745:0:0:0:0:
109,192,77519,128,0,77858:0:0:0:0:
36,192,77519,1,0,0:0:0:0:
329,192,77632,128,0,77745:0:0:0:0:
402,192,77745,128,0,77858:0:0:0:0:
182,192,77745,1,0,0:0:0:0:
475,192,77858,1,0,0:0:0:0:
475,192,77970,128,0,78083:0:0:0:0:
256,192,77970,128,0,78196:0:0:0:0:
109,192,77970,128,0,78309:0:0:0:0:
36,192,77970,1,0,0:0:0:0:
402,192,78083,128,0,78196:0:0:0:0:
329,192,78196,128,0,78309:0:0:0:0:
182,192,78196,1,0,0:0:0:0:
256,192,78309,128,0,78422:0:0:0:0:
402,192,78422,128,0,78534:0:0:0:0:
182,192,78422,128,0,78647:0:0:0:0:
36,192,78422,128,0,78760:0:0:0:0:
109,192,78422,1,0,0:0:0:0:
329,192,78534,128,0,78647:0:0:0:0:
256,192,78647,128,0,78760:0:0:0:0:
475,192,78647,1,0,0:0:0:0:
182,192,78760,128,0,78873:0:0:0:0:
329,192,78873,128,0,78986:0:0:0:0:
109,192,78873,128,0,79098:0:0:0:0:
475,192,78873,128,0,79211:0:0:0:0:
36,192,78873,1,0,0:0:0:0:
256,192,78986,128,0,79098:0:0:0:0:
182,192,79098,128,0,79211:0:0:0:0:
402,192,79098,1,0,0:0:0:0:
109,192,79211,128,0,79324:0:0:0:0:
256,192,79324,128,0,79437:0:0:0:0:
36,192,79324,128,0,79549:0:0:0:0:
402,192,79324,128,0,79662:0:0:0:0:
475,192,79324,1,0,0:0:0:0:
182,192,79437,128,0,79549:0:0:0:0:
329,192,79549,1,0,0:0:0:0:
109,192,79549,128,0,79662:0:0:0:0:
36,192,79662,1,0,0:0:0:0:
36,192,79775,128,0,80226:0:0:0:0:
402,192,79775,128,0,79888:0:0:0:0:
475,192,79775,128,0,79888:0:0:0:0:
182,192,79775,128,0,79888:0:0:0:0:
256,192,79775,1,0,0:0:0:0:
329,192,79888,128,0,80001:0:0:0:0:
109,192,79888,128,0,80001:0:0:0:0:
256,192,80001,128,0,80113:0:0:0:0:
475,192,80001,128,0,80113:0:0:0:0:
402,192,80113,128,0,80226:0:0:0:0:
109,192,80113,128,0,80226:0:0:0:0:
182,192,80226,128,0,80677:0:0:0:0:
329,192,80226,128,0,80339:0:0:0:0:
256,192,80226,1,0,0:0:0:0:
402,192,80339,128,0,80452:0:0:0:0:
109,192,80339,128,0,80452:0:0:0:0:
475,192,80452,128,0,80564:0:0:0:0:
256,192,80452,128,0,80564:0:0:0:0:
329,192,80564,128,0,80677:0:0:0:0:
109,192,80564,128,0,80677:0:0:0:0:
36,192,80677,128,0,81128:0:0:0:0:
256,192,80677,1,0,0:0:0:0:
402,192,80677,128,0,80790:0:0:0:0:
475,192,80677,128,0,80790:0:0:0:0:
329,192,80790,128,0,80903:0:0:0:0:
182,192,80790,128,0,80903:0:0:0:0:
109,192,80903,128,0,81016:0:0:0:0:
256,192,80903,128,0,81016:0:0:0:0:
475,192,81016,128,0,81128:0:0:0:0:
402,192,81016,128,0,81128:0:0:0:0:
182,192,81128,128,0,81580:0:0:0:0:
256,192,81128,1,0,0:0:0:0:
329,192,81128,128,0,81241:0:0:0:0:
109,192,81128,128,0,81241:0:0:0:0:
402,192,81241,128,0,81354:0:0:0:0:
475,192,81241,128,0,81354:0:0:0:0:
256,192,81354,128,0,81467:0:0:0:0:
36,192,81354,128,0,81467:0:0:0:0:
109,192,81467,128,0,81580:0:0:0:0:
329,192,81467,128,0,81580:0:0:0:0:
475,192,81580,128,0,82031:0:0:0:0:
256,192,81580,1,0,0:0:0:0:
402,192,81580,128,0,81805:0:0:0:0:
36,192,81580,128,0,81692:0:0:0:0:
256,192,81692,128,0,81805:0:0:0:0:
329,192,81692,128,0,81805:0:0:0:0:
109,192,81805,1,0,0:0:0:0:
36,192,81805,128,0,82031:0:0:0:0:
109,192,81918,128,0,82031:0:0:0:0:
402,192,81918,128,0,82031:0:0:0:0:
329,192,82031,128,0,82482:0:0:0:0:
182,192,82031,1,0,0:0:0:0:
256,192,82031,128,0,82256:0:0:0:0:
182,192,82143,128,0,82256:0:0:0:0:
475,192,82143,128,0,82256:0:0:0:0:
36,192,82256,1,0,0:0:0:0:
109,192,82256,128,0,82482:0:0:0:0:
36,192,82369,128,0,82482:0:0:0:0:
256,192,82369,128,0,82482:0:0:0:0:
475,192,82482,128,0,82933:0:0:0:0:
402,192,82482,1,0,0:0:0:0:
182,192,82482,128,0,82707:0:0:0:0:
402,192,82595,128,0,82707:0:0:0:0:
256,192,82595,128,0,82707:0:0:0:0:
109,192,82707,1,0,0:0:0:0:
329,192,82707,128,0,82820:0:0:0:0:
109,192,82820,128,0,82933:0:0:0:0:
36,192,82820,128,0,82933:0:0:0:0:
329,192,82933,128,0,83384:0:0:0:0:
256,192,82933,1,0,0:0:0:0:
402,192,82933,128,0,83158:0:0:0:0:
256,192,83046,128,0,83158:0:0:0:0:
109,192,83046,128,0,83158:0:0:0:0:
182,192,83158,1,0,0:0:0:0:
36,192,83158,128,0,83384:0:0:0:0:
182,192,83271,128,0,83384:0:0:0:0:
475,192,83271,128,0,83384:0:0:0:0:
109,192,83384,1,0,0:0:0:0:
256,192,83384,1,0,0:0:0:0:
109,192,83497,128,0,83610:0:0:0:0:
256,192,83497,128,0,83610:0:0:0:0:
182,192,83610,1,0,0:0:0:0:
329,192,83610,1,0,0:0:0:0:
182,192,83722,128,0,83835:0:0:0:0:
329,192,83722,128,0,83835:0:0:0:0:
256,192,83835,1,0,0:0:0:0:
109,192,83835,1,0,0:0:0:0:
109,192,83948,128,0,84061:0:0:0:0:
256,192,83948,128,0,84061:0:0:0:0:
182,192,84061,1,0,0:0:0:0:
329,192,84061,1,0,0:0:0:0:
182,192,84173,128,0,84286:0:0:0:0:
329,192,84173,128,0,84286:0:0:0:0:
256,192,84286,1,0,0:0:0:0:
402,192,84286,1,0,0:0:0:0:
256,192,84399,128,0,84512:0:0:0:0:
402,192,84399,128,0,84512:0:0:0:0:
182,192,84512,1,0,0:0:0:0:
329,192,84512,1,0,0:0:0:0:
329,192,84625,128,0,84737:0:0:0:0:
182,192,84625,128,0,84737:0:0:0:0:
256,192,84737,1,0,0:0:0:0:
402,192,84737,1,0,0:0:0:0:
256,192,84850,128,0,84963:0:0:0:0:
402,192,84850,128,0,84963:0:0:0:0:
182,192,84963,1,0,0:0:0:0:
329,192,84963,1,0,0:0:0:0:
329,192,85076,128,0,85189:0:0:0:0:
182,192,85076,128,0,85189:0:0:0:0:
36,192,85189,128,0,85245:0:0:0:0:
109,192,85189,128,0,85245:0:0:0:0:
256,192,85189,1,0,0:0:0:0:
109,192,85301,128,0,85358:0:0:0:0:
36,192,85301,128,0,85358:0:0:0:0:
402,192,85414,128,0,85470:0:0:0:0:
475,192,85414,128,0,85470:0:0:0:0:
402,192,85527,128,0,85583:0:0:0:0:
475,192,85527,128,0,85583:0:0:0:0:
109,192,85640,128,0,85696:0:0:0:0:
36,192,85640,128,0,85696:0:0:0:0:
256,192,85640,1,0,0:0:0:0:
36,192,85752,128,0,85809:0:0:0:0:
109,192,85752,128,0,85809:0:0:0:0:
402,192,85865,128,0,85922:0:0:0:0:
475,192,85865,128,0,85922:0:0:0:0:
402,192,85978,128,0,86034:0:0:0:0:
475,192,85978,128,0,86034:0:0:0:0:
109,192,86091,128,0,86147:0:0:0:0:
36,192,86091,128,0,86147:0:0:0:0:
256,192,86091,1,0,0:0:0:0:
36,192,86204,128,0,86260:0:0:0:0:
109,192,86204,128,0,86260:0:0:0:0:
402,192,86316,128,0,86373:0:0:0:0:
475,192,86316,128,0,86373:0:0:0:0:
402,192,86429,128,0,86486:0:0:0:0:
475,192,86429,128,0,86486:0:0:0:0:
36,192,86542,1,0,0:0:0:0:
329,192,86542,1,0,0:0:0:0:
182,192,86542,1,0,0:0:0:0:
109,192,86655,1,0,0:0:0:0:
256,192,86655,1,0,0:0:0:0:
402,192,86655,1,0,0:0:0:0:
182,192,86767,1,0,0:0:0:0:
329,192,86767,1,0,0:0:0:0:
475,192,86767,1,0,0:0:0:0:
402,192,86880,1,0,0:0:0:0:
256,192,86880,1,0,0:0:0:0:
109,192,86880,1,0,0:0:0:0:
329,192,86993,1,0,0:0:0:0:
182,192,86993,128,0,87162:0:0:0:0:
36,192,86993,128,0,87388:0:0:0:0:
182,192,87219,1,0,0:0:0:0:
402,192,87219,1,0,0:0:0:0:
256,192,87219,128,0,87388:0:0:0:0:
475,192,87219,128,0,87613:0:0:0:0:
36,192,87444,1,0,0:0:0:0:
256,192,87444,1,0,0:0:0:0:
402,192,87444,128,0,87613:0:0:0:0:
182,192,87444,128,0,87839:0:0:0:0:
475,192,87670,1,0,0:0:0:0:
402,192,87670,1,0,0:0:0:0:
109,192,87670,128,0,87839:0:0:0:0:
329,192,87670,128,0,88064:0:0:0:0:
36,192,87895,1,0,0:0:0:0:
109,192,87895,1,0,0:0:0:0:
256,192,87895,128,0,88064:0:0:0:0:
475,192,87895,128,0,88290:0:0:0:0:
36,192,88121,1,0,0:0:0:0:
329,192,88121,1,0,0:0:0:0:
109,192,88121,128,0,88516:0:0:0:0:
402,192,88121,128,0,88290:0:0:0:0:
182,192,88346,1,0,0:0:0:0:
475,192,88346,1,0,0:0:0:0:
256,192,88346,128,0,88516:0:0:0:0:
329,192,88346,128,0,88741:0:0:0:0:
256,192,88572,1,0,0:0:0:0:
109,192,88572,1,0,0:0:0:0:
475,192,88572,1,0,0:0:0:0:
402,192,88572,128,0,88741:0:0:0:0:
256,192,88798,128,0,89080:0:0:0:0:
329,192,88798,128,0,88854:0:0:0:0:
475,192,88798,128,0,88854:0:0:0:0:
36,192,88798,128,0,88854:0:0:0:0:
109,192,89023,128,0,89305:0:0:0:0:
182,192,89023,128,0,89080:0:0:0:0:
329,192,89023,128,0,89080:0:0:0:0:
402,192,89023,128,0,89080:0:0:0:0:
36,192,89249,128,0,89305:0:0:0:0:
182,192,89249,128,0,89531:0:0:0:0:
256,192,89249,128,0,89305:0:0:0:0:
402,192,89249,128,0,89305:0:0:0:0:
109,192,89474,128,0,89531:0:0:0:0:
256,192,89474,128,0,89531:0:0:0:0:
329,192,89474,128,0,89756:0:0:0:0:
475,192,89474,128,0,89531:0:0:0:0:
256,192,89700,128,0,89756:0:0:0:0:
402,192,89700,128,0,89756:0:0:0:0:
182,192,89700,128,0,89756:0:0:0:0:
36,192,89700,128,0,89982:0:0:0:0:
109,192,89925,128,0,89982:0:0:0:0:
256,192,89925,128,0,89982:0:0:0:0:
402,192,89925,128,0,89982:0:0:0:0:
475,192,89925,128,0,90207:0:0:0:0:
402,192,90151,128,0,90207:0:0:0:0:
329,192,90151,128,0,90207:0:0:0:0:
182,192,90151,128,0,90433:0:0:0:0:
109,192,90151,128,0,90207:0:0:0:0:
36,192,90376,128,0,90433:0:0:0:0:
256,192,90376,128,0,90433:0:0:0:0:
329,192,90376,128,0,90433:0:0:0:0:
475,192,90376,128,0,90433:0:0:0:0:
182,192,90602,1,0,0:0:0:0:
329,192,90602,128,0,90771:0:0:0:0:
475,192,90602,128,0,90997:0:0:0:0:
402,192,90715,1,0,0:0:0:0:
329,192,90828,1,0,0:0:0:0:
109,192,90828,1,0,0:0:0:0:
256,192,90828,128,0,90997:0:0:0:0:
36,192,90828,128,0,91222:0:0:0:0:
182,192,90940,1,0,0:0:0:0:
109,192,91053,128,0,91222:0:0:0:0:
329,192,91053,128,0,91448:0:0:0:0:
402,192,91053,1,0,0:0:0:0:
256,192,91053,1,0,0:0:0:0:
475,192,91166,1,0,0:0:0:0:
36,192,91279,1,0,0:0:0:0:
402,192,91279,128,0,91448:0:0:0:0:
182,192,91279,128,0,91673:0:0:0:0:
256,192,91279,1,0,0:0:0:0:
109,192,91392,1,0,0:0:0:0:
475,192,91504,1,0,0:0:0:0:
402,192,91504,1,0,0:0:0:0:
256,192,91504,128,0,91673:0:0:0:0:
36,192,91504,128,0,91899:0:0:0:0:
329,192,91617,1,0,0:0:0:0:
475,192,91730,1,0,0:0:0:0:
182,192,91730,1,0,0:0:0:0:
402,192,91730,128,0,92125:0:0:0:0:
109,192,91730,128,0,91899:0:0:0:0:
329,192,91843,1,0,0:0:0:0:
475,192,91955,1,0,0:0:0:0:
36,192,91955,1,0,0:0:0:0:
256,192,91955,128,0,92125:0:0:0:0:
182,192,91955,128,0,92350:0:0:0:0:
329,192,92068,1,0,0:0:0:0:
256,192,92181,1,0,0:0:0:0:
402,192,92181,1,0,0:0:0:0:
36,192,92181,1,0,0:0:0:0:
109,192,92181,128,0,92350:0:0:0:0:
329,192,92294,1,0,0:0:0:0:
256,192,92407,128,0,92689:0:0:0:0:
182,192,92407,128,0,92463:0:0:0:0:
36,192,92407,128,0,92689:0:0:0:0:
475,192,92407,128,0,92463:0:0:0:0:
402,192,92632,128,0,92914:0:0:0:0:
329,192,92632,128,0,92689:0:0:0:0:
182,192,92632,128,0,92689:0:0:0:0:
109,192,92632,128,0,92689:0:0:0:0:
475,192,92858,128,0,92914:0:0:0:0:
329,192,92858,128,0,93140:0:0:0:0:
256,192,92858,128,0,92914:0:0:0:0:
109,192,92858,128,0,93140:0:0:0:0:
402,192,93083,128,0,93365:0:0:0:0:
256,192,93083,128,0,93140:0:0:0:0:
182,192,93083,128,0,93365:0:0:0:0:
36,192,93083,128,0,93140:0:0:0:0:
256,192,93309,128,0,93365:0:0:0:0:
109,192,93309,128,0,93365:0:0:0:0:
329,192,93309,128,0,93591:0:0:0:0:
475,192,93309,128,0,93591:0:0:0:0:
402,192,93534,128,0,93591:0:0:0:0:
256,192,93534,128,0,93816:0:0:0:0:
109,192,93534,128,0,93591:0:0:0:0:
36,192,93534,128,0,93816:0:0:0:0:
109,192,93760,128,0,93816:0:0:0:0:
182,192,93760,128,0,93816:0:0:0:0:
329,192,93760,128,0,94042:0:0:0:0:
402,192,93760,128,0,93816:0:0:0:0:
182,192,93873,128,0,93929:0:0:0:0:
109,192,93873,128,0,93929:0:0:0:0:
402,192,93986,128,0,94042:0:0:0:0:
475,192,93986,128,0,94042:0:0:0:0:
256,192,93986,128,0,94042:0:0:0:0:
36,192,93986,128,0,94042:0:0:0:0:
256,192,94211,128,0,94437:0:0:0:0:
36,192,94211,128,0,94888:0:0:0:0:
329,192,94211,1,0,0:0:0:0:
109,192,94211,1,0,0:0:0:0:
109,192,94437,128,0,94662:0:0:0:0:
329,192,94437,128,0,94662:0:0:0:0:
182,192,94437,1,0,0:0:0:0:
402,192,94437,1,0,0:0:0:0:
475,192,94662,128,0,95339:0:0:0:0:
256,192,94662,128,0,94888:0:0:0:0:
182,192,94662,1,0,0:0:0:0:
402,192,94662,1,0,0:0:0:0:
109,192,94888,1,0,0:0:0:0:
329,192,94888,1,0,0:0:0:0:
182,192,94888,128,0,95113:0:0:0:0:
402,192,94888,128,0,95113:0:0:0:0:
109,192,95113,1,0,0:0:0:0:
329,192,95113,1,0,0:0:0:0:
256,192,95113,128,0,95339:0:0:0:0:
36,192,95113,128,0,95790:0:0:0:0:
182,192,95339,1,0,0:0:0:0:
402,192,95339,1,0,0:0:0:0:
109,192,95339,128,0,95564:0:0:0:0:
329,192,95339,128,0,95564:0:0:0:0:
182,192,95564,1,0,0:0:0:0:
402,192,95564,1,0,0:0:0:0:
256,192,95564,128,0,95790:0:0:0:0:
475,192,95564,128,0,96016:0:0:0:0:
182,192,95790,1,0,0:0:0:0:
109,192,95790,1,0,0:0:0:0:
402,192,95790,128,0,96016:0:0:0:0:
329,192,95790,128,0,96016:0:0:0:0:
109,192,96016,1,0,0:0:0:0:
182,192,96016,1,0,0:0:0:0:
256,192,96016,1,0,0:0:0:0:
36,192,96016,128,0,97143:0:0:0:0:
256,192,96241,1,0,0:0:0:0:
329,192,96241,1,0,0:0:0:0:
182,192,96241,1,0,0:0:0:0:
109,192,96241,128,0,96918:0:0:0:0:
256,192,96467,1,0,0:0:0:0:
329,192,96467,1,0,0:0:0:0:
402,192,96467,1,0,0:0:0:0:
182,192,96467,128,0,96692:0:0:0:0:
256,192,96692,1,0,0:0:0:0:
329,192,96692,1,0,0:0:0:0:
402,192,96692,1,0,0:0:0:0:
475,192,96692,128,0,97820:0:0:0:0:
329,192,96918,1,0,0:0:0:0:
256,192,96918,1,0,0:0:0:0:
182,192,96918,1,0,0:0:0:0:
402,192,96918,128,0,97595:0:0:0:0:
109,192,97143,1,0,0:0:0:0:
182,192,97143,1,0,0:0:0:0:
256,192,97143,1,0,0:0:0:0:
329,192,97143,128,0,97369:0:0:0:0:
256,192,97369,1,0,0:0:0:0:
182,192,97369,1,0,0:0:0:0:
109,192,97369,1,0,0:0:0:0:
36,192,97369,128,0,97820:0:0:0:0:
182,192,97595,1,0,0:0:0:0:
256,192,97595,1,0,0:0:0:0:
329,192,97595,1,0,0:0:0:0:
109,192,97595,128,0,97820:0:0:0:0:
402,192,97820,1,0,0:0:0:0:
182,192,97820,1,0,0:0:0:0:
329,192,97820,1,0,0:0:0:0:
256,192,97820,1,0,0:0:0:0:
109,192,97933,1,0,0:0:0:0:
36,192,97933,1,0,0:0:0:0:
182,192,98046,1,0,0:0:0:0:
256,192,98046,1,0,0:0:0:0:
329,192,98046,1,0,0:0:0:0:
402,192,98046,1,0,0:0:0:0:
109,192,98158,1,0,0:0:0:0:
36,192,98158,1,0,0:0:0:0:
182,192,98271,1,0,0:0:0:0:
329,192,98271,1,0,0:0:0:0:
256,192,98271,1,0,0:0:0:0:
402,192,98384,1,0,0:0:0:0:
475,192,98384,1,0,0:0:0:0:
256,192,98497,1,0,0:0:0:0:
109,192,98497,1,0,0:0:0:0:
182,192,98497,1,0,0:0:0:0:
329,192,98497,1,0,0:0:0:0:
475,192,98610,1,0,0:0:0:0:
402,192,98610,1,0,0:0:0:0:
256,192,98722,1,0,0:0:0:0:
182,192,98722,1,0,0:0:0:0:
329,192,98722,1,0,0:0:0:0:
109,192,98835,1,0,0:0:0:0:
36,192,98835,1,0,0:0:0:0:
329,192,98948,1,0,0:0:0:0:
256,192,98948,1,0,0:0:0:0:
182,192,98948,1,0,0:0:0:0:
402,192,98948,1,0,0:0:0:0:
109,192,99061,1,0,0:0:0:0:
36,192,99061,1,0,0:0:0:0:
182,192,99173,1,0,0:0:0:0:
329,192,99173,1,0,0:0:0:0:
256,192,99173,1,0,0:0:0:0:
475,192,99286,1,0,0:0:0:0:
402,192,99286,1,0,0:0:0:0:
256,192,99399,1,0,0:0:0:0:
329,192,99399,1,0,0:0:0:0:
182,192,99399,1,0,0:0:0:0:
109,192,99399,1,0,0:0:0:0:
402,192,99512,1,0,0:0:0:0:
475,192,99512,1,0,0:0:0:0:
329,192,99625,128,0,99850:0:0:0:0:
256,192,99625,128,0,99737:0:0:0:0:
109,192,99625,128,0,99737:0:0:0:0:
182,192,99625,128,0,99737:0:0:0:0:
36,192,99625,128,0,99737:0:0:0:0:
402,192,99737,128,0,99850:0:0:0:0:
475,192,99737,128,0,99963:0:0:0:0:
256,192,99850,128,0,100076:0:0:0:0:
182,192,99850,128,0,99963:0:0:0:0:
109,192,99850,128,0,99963:0:0:0:0:
36,192,99850,128,0,99963:0:0:0:0:
329,192,99963,128,0,100076:0:0:0:0:
402,192,99963,128,0,100189:0:0:0:0:
475,192,100076,128,0,100189:0:0:0:0:
182,192,100076,128,0,100301:0:0:0:0:
109,192,100076,128,0,100189:0:0:0:0:
36,192,100076,128,0,100189:0:0:0:0:
256,192,100189,128,0,100301:0:0:0:0:
329,192,100189,128,0,100414:0:0:0:0:
402,192,100301,128,0,100414:0:0:0:0:
475,192,100301,128,0,100414:0:0:0:0:
109,192,100301,128,0,100527:0:0:0:0:
36,192,100301,128,0,100414:0:0:0:0:
182,192,100414,128,0,100527:0:0:0:0:
256,192,100414,128,0,100640:0:0:0:0:
329,192,100527,128,0,100640:0:0:0:0:
402,192,100527,128,0,100640:0:0:0:0:
475,192,100527,128,0,100640:0:0:0:0:
36,192,100527,128,0,100752:0:0:0:0:
182,192,100640,128,0,100865:0:0:0:0:
109,192,100640,128,0,100752:0:0:0:0:
256,192,100752,128,0,100865:0:0:0:0:
329,192,100752,128,0,100865:0:0:0:0:
402,192,100752,128,0,100865:0:0:0:0:
475,192,100752,128,0,100978:0:0:0:0:
109,192,100865,128,0,101091:0:0:0:0:
36,192,100865,128,0,100978:0:0:0:0:
329,192,100978,128,0,101091:0:0:0:0:
402,192,100978,128,0,101204:0:0:0:0:
256,192,100978,128,0,101091:0:0:0:0:
182,192,100978,128,0,101091:0:0:0:0:
36,192,101091,128,0,101316:0:0:0:0:
475,192,101091,128,0,101204:0:0:0:0:
109,192,101204,128,0,101316:0:0:0:0:
182,192,101204,128,0,101316:0:0:0:0:
256,192,101204,128,0,101316:0:0:0:0:
329,192,101204,128,0,101316:0:0:0:0:
402,192,101316,1,0,0:0:0:0:
475,192,101316,1,0,0:0:0:0:
256,192,101429,128,0,101880:0:0:0:0:
182,192,101429,128,0,101542:0:0:0:0:
329,192,101429,128,0,101542:0:0:0:0:
109,192,101542,128,0,101655:0:0:0:0:
402,192,101542,128,0,101655:0:0:0:0:
36,192,101655,128,0,101767:0:0:0:0:
475,192,101655,128,0,101767:0:0:0:0:
109,192,101767,128,0,101880:0:0:0:0:
402,192,101767,128,0,101880:0:0:0:0:
36,192,101880,128,0,102331:0:0:0:0:
329,192,101880,128,0,101937:0:0:0:0:
182,192,101880,128,0,101937:0:0:0:0:
402,192,101993,128,0,102049:0:0:0:0:
256,192,101993,128,0,102049:0:0:0:0:
475,192,102106,128,0,102162:0:0:0:0:
182,192,102106,128,0,102162:0:0:0:0:
109,192,102219,128,0,102275:0:0:0:0:
402,192,102219,128,0,102275:0:0:0:0:
329,192,102331,128,0,102444:0:0:0:0:
182,192,102331,128,0,102783:0:0:0:0:
402,192,102444,128,0,102557:0:0:0:0:
256,192,102444,128,0,102557:0:0:0:0:
109,192,102557,128,0,102670:0:0:0:0:
329,192,102557,128,0,102670:0:0:0:0:
256,192,102670,128,0,102783:0:0:0:0:
402,192,102670,128,0,102783:0:0:0:0:
329,192,102783,128,0,103234:0:0:0:0:
109,192,102783,128,0,102839:0:0:0:0:
36,192,102783,128,0,102839:0:0:0:0:
256,192,102895,128,0,102952:0:0:0:0:
402,192,102895,128,0,102952:0:0:0:0:
182,192,103008,128,0,103064:0:0:0:0:
109,192,103008,128,0,103064:0:0:0:0:
256,192,103121,128,0,103177:0:0:0:0:
475,192,103121,128,0,103177:0:0:0:0:
109,192,103234,128,0,103685:0:0:0:0:
402,192,103234,128,0,103346:0:0:0:0:
36,192,103234,128,0,103346:0:0:0:0:
329,192,103346,128,0,103459:0:0:0:0:
182,192,103346,128,0,103459:0:0:0:0:
256,192,103459,128,0,103572:0:0:0:0:
402,192,103459,128,0,103572:0:0:0:0:
182,192,103572,128,0,103685:0:0:0:0:
329,192,103572,128,0,103685:0:0:0:0:
402,192,103685,128,0,104136:0:0:0:0:
256,192,103685,128,0,103741:0:0:0:0:
36,192,103685,128,0,103741:0:0:0:0:
109,192,103798,128,0,103854:0:0:0:0:
329,192,103798,128,0,103854:0:0:0:0:
182,192,103910,128,0,103967:0:0:0:0:
475,192,103910,128,0,103967:0:0:0:0:
256,192,104023,128,0,104080:0:0:0:0:
36,192,104023,128,0,104080:0:0:0:0:
109,192,104136,128,0,104587:0:0:0:0:
475,192,104136,128,0,104249:0:0:0:0:
182,192,104136,128,0,104249:0:0:0:0:
402,192,104249,128,0,104361:0:0:0:0:
256,192,104249,128,0,104361:0:0:0:0:
329,192,104361,128,0,104474:0:0:0:0:
475,192,104361,128,0,104474:0:0:0:0:
256,192,104474,128,0,104587:0:0:0:0:
402,192,104474,128,0,104587:0:0:0:0:
329,192,104587,128,0,104643:0:0:0:0:
182,192,104587,128,0,104643:0:0:0:0:
109,192,104700,128,0,104756:0:0:0:0:
256,192,104700,128,0,104756:0:0:0:0:
182,192,104813,128,0,104869:0:0:0:0:
36,192,104813,128,0,104869:0:0:0:0:
109,192,104925,128,0,104982:0:0:0:0:
256,192,104925,128,0,104982:0:0:0:0:
182,192,105038,128,0,105207:0:0:0:0:
402,192,105038,128,0,105320:0:0:0:0:
475,192,105038,128,0,105095:0:0:0:0:
256,192,105151,128,0,105207:0:0:0:0:
36,192,105151,128,0,105207:0:0:0:0:
329,192,105264,128,0,105320:0:0:0:0:
109,192,105264,128,0,105546:0:0:0:0:
402,192,105376,128,0,105433:0:0:0:0:
256,192,105376,128,0,105433:0:0:0:0:
329,192,105489,128,0,105546:0:0:0:0:
475,192,105489,128,0,105771:0:0:0:0:
109,192,105602,128,0,105658:0:0:0:0:
256,192,105602,128,0,105658:0:0:0:0:
402,192,105715,128,0,105771:0:0:0:0:
182,192,105715,128,0,105997:0:0:0:0:
329,192,105828,128,0,105884:0:0:0:0:
109,192,105828,128,0,105884:0:0:0:0:
256,192,105940,128,0,105997:0:0:0:0:
36,192,105940,128,0,105997:0:0:0:0:
402,192,105940,128,0,106222:0:0:0:0:
329,192,106053,128,0,106110:0:0:0:0:
182,192,106053,128,0,106110:0:0:0:0:
109,192,106166,128,0,106448:0:0:0:0:
256,192,106166,128,0,106222:0:0:0:0:
182,192,106279,128,0,106335:0:0:0:0:
402,192,106279,128,0,106335:0:0:0:0:
256,192,106392,128,0,106673:0:0:0:0:
329,192,106392,128,0,106448:0:0:0:0:
475,192,106392,128,0,106448:0:0:0:0:
182,192,106504,128,0,106561:0:0:0:0:
402,192,106504,128,0,106561:0:0:0:0:
329,192,106617,128,0,106899:0:0:0:0:
109,192,106617,128,0,106673:0:0:0:0:
256,192,106730,128,0,106786:0:0:0:0:
475,192,106730,128,0,106786:0:0:0:0:
36,192,106843,128,0,107125:0:0:0:0:
402,192,106843,128,0,106899:0:0:0:0:
182,192,106843,128,0,106899:0:0:0:0:
329,192,106955,128,0,107012:0:0:0:0:
109,192,106955,128,0,107012:0:0:0:0:
475,192,107068,128,0,107350:0:0:0:0:
256,192,107068,128,0,107125:0:0:0:0:
329,192,107181,128,0,107237:0:0:0:0:
109,192,107181,128,0,107237:0:0:0:0:
182,192,107294,128,0,107576:0:0:0:0:
402,192,107294,128,0,107350:0:0:0:0:
36,192,107294,128,0,107350:0:0:0:0:
109,192,107407,128,0,107463:0:0:0:0:
475,192,107407,128,0,107463:0:0:0:0:
36,192,107519,128,0,107745:0:0:0:0:
256,192,107519,128,0,107576:0:0:0:0:
182,192,107632,128,0,107689:0:0:0:0:
402,192,107632,128,0,107689:0:0:0:0:
329,192,107745,128,0,107858:0:0:0:0:
109,192,107745,128,0,107858:0:0:0:0:
402,192,107858,128,0,107970:0:0:0:0:
182,192,107858,128,0,107970:0:0:0:0:
36,192,107858,128,0,107914:0:0:0:0:
475,192,107970,128,0,108083:0:0:0:0:
256,192,107970,128,0,108083:0:0:0:0:
109,192,107970,128,0,108027:0:0:0:0:
36,192,108083,128,0,108196:0:0:0:0:
329,192,108083,128,0,108196:0:0:0:0:
182,192,108083,128,0,108140:0:0:0:0:
109,192,108196,128,0,108309:0:0:0:0:
402,192,108196,128,0,108309:0:0:0:0:
256,192,108196,128,0,108252:0:0:0:0:
182,192,108309,128,0,108422:0:0:0:0:
475,192,108309,128,0,108422:0:0:0:0:
329,192,108309,128,0,108365:0:0:0:0:
109,192,108422,128,0,108534:0:0:0:0:
402,192,108422,128,0,108534:0:0:0:0:
256,192,108422,128,0,108478:0:0:0:0:
36,192,108534,128,0,108647:0:0:0:0:
329,192,108534,128,0,108647:0:0:0:0:
182,192,108534,128,0,108591:0:0:0:0:
109,192,108647,128,0,108704:0:0:0:0:
475,192,108647,128,0,108986:0:0:0:0:
256,192,108647,128,0,108760:0:0:0:0:
182,192,108760,128,0,108986:0:0:0:0:
402,192,108760,128,0,108986:0:0:0:0:
329,192,108873,128,0,108986:0:0:0:0:
109,192,108873,128,0,108986:0:0:0:0:
36,192,108986,1,0,0:0:0:0:
256,192,108986,1,0,0:0:0:0:
109,192,109098,128,0,109211:0:0:0:0:
182,192,109098,128,0,109324:0:0:0:0:
329,192,109098,128,0,109211:0:0:0:0:
402,192,109098,128,0,109324:0:0:0:0:
475,192,109098,128,0,109437:0:0:0:0:
36,192,109211,1,0,0:0:0:0:
109,192,109324,1,0,0:0:0:0:
329,192,109324,1,0,0:0:0:0:
402,192,109437,1,0,0:0:0:0:
182,192,109437,1,0,0:0:0:0:
256,192,109549,128,0,109662:0:0:0:0:
36,192,109549,128,0,109888:0:0:0:0:
475,192,109549,1,0,0:0:0:0:
329,192,109662,128,0,109888:0:0:0:0:
109,192,109662,128,0,109888:0:0:0:0:
182,192,109775,128,0,109888:0:0:0:0:
402,192,109775,128,0,109888:0:0:0:0:
475,192,109888,1,0,0:0:0:0:
256,192,109888,1,0,0:0:0:0:
329,192,110001,128,0,110226:0:0:0:0:
182,192,110001,128,0,110113:0:0:0:0:
402,192,110001,128,0,110113:0:0:0:0:
109,192,110001,128,0,110226:0:0:0:0:
36,192,110001,128,0,110339:0:0:0:0:
475,192,110113,1,0,0:0:0:0:
402,192,110226,1,0,0:0:0:0:
182,192,110226,1,0,0:0:0:0:
109,192,110339,1,0,0:0:0:0:
329,192,110339,1,0,0:0:0:0:
475,192,110452,128,0,110790:0:0:0:0:
36,192,110452,128,0,110790:0:0:0:0:
256,192,110452,1,0,0:0:0:0:
109,192,110564,128,0,110790:0:0:0:0:
402,192,110564,128,0,110790:0:0:0:0:
329,192,110677,128,0,110790:0:0:0:0:
182,192,110677,128,0,110790:0:0:0:0:
256,192,110790,1,0,0:0:0:0:
182,192,110903,128,0,111016:0:0:0:0:
109,192,110903,128,0,111128:0:0:0:0:
329,192,110903,128,0,111016:0:0:0:0:
402,192,110903,128,0,111128:0:0:0:0:
475,192,110903,128,0,111241:0:0:0:0:
36,192,110903,128,0,111241:0:0:0:0:
256,192,111016,1,0,0:0:0:0:
182,192,111128,1,0,0:0:0:0:
329,192,111128,1,0,0:0:0:0:
402,192,111241,1,0,0:0:0:0:
109,192,111241,1,0,0:0:0:0:
475,192,111354,128,0,111692:0:0:0:0:
36,192,111354,128,0,111692:0:0:0:0:
256,192,111354,1,0,0:0:0:0:
109,192,111467,128,0,111692:0:0:0:0:
402,192,111467,128,0,111692:0:0:0:0:
329,192,111580,128,0,111692:0:0:0:0:
182,192,111580,128,0,111692:0:0:0:0:
256,192,111692,1,0,0:0:0:0:
182,192,111805,128,0,111918:0:0:0:0:
109,192,111805,128,0,112031:0:0:0:0:
329,192,111805,128,0,111918:0:0:0:0:
402,192,111805,128,0,112031:0:0:0:0:
475,192,111805,128,0,112143:0:0:0:0:
36,192,111805,128,0,112143:0:0:0:0:
256,192,111918,1,0,0:0:0:0:
182,192,112031,1,0,0:0:0:0:
329,192,112031,1,0,0:0:0:0:
402,192,112143,1,0,0:0:0:0:
109,192,112143,1,0,0:0:0:0:
36,192,112256,128,0,112369:0:0:0:0:
475,192,112256,128,0,112369:0:0:0:0:
256,192,112256,128,0,112369:0:0:0:0:
109,192,112369,128,0,112482:0:0:0:0:
402,192,112369,128,0,112482:0:0:0:0:
182,192,112482,128,0,112595:0:0:0:0:
329,192,112482,128,0,112595:0:0:0:0:
109,192,112595,128,0,112707:0:0:0:0:
402,192,112595,128,0,112707:0:0:0:0:
36,192,112707,128,0,112820:0:0:0:0:
475,192,112707,128,0,112820:0:0:0:0:
256,192,112707,128,0,112820:0:0:0:0:
182,192,112820,128,0,112933:0:0:0:0:
329,192,112820,128,0,112933:0:0:0:0:
109,192,112933,128,0,113046:0:0:0:0:
402,192,112933,128,0,113046:0:0:0:0:
182,192,113046,128,0,113158:0:0:0:0:
329,192,113046,128,0,113158:0:0:0:0:
256,192,113158,128,0,113271:0:0:0:0:
36,192,113158,128,0,113271:0:0:0:0:
475,192,113158,128,0,113271:0:0:0:0:
109,192,113271,128,0,113384:0:0:0:0:
402,192,113271,128,0,113384:0:0:0:0:
182,192,113384,128,0,113497:0:0:0:0:
329,192,113384,128,0,113497:0:0:0:0:
256,192,113497,128,0,113610:0:0:0:0:
36,192,113497,128,0,113610:0:0:0:0:
475,192,113497,128,0,113610:0:0:0:0:
182,192,113610,128,0,113722:0:0:0:0:
329,192,113610,128,0,113722:0:0:0:0:
109,192,113722,128,0,113835:0:0:0:0:
402,192,113722,128,0,113835:0:0:0:0:
36,192,113835,128,0,113948:0:0:0:0:
475,192,113835,128,0,113948:0:0:0:0:
256,192,113835,128,0,113948:0:0:0:0:
109,192,113948,128,0,114061:0:0:0:0:
402,192,113948,128,0,114061:0:0:0:0:
36,192,114061,1,0,0:0:0:0:
475,192,114061,1,0,0:0:0:0:
182,192,114061,1,0,0:0:0:0:
329,192,114061,1,0,0:0:0:0:
256,192,114173,1,0,0:0:0:0:
109,192,114173,1,0,0:0:0:0:
402,192,114173,1,0,0:0:0:0:
36,192,114286,1,0,0:0:0:0:
182,192,114286,1,0,0:0:0:0:
329,192,114286,1,0,0:0:0:0:
475,192,114286,1,0,0:0:0:0:
256,192,114399,1,0,0:0:0:0:
402,192,114399,1,0,0:0:0:0:
109,192,114399,1,0,0:0:0:0:
182,192,114512,1,0,0:0:0:0:
329,192,114512,1,0,0:0:0:0:
36,192,114512,1,0,0:0:0:0:
475,192,114512,1,0,0:0:0:0:
109,192,114625,1,0,0:0:0:0:
402,192,114625,1,0,0:0:0:0:
256,192,114625,1,0,0:0:0:0:
36,192,114737,1,0,0:0:0:0:
475,192,114737,1,0,0:0:0:0:
182,192,114737,1,0,0:0:0:0:
329,192,114737,1,0,0:0:0:0:
402,192,114850,1,0,0:0:0:0:
256,192,114850,1,0,0:0:0:0:
109,192,114850,1,0,0:0:0:0:
182,192,114963,1,0,0:0:0:0:
36,192,114963,1,0,0:0:0:0:
329,192,114963,1,0,0:0:0:0:
475,192,114963,1,0,0:0:0:0:
109,192,115076,1,0,0:0:0:0:
256,192,115076,1,0,0:0:0:0:
402,192,115076,1,0,0:0:0:0:
329,192,115189,1,0,0:0:0:0:
475,192,115189,1,0,0:0:0:0:
182,192,115189,1,0,0:0:0:0:
36,192,115189,1,0,0:0:0:0:
402,192,115301,1,0,0:0:0:0:
256,192,115301,1,0,0:0:0:0:
109,192,115301,1,0,0:0:0:0:
182,192,115414,1,0,0:0:0:0:
36,192,115414,1,0,0:0:0:0:
329,192,115414,1,0,0:0:0:0:
475,192,115414,1,0,0:0:0:0:
36,192,115640,1,0,0:0:0:0:
36,192,115865,128,0,116767:0:0:0:0:
475,192,115865,1,0,0:0:0:0:
402,192,115922,1,0,0:0:0:0:
329,192,115978,1,0,0:0:0:0:
256,192,116034,1,0,0:0:0:0:
182,192,116091,1,0,0:0:0:0:
329,192,116147,1,0,0:0:0:0:
402,192,116204,1,0,0:0:0:0:
475,192,116260,1,0,0:0:0:0:
182,192,116316,1,0,0:0:0:0:
256,192,116373,1,0,0:0:0:0:
329,192,116429,1,0,0:0:0:0:
402,192,116486,1,0,0:0:0:0:
109,192,116542,1,0,0:0:0:0:
475,192,116542,1,0,0:0:0:0:
329,192,116598,1,0,0:0:0:0:
256,192,116655,1,0,0:0:0:0:
182,192,116711,1,0,0:0:0:0:
109,192,116767,128,0,117670:0:0:0:0:
475,192,116767,1,0,0:0:0:0:
402,192,116824,1,0,0:0:0:0:
329,192,116880,1,0,0:0:0:0:
256,192,116937,1,0,0:0:0:0:
182,192,116993,1,0,0:0:0:0:
329,192,117049,1,0,0:0:0:0:
402,192,117106,1,0,0:0:0:0:
475,192,117162,1,0,0:0:0:0:
182,192,117219,1,0,0:0:0:0:
256,192,117275,1,0,0:0:0:0:
329,192,117331,1,0,0:0:0:0:
402,192,117388,1,0,0:0:0:0:
36,192,117444,1,0,0:0:0:0:
475,192,117444,1,0,0:0:0:0:
329,192,117501,1,0,0:0:0:0:
256,192,117557,1,0,0:0:0:0:
182,192,117613,1,0,0:0:0:0:
36,192,117670,128,0,118572:0:0:0:0:
475,192,117670,1,0,0:0:0:0:
402,192,117726,1,0,0:0:0:0:
329,192,117783,1,0,0:0:0:0:
256,192,117839,1,0,0:0:0:0:
182,192,117895,1,0,0:0:0:0:
329,192,117952,1,0,0:0:0:0:
402,192,118008,1,0,0:0:0:0:
475,192,118064,1,0,0:0:0:0:
109,192,118121,1,0,0:0:0:0:
182,192,118177,1,0,0:0:0:0:
256,192,118234,1,0,0:0:0:0:
329,192,118290,1,0,0:0:0:0:
109,192,118346,1,0,0:0:0:0:
402,192,118346,1,0,0:0:0:0:
475,192,118403,1,0,0:0:0:0:
402,192,118459,1,0,0:0:0:0:
329,192,118516,1,0,0:0:0:0:
109,192,118572,128,0,119474:0:0:0:0:
256,192,118572,1,0,0:0:0:0:
475,192,118628,1,0,0:0:0:0:
402,192,118685,1,0,0:0:0:0:
329,192,118741,1,0,0:0:0:0:
256,192,118798,1,0,0:0:0:0:
182,192,118854,1,0,0:0:0:0:
475,192,118910,1,0,0:0:0:0:
402,192,118967,1,0,0:0:0:0:
329,192,119023,1,0,0:0:0:0:
182,192,119080,1,0,0:0:0:0:
256,192,119136,1,0,0:0:0:0:
329,192,119192,1,0,0:0:0:0:
36,192,119249,1,0,0:0:0:0:
402,192,119249,1,0,0:0:0:0:
475,192,119305,1,0,0:0:0:0:
182,192,119361,1,0,0:0:0:0:
256,192,119418,1,0,0:0:0:0:
36,192,119474,128,0,119925:0:0:0:0:
329,192,119474,1,0,0:0:0:0:
402,192,119474,128,0,119587:0:0:0:0:
475,192,119474,128,0,119925:0:0:0:0:
329,192,119587,128,0,119700:0:0:0:0:
256,192,119700,128,0,119813:0:0:0:0:
402,192,119700,128,0,119813:0:0:0:0:
182,192,119813,128,0,119925:0:0:0:0:
329,192,119813,128,0,119925:0:0:0:0:
109,192,119925,128,0,120376:0:0:0:0:
256,192,119925,128,0,120151:0:0:0:0:
402,192,119925,128,0,120038:0:0:0:0:
475,192,120038,128,0,120151:0:0:0:0:
329,192,120038,128,0,120264:0:0:0:0:
402,192,120151,128,0,120376:0:0:0:0:
182,192,120151,1,0,0:0:0:0:
475,192,120264,128,0,120489:0:0:0:0:
256,192,120264,1,0,0:0:0:0:
182,192,120376,128,0,120602:0:0:0:0:
329,192,120376,1,0,0:0:0:0:
36,192,120376,128,0,120489:0:0:0:0:
402,192,120489,1,0,0:0:0:0:
109,192,120489,128,0,120602:0:0:0:0:
256,192,120602,128,0,120828:0:0:0:0:
475,192,120602,1,0,0:0:0:0:
36,192,120602,128,0,120715:0:0:0:0:
182,192,120715,128,0,120828:0:0:0:0:
109,192,120828,128,0,120940:0:0:0:0:
329,192,120828,128,0,120940:0:0:0:0:
402,192,120828,128,0,120940:0:0:0:0:
36,192,120940,128,0,121053:0:0:0:0:
256,192,120940,128,0,121053:0:0:0:0:
182,192,120940,128,0,121053:0:0:0:0:
109,192,121053,128,0,121166:0:0:0:0:
475,192,121053,128,0,121166:0:0:0:0:
402,192,121053,128,0,121166:0:0:0:0:
329,192,121166,128,0,121279:0:0:0:0:
256,192,121166,128,0,121279:0:0:0:0:
182,192,121279,128,0,121504:0:0:0:0:
36,192,121279,128,0,121392:0:0:0:0:
475,192,121279,128,0,121392:0:0:0:0:
109,192,121392,128,0,121504:0:0:0:0:
402,192,121392,128,0,121504:0:0:0:0:
329,192,121392,1,0,0:0:0:0:
329,192,121504,128,0,121730:0:0:0:0:
256,192,121504,128,0,121617:0:0:0:0:
109,192,121617,128,0,121730:0:0:0:0:
402,192,121617,128,0,121730:0:0:0:0:
182,192,121617,1,0,0:0:0:0:
182,192,121730,128,0,121955:0:0:0:0:
36,192,121730,128,0,121843:0:0:0:0:
256,192,121730,128,0,121843:0:0:0:0:
475,192,121730,128,0,121843:0:0:0:0:
329,192,121843,128,0,121955:0:0:0:0:
109,192,121843,1,0,0:0:0:0:
402,192,121955,128,0,122068:0:0:0:0:
109,192,121955,128,0,122068:0:0:0:0:
256,192,121955,128,0,122181:0:0:0:0:
475,192,122068,128,0,122181:0:0:0:0:
182,192,122068,1,0,0:0:0:0:
182,192,122181,128,0,122294:0:0:0:0:
402,192,122181,128,0,122407:0:0:0:0:
109,192,122294,128,0,122407:0:0:0:0:
329,192,122294,128,0,122519:0:0:0:0:
36,192,122407,128,0,122519:0:0:0:0:
256,192,122407,128,0,122632:0:0:0:0:
475,192,122519,128,0,122632:0:0:0:0:
182,192,122519,128,0,122745:0:0:0:0:
402,192,122632,128,0,122745:0:0:0:0:
109,192,122632,128,0,122858:0:0:0:0:
329,192,122745,128,0,122858:0:0:0:0:
36,192,122745,128,0,122970:0:0:0:0:
475,192,122745,128,0,122858:0:0:0:0:
256,192,122858,128,0,122970:0:0:0:0:
402,192,122858,128,0,122970:0:0:0:0:
182,192,122970,128,0,123083:0:0:0:0:
329,192,122970,128,0,123083:0:0:0:0:
475,192,123083,128,0,123986:0:0:0:0:
36,192,123083,1,0,0:0:0:0:
402,192,123083,1,0,0:0:0:0:
109,192,123140,1,0,0:0:0:0:
182,192,123196,1,0,0:0:0:0:
256,192,123252,1,0,0:0:0:0:
329,192,123309,1,0,0:0:0:0:
182,192,123365,1,0,0:0:0:0:
109,192,123422,1,0,0:0:0:0:
36,192,123478,1,0,0:0:0:0:
329,192,123534,1,0,0:0:0:0:
256,192,123591,1,0,0:0:0:0:
182,192,123647,1,0,0:0:0:0:
109,192,123704,1,0,0:0:0:0:
402,192,123760,1,0,0:0:0:0:
36,192,123760,1,0,0:0:0:0:
182,192,123816,1,0,0:0:0:0:
256,192,123873,1,0,0:0:0:0:
329,192,123929,1,0,0:0:0:0:
402,192,123986,128,0,124888:0:0:0:0:
36,192,123986,1,0,0:0:0:0:
109,192,124042,1,0,0:0:0:0:
182,192,124098,1,0,0:0:0:0:
256,192,124155,1,0,0:0:0:0:
329,192,124211,1,0,0:0:0:0:
182,192,124267,1,0,0:0:0:0:
109,192,124324,1,0,0:0:0:0:
36,192,124380,1,0,0:0:0:0:
329,192,124437,1,0,0:0:0:0:
256,192,124493,1,0,0:0:0:0:
182,192,124549,1,0,0:0:0:0:
109,192,124606,1,0,0:0:0:0:
475,192,124662,1,0,0:0:0:0:
36,192,124662,1,0,0:0:0:0:
182,192,124719,1,0,0:0:0:0:
256,192,124775,1,0,0:0:0:0:
329,192,124831,1,0,0:0:0:0:
475,192,124888,128,0,125790:0:0:0:0:
36,192,124888,1,0,0:0:0:0:
109,192,124944,1,0,0:0:0:0:
182,192,125001,1,0,0:0:0:0:
256,192,125057,1,0,0:0:0:0:
329,192,125113,1,0,0:0:0:0:
182,192,125170,1,0,0:0:0:0:
109,192,125226,1,0,0:0:0:0:
36,192,125283,1,0,0:0:0:0:
402,192,125339,1,0,0:0:0:0:
329,192,125395,1,0,0:0:0:0:
256,192,125452,1,0,0:0:0:0:
182,192,125508,1,0,0:0:0:0:
402,192,125564,1,0,0:0:0:0:
109,192,125564,1,0,0:0:0:0:
36,192,125621,1,0,0:0:0:0:
109,192,125677,1,0,0:0:0:0:
182,192,125734,1,0,0:0:0:0:
402,192,125790,128,0,126692:0:0:0:0:
256,192,125790,1,0,0:0:0:0:
36,192,125846,1,0,0:0:0:0:
109,192,125903,1,0,0:0:0:0:
182,192,125959,1,0,0:0:0:0:
256,192,126016,1,0,0:0:0:0:
329,192,126072,1,0,0:0:0:0:
36,192,126128,1,0,0:0:0:0:
109,192,126185,1,0,0:0:0:0:
182,192,126241,1,0,0:0:0:0:
329,192,126298,1,0,0:0:0:0:
256,192,126354,1,0,0:0:0:0:
182,192,126410,1,0,0:0:0:0:
475,192,126467,1,0,0:0:0:0:
109,192,126467,1,0,0:0:0:0:
36,192,126523,1,0,0:0:0:0:
329,192,126580,1,0,0:0:0:0:
256,192,126636,1,0,0:0:0:0:
475,192,126692,128,0,127143:0:0:0:0:
182,192,126692,1,0,0:0:0:0:
109,192,126692,128,0,126805:0:0:0:0:
36,192,126692,128,0,127143:0:0:0:0:
182,192,126805,128,0,126918:0:0:0:0:
256,192,126918,128,0,127031:0:0:0:0:
109,192,126918,128,0,127031:0:0:0:0:
329,192,127031,128,0,127143:0:0:0:0:
182,192,127031,128,0,127143:0:0:0:0:
402,192,127143,128,0,127595:0:0:0:0:
256,192,127143,128,0,127369:0:0:0:0:
109,192,127143,128,0,127256:0:0:0:0:
36,192,127256,128,0,127369:0:0:0:0:
182,192,127256,128,0,127482:0:0:0:0:
109,192,127369,128,0,127595:0:0:0:0:
329,192,127369,1,0,0:0:0:0:
36,192,127482,128,0,127707:0:0:0:0:
256,192,127482,1,0,0:0:0:0:
329,192,127595,128,0,127820:0:0:0:0:
182,192,127595,1,0,0:0:0:0:
475,192,127595,128,0,127707:0:0:0:0:
109,192,127707,1,0,0:0:0:0:
402,192,127707,128,0,127820:0:0:0:0:
256,192,127820,128,0,128046:0:0:0:0:
36,192,127820,1,0,0:0:0:0:
475,192,127820,128,0,127933:0:0:0:0:
329,192,127933,128,0,128046:0:0:0:0:
402,192,128046,128,0,128158:0:0:0:0:
182,192,128046,128,0,128158:0:0:0:0:
109,192,128046,128,0,128158:0:0:0:0:
475,192,128158,128,0,128271:0:0:0:0:
256,192,128158,128,0,128271:0:0:0:0:
329,192,128158,128,0,128271:0:0:0:0:
402,192,128271,128,0,128384:0:0:0:0:
36,192,128271,128,0,128384:0:0:0:0:
109,192,128271,128,0,128384:0:0:0:0:
182,192,128384,128,0,128497:0:0:0:0:
256,192,128384,128,0,128497:0:0:0:0:
109,192,128497,128,0,128835:0:0:0:0:
402,192,128497,1,0,0:0:0:0:
329,192,128610,1,0,0:0:0:0:
402,192,128722,1,0,0:0:0:0:
182,192,128722,128,0,129061:0:0:0:0:
329,192,128835,1,0,0:0:0:0:
109,192,128948,128,0,129399:0:0:0:0:
402,192,128948,1,0,0:0:0:0:
329,192,129061,1,0,0:0:0:0:
182,192,129173,128,0,129399:0:0:0:0:
402,192,129173,1,0,0:0:0:0:
329,192,129286,1,0,0:0:0:0:
402,192,129399,1,0,0:0:0:0:
475,192,129399,1,0,0:0:0:0:
36,192,129399,128,0,129625:0:0:0:0:
256,192,129512,1,0,0:0:0:0:
329,192,129512,1,0,0:0:0:0:
402,192,129625,1,0,0:0:0:0:
475,192,129625,1,0,0:0:0:0:
182,192,129625,128,0,129850:0:0:0:0:
256,192,129737,1,0,0:0:0:0:
329,192,129737,1,0,0:0:0:0:
402,192,129850,1,0,0:0:0:0:
475,192,129850,1,0,0:0:0:0:
109,192,129850,128,0,130076:0:0:0:0:
402,192,129963,1,0,0:0:0:0:
475,192,129963,1,0,0:0:0:0:
256,192,130076,1,0,0:0:0:0:
329,192,130076,1,0,0:0:0:0:
36,192,130076,1,0,0:0:0:0:
329,192,130189,1,0,0:0:0:0:
256,192,130189,1,0,0:0:0:0:
182,192,130301,1,0,0:0:0:0:
109,192,130301,1,0,0:0:0:0:
36,192,130301,1,0,0:0:0:0:
475,192,130301,1,0,0:0:0:0:
402,192,130301,1,0,0:0:0:0:
256,192,130414,1,0,0:0:0:0:
329,192,130414,1,0,0:0:0:0:
402,192,130527,1,0,0:0:0:0:
475,192,130527,1,0,0:0:0:0:
256,192,130640,1,0,0:0:0:0:
182,192,130640,1,0,0:0:0:0:
329,192,130752,1,0,0:0:0:0:
402,192,130752,1,0,0:0:0:0:
109,192,130752,128,0,130865:0:0:0:0:
36,192,130752,128,0,130865:0:0:0:0:
329,192,130865,128,0,130978:0:0:0:0:
402,192,130865,128,0,130978:0:0:0:0:
182,192,130978,128,0,131091:0:0:0:0:
109,192,130978,128,0,131091:0:0:0:0:
402,192,131091,128,0,131204:0:0:0:0:
475,192,131091,128,0,131204:0:0:0:0:
182,192,131204,128,0,131429:0:0:0:0:
109,192,131204,128,0,131655:0:0:0:0:
36,192,131204,128,0,131993:0:0:0:0:
256,192,131316,128,0,131429:0:0:0:0:
329,192,131316,128,0,131542:0:0:0:0:
475,192,131429,128,0,131542:0:0:0:0:
402,192,131429,128,0,131542:0:0:0:0:
182,192,131542,128,0,131655:0:0:0:0:
256,192,131542,128,0,131767:0:0:0:0:
329,192,131655,128,0,131767:0:0:0:0:
402,192,131655,128,0,131767:0:0:0:0:
182,192,131767,128,0,131993:0:0:0:0:
109,192,131767,128,0,131993:0:0:0:0:
256,192,131880,128,0,131993:0:0:0:0:
329,192,131880,128,0,131993:0:0:0:0:
402,192,131993,1,0,0:0:0:0:
475,192,131993,1,0,0:0:0:0:
36,192,132106,128,0,132219:0:0:0:0:
109,192,132106,128,0,132219:0:0:0:0:
329,192,132106,128,0,132331:0:0:0:0:
475,192,132106,128,0,132444:0:0:0:0:
402,192,132106,128,0,132444:0:0:0:0:
256,192,132106,1,0,0:0:0:0:
182,192,132106,1,0,0:0:0:0:
256,192,132219,128,0,132331:0:0:0:0:
182,192,132219,128,0,132444:0:0:0:0:
109,192,132331,128,0,132444:0:0:0:0:
36,192,132331,128,0,132557:0:0:0:0:
256,192,132444,128,0,133008:0:0:0:0:
329,192,132444,128,0,132670:0:0:0:0:
109,192,132557,1,0,0:0:0:0:
475,192,132557,128,0,132670:0:0:0:0:
182,192,132557,1,0,0:0:0:0:
402,192,132557,128,0,132670:0:0:0:0:
182,192,132670,128,0,132783:0:0:0:0:
109,192,132670,128,0,132783:0:0:0:0:
402,192,132783,128,0,132895:0:0:0:0:
329,192,132783,128,0,132895:0:0:0:0:
475,192,132783,1,0,0:0:0:0:
109,192,132895,128,0,133008:0:0:0:0:
36,192,132895,128,0,133008:0:0:0:0:
182,192,132895,1,0,0:0:0:0:
329,192,133008,1,0,0:0:0:0:
402,192,133008,1,0,0:0:0:0:
475,192,133008,128,0,133121:0:0:0:0:
256,192,133121,1,0,0:0:0:0:
182,192,133121,128,0,133234:0:0:0:0:
109,192,133234,128,0,133346:0:0:0:0:
36,192,133234,1,0,0:0:0:0:
475,192,133234,128,0,133346:0:0:0:0:
329,192,133346,128,0,133459:0:0:0:0:
402,192,133346,1,0,0:0:0:0:
256,192,133459,128,0,133572:0:0:0:0:
182,192,133459,1,0,0:0:0:0:
109,192,133572,128,0,133685:0:0:0:0:
36,192,133572,1,0,0:0:0:0:
475,192,133572,128,0,133685:0:0:0:0:
329,192,133685,1,0,0:0:0:0:
402,192,133685,128,0,133798:0:0:0:0:
182,192,133798,128,0,133910:0:0:0:0:
256,192,133798,1,0,0:0:0:0:
329,192,133910,1,0,0:0:0:0:
402,192,133910,1,0,0:0:0:0:
475,192,133910,1,0,0:0:0:0:
36,192,133910,1,0,0:0:0:0:
109,192,133910,1,0,0:0:0:0:
256,192,134023,1,0,0:0:0:0:
182,192,134023,1,0,0:0:0:0:
109,192,134136,1,0,0:0:0:0:
36,192,134136,1,0,0:0:0:0:
256,192,134249,1,0,0:0:0:0:
329,192,134249,1,0,0:0:0:0:
182,192,134361,1,0,0:0:0:0:
109,192,134361,1,0,0:0:0:0:
402,192,134361,128,0,134474:0:0:0:0:
475,192,134361,128,0,134474:0:0:0:0:
182,192,134474,128,0,134587:0:0:0:0:
109,192,134474,128,0,134587:0:0:0:0:
329,192,134587,128,0,134700:0:0:0:0:
402,192,134587,128,0,134700:0:0:0:0:
109,192,134700,128,0,134813:0:0:0:0:
36,192,134700,128,0,134813:0:0:0:0:
329,192,134813,128,0,135038:0:0:0:0:
402,192,134813,128,0,135264:0:0:0:0:
475,192,134813,128,0,135602:0:0:0:0:
256,192,134925,128,0,135038:0:0:0:0:
182,192,134925,128,0,135151:0:0:0:0:
36,192,135038,128,0,135151:0:0:0:0:
109,192,135038,128,0,135151:0:0:0:0:
329,192,135151,128,0,135264:0:0:0:0:
256,192,135151,128,0,135376:0:0:0:0:
182,192,135264,128,0,135376:0:0:0:0:
109,192,135264,128,0,135376:0:0:0:0:
329,192,135376,128,0,135602:0:0:0:0:
402,192,135376,128,0,135602:0:0:0:0:
256,192,135489,128,0,135602:0:0:0:0:
182,192,135489,128,0,135602:0:0:0:0:
109,192,135602,1,0,0:0:0:0:
36,192,135602,1,0,0:0:0:0:
475,192,135715,128,0,135828:0:0:0:0:
402,192,135715,128,0,135828:0:0:0:0:
182,192,135715,128,0,135940:0:0:0:0:
36,192,135715,128,0,136053:0:0:0:0:
109,192,135715,128,0,136053:0:0:0:0:
256,192,135715,1,0,0:0:0:0:
329,192,135715,1,0,0:0:0:0:
256,192,135828,128,0,135940:0:0:0:0:
329,192,135828,128,0,136053:0:0:0:0:
402,192,135940,128,0,136053:0:0:0:0:
475,192,135940,128,0,136166:0:0:0:0:
256,192,136053,128,0,136617:0:0:0:0:
182,192,136053,128,0,136279:0:0:0:0:
402,192,136166,1,0,0:0:0:0:
36,192,136166,128,0,136279:0:0:0:0:
329,192,136166,1,0,0:0:0:0:
109,192,136166,128,0,136279:0:0:0:0:
329,192,136279,128,0,136392:0:0:0:0:
402,192,136279,128,0,136392:0:0:0:0:
109,192,136392,128,0,136504:0:0:0:0:
182,192,136392,128,0,136504:0:0:0:0:
36,192,136392,1,0,0:0:0:0:
402,192,136504,128,0,136617:0:0:0:0:
475,192,136504,128,0,136617:0:0:0:0:
329,192,136504,1,0,0:0:0:0:
182,192,136617,1,0,0:0:0:0:
109,192,136617,1,0,0:0:0:0:
36,192,136617,128,0,136730:0:0:0:0:
256,192,136730,1,0,0:0:0:0:
329,192,136730,128,0,136843:0:0:0:0:
402,192,136843,128,0,136955:0:0:0:0:
475,192,136843,1,0,0:0:0:0:
36,192,136843,128,0,136955:0:0:0:0:
109,192,136843,1,0,0:0:0:0:
182,192,136955,128,0,137068:0:0:0:0:
256,192,136955,1,0,0:0:0:0:
329,192,137068,128,0,137181:0:0:0:0:
402,192,137068,1,0,0:0:0:0:
475,192,137181,128,0,137294:0:0:0:0:
109,192,137181,128,0,137294:0:0:0:0:
36,192,137294,1,0,0:0:0:0:
402,192,137294,128,0,137407:0:0:0:0:
329,192,137407,128,0,137519:0:0:0:0:
109,192,137407,1,0,0:0:0:0:
182,192,137519,1,0,0:0:0:0:
402,192,137519,1,0,0:0:0:0:
475,192,137519,1,0,0:0:0:0:
109,192,137632,1,0,0:0:0:0:
36,192,137632,1,0,0:0:0:0:
256,192,137745,1,0,0:0:0:0:
402,192,137745,1,0,0:0:0:0:
475,192,137745,1,0,0:0:0:0:
182,192,137858,1,0,0:0:0:0:
109,192,137858,1,0,0:0:0:0:
329,192,137970,1,0,0:0:0:0:
402,192,137970,128,0,138083:0:0:0:0:
475,192,137970,128,0,138083:0:0:0:0:
36,192,138083,128,0,138196:0:0:0:0:
109,192,138083,128,0,138196:0:0:0:0:
182,192,138083,1,0,0:0:0:0:
329,192,138196,128,0,138309:0:0:0:0:
402,192,138196,128,0,138309:0:0:0:0:
475,192,138196,1,0,0:0:0:0:
182,192,138309,128,0,138422:0:0:0:0:
109,192,138309,128,0,138422:0:0:0:0:
36,192,138309,1,0,0:0:0:0:
256,192,138422,128,0,138647:0:0:0:0:
402,192,138422,128,0,138534:0:0:0:0:
475,192,138422,128,0,138534:0:0:0:0:
329,192,138422,1,0,0:0:0:0:
109,192,138534,128,0,138760:0:0:0:0:
36,192,138534,128,0,138760:0:0:0:0:
182,192,138534,1,0,0:0:0:0:
329,192,138647,128,0,138873:0:0:0:0:
475,192,138647,128,0,138760:0:0:0:0:
402,192,138647,128,0,138760:0:0:0:0:
182,192,138760,128,0,138986:0:0:0:0:
256,192,138760,128,0,138873:0:0:0:0:
402,192,138873,128,0,139098:0:0:0:0:
475,192,138873,128,0,138986:0:0:0:0:
36,192,138873,128,0,139098:0:0:0:0:
109,192,138873,128,0,138986:0:0:0:0:
329,192,138986,128,0,139211:0:0:0:0:
256,192,138986,128,0,139324:0:0:0:0:
182,192,139098,128,0,139211:0:0:0:0:
109,192,139098,128,0,139211:0:0:0:0:
475,192,139098,128,0,139324:0:0:0:0:
36,192,139211,128,0,139324:0:0:0:0:
402,192,139211,128,0,139324:0:0:0:0:
109,192,139324,128,0,139437:0:0:0:0:
182,192,139324,128,0,139437:0:0:0:0:
329,192,139324,128,0,139437:0:0:0:0:
402,192,139437,128,0,139549:0:0:0:0:
475,192,139437,128,0,139549:0:0:0:0:
256,192,139549,128,0,139662:0:0:0:0:
109,192,139549,128,0,139662:0:0:0:0:
36,192,139549,128,0,139662:0:0:0:0:
329,192,139662,128,0,139775:0:0:0:0:
402,192,139662,128,0,139775:0:0:0:0:
182,192,139775,1,0,0:0:0:0:
36,192,139775,1,0,0:0:0:0:
109,192,139775,128,0,139888:0:0:0:0:
329,192,139888,1,0,0:0:0:0:
475,192,139888,1,0,0:0:0:0:
402,192,139888,128,0,140001:0:0:0:0:
36,192,140001,1,0,0:0:0:0:
109,192,140001,1,0,0:0:0:0:
182,192,140001,128,0,140113:0:0:0:0:
402,192,140113,1,0,0:0:0:0:
329,192,140113,1,0,0:0:0:0:
475,192,140113,128,0,140226:0:0:0:0:
256,192,140226,128,0,140452:0:0:0:0:
182,192,140226,1,0,0:0:0:0:
36,192,140226,1,0,0:0:0:0:
109,192,140226,128,0,140339:0:0:0:0:
329,192,140339,1,0,0:0:0:0:
475,192,140339,1,0,0:0:0:0:
402,192,140339,128,0,140452:0:0:0:0:
182,192,140452,128,0,140677:0:0:0:0:
109,192,140452,1,0,0:0:0:0:
36,192,140452,128,0,140564:0:0:0:0:
329,192,140564,128,0,140790:0:0:0:0:
256,192,140564,1,0,0:0:0:0:
109,192,140677,128,0,140903:0:0:0:0:
475,192,140677,128,0,140903:0:0:0:0:
402,192,140677,1,0,0:0:0:0:
36,192,140677,1,0,0:0:0:0:
256,192,140790,128,0,141016:0:0:0:0:
182,192,140790,1,0,0:0:0:0:
402,192,140903,128,0,141128:0:0:0:0:
36,192,140903,128,0,141128:0:0:0:0:
329,192,140903,1,0,0:0:0:0:
182,192,141016,128,0,141128:0:0:0:0:
475,192,141016,1,0,0:0:0:0:
329,192,141128,1,0,0:0:0:0:
256,192,141128,1,0,0:0:0:0:
109,192,141128,1,0,0:0:0:0:
182,192,141241,1,0,0:0:0:0:
402,192,141241,1,0,0:0:0:0:
475,192,141241,1,0,0:0:0:0:
329,192,141354,1,0,0:0:0:0:
256,192,141354,1,0,0:0:0:0:
109,192,141354,1,0,0:0:0:0:
182,192,141467,1,0,0:0:0:0:
402,192,141467,1,0,0:0:0:0:
475,192,141467,1,0,0:0:0:0:
329,192,141580,1,0,0:0:0:0:
256,192,141580,1,0,0:0:0:0:
109,192,141580,1,0,0:0:0:0:
36,192,141580,1,0,0:0:0:0:
182,192,141692,1,0,0:0:0:0:
402,192,141692,1,0,0:0:0:0:
475,192,141692,1,0,0:0:0:0:
329,192,141805,1,0,0:0:0:0:
256,192,141805,1,0,0:0:0:0:
109,192,141805,1,0,0:0:0:0:
36,192,141805,1,0,0:0:0:0:
182,192,141918,1,0,0:0:0:0:
402,192,141918,1,0,0:0:0:0:
475,192,141918,1,0,0:0:0:0:
109,192,142031,1,0,0:0:0:0:
36,192,142031,1,0,0:0:0:0:
256,192,142031,1,0,0:0:0:0:
329,192,142143,1,0,0:0:0:0:
182,192,142143,1,0,0:0:0:0:
402,192,142143,1,0,0:0:0:0:
256,192,142256,1,0,0:0:0:0:
109,192,142256,1,0,0:0:0:0:
36,192,142256,1,0,0:0:0:0:
182,192,142369,1,0,0:0:0:0:
329,192,142369,1,0,0:0:0:0:
402,192,142369,1,0,0:0:0:0:
109,192,142482,1,0,0:0:0:0:
36,192,142482,1,0,0:0:0:0:
475,192,142482,1,0,0:0:0:0:
256,192,142482,1,0,0:0:0:0:
402,192,142595,1,0,0:0:0:0:
182,192,142595,1,0,0:0:0:0:
329,192,142595,1,0,0:0:0:0:
256,192,142707,1,0,0:0:0:0:
109,192,142707,1,0,0:0:0:0:
36,192,142707,1,0,0:0:0:0:
475,192,142707,1,0,0:0:0:0:
402,192,142820,1,0,0:0:0:0:
329,192,142820,1,0,0:0:0:0:
182,192,142820,1,0,0:0:0:0:
109,192,142933,128,0,143046:0:0:0:0:
36,192,142933,128,0,143046:0:0:0:0:
256,192,142933,128,0,143046:0:0:0:0:
329,192,142933,128,0,143046:0:0:0:0:
182,192,143046,128,0,143158:0:0:0:0:
402,192,143046,128,0,143158:0:0:0:0:
475,192,143046,128,0,143158:0:0:0:0:
329,192,143158,128,0,143271:0:0:0:0:
256,192,143158,128,0,143271:0:0:0:0:
109,192,143158,128,0,143271:0:0:0:0:
36,192,143158,128,0,143271:0:0:0:0:
182,192,143271,128,0,143384:0:0:0:0:
402,192,143271,128,0,143384:0:0:0:0:
475,192,143271,128,0,143384:0:0:0:0:
329,192,143384,128,0,143497:0:0:0:0:
256,192,143384,128,0,143497:0:0:0:0:
109,192,143384,128,0,143497:0:0:0:0:
36,192,143384,128,0,143497:0:0:0:0:
182,192,143497,128,0,143610:0:0:0:0:
475,192,143497,128,0,143610:0:0:0:0:
402,192,143497,128,0,143610:0:0:0:0:
329,192,143610,128,0,143722:0:0:0:0:
256,192,143610,128,0,143722:0:0:0:0:
109,192,143610,128,0,143722:0:0:0:0:
36,192,143610,128,0,143722:0:0:0:0:
182,192,143722,128,0,143835:0:0:0:0:
402,192,143722,128,0,143835:0:0:0:0:
475,192,143722,128,0,143835:0:0:0:0:
256,192,143835,1,0,0:0:0:0:
36,192,143835,1,0,0:0:0:0:
329,192,143835,1,0,0:0:0:0:
109,192,143835,1,0,0:0:0:0:
182,192,144061,1,0,0:0:0:0:
109,192,144061,1,0,0:0:0:0:
329,192,144061,1,0,0:0:0:0:
402,192,144061,1,0,0:0:0:0:
256,192,144286,1,0,0:0:0:0:
182,192,144286,1,0,0:0:0:0:
475,192,144286,1,0,0:0:0:0:
402,192,144286,1,0,0:0:0:0:
182,192,144399,1,0,0:0:0:0:
109,192,144399,1,0,0:0:0:0:
402,192,144399,1,0,0:0:0:0:
329,192,144399,1,0,0:0:0:0:
109,192,144512,1,0,0:0:0:0:
36,192,144512,1,0,0:0:0:0:
329,192,144512,1,0,0:0:0:0:
256,192,144512,1,0,0:0:0:0:
109,192,144737,128,0,145076:0:0:0:0:
256,192,144737,128,0,144963:0:0:0:0:
36,192,144737,1,0,0:0:0:0:
475,192,144737,128,0,144850:0:0:0:0:
182,192,144850,1,0,0:0:0:0:
402,192,144850,128,0,144963:0:0:0:0:
36,192,144963,1,0,0:0:0:0:
329,192,144963,128,0,145076:0:0:0:0:
182,192,145076,128,0,145414:0:0:0:0:
256,192,145076,128,0,145189:0:0:0:0:
36,192,145189,128,0,145414:0:0:0:0:
329,192,145189,128,0,145301:0:0:0:0:
256,192,145301,1,0,0:0:0:0:
402,192,145301,128,0,145414:0:0:0:0:
109,192,145414,1,0,0:0:0:0:
475,192,145414,128,0,145527:0:0:0:0:
329,192,145527,1,0,0:0:0:0:
182,192,145527,1,0,0:0:0:0:
402,192,145640,128,0,145978:0:0:0:0:
475,192,145640,1,0,0:0:0:0:
36,192,145640,128,0,145752:0:0:0:0:
256,192,145640,128,0,145865:0:0:0:0:
329,192,145752,1,0,0:0:0:0:
109,192,145752,128,0,145865:0:0:0:0:
475,192,145865,1,0,0:0:0:0:
182,192,145865,128,0,145978:0:0:0:0:
36,192,145978,128,0,146091:0:0:0:0:
329,192,145978,128,0,146316:0:0:0:0:
256,192,145978,128,0,146091:0:0:0:0:
475,192,146091,128,0,146316:0:0:0:0:
402,192,146091,1,0,0:0:0:0:
109,192,146091,128,0,146204:0:0:0:0:
182,192,146091,1,0,0:0:0:0:
182,192,146204,128,0,146316:0:0:0:0:
402,192,146316,1,0,0:0:0:0:
109,192,146316,128,0,146429:0:0:0:0:
256,192,146316,1,0,0:0:0:0:
36,192,146429,1,0,0:0:0:0:
182,192,146429,1,0,0:0:0:0:
329,192,146429,1,0,0:0:0:0:
402,192,146542,128,0,146880:0:0:0:0:
256,192,146542,128,0,146767:0:0:0:0:
475,192,146542,1,0,0:0:0:0:
36,192,146542,128,0,146655:0:0:0:0:
329,192,146655,1,0,0:0:0:0:
109,192,146655,128,0,146767:0:0:0:0:
475,192,146767,1,0,0:0:0:0:
182,192,146767,128,0,146880:0:0:0:0:
329,192,146880,128,0,147219:0:0:0:0:
256,192,146880,128,0,146993:0:0:0:0:
475,192,146993,128,0,147219:0:0:0:0:
182,192,146993,128,0,147106:0:0:0:0:
256,192,147106,1,0,0:0:0:0:
109,192,147106,128,0,147219:0:0:0:0:
402,192,147219,1,0,0:0:0:0:
36,192,147219,128,0,147331:0:0:0:0:
182,192,147331,1,0,0:0:0:0:
329,192,147331,1,0,0:0:0:0:
109,192,147444,128,0,147783:0:0:0:0:
36,192,147444,1,0,0:0:0:0:
475,192,147444,128,0,147557:0:0:0:0:
256,192,147444,128,0,147670:0:0:0:0:
182,192,147557,1,0,0:0:0:0:
402,192,147557,128,0,147670:0:0:0:0:
36,192,147670,1,0,0:0:0:0:
329,192,147670,128,0,147783:0:0:0:0:
475,192,147783,128,0,147895:0:0:0:0:
182,192,147783,128,0,148121:0:0:0:0:
256,192,147783,128,0,147895:0:0:0:0:
36,192,147895,128,0,148121:0:0:0:0:
109,192,147895,1,0,0:0:0:0:
402,192,147895,128,0,148008:0:0:0:0:
329,192,147895,1,0,0:0:0:0:
329,192,148008,128,0,148121:0:0:0:0:
109,192,148121,1,0,0:0:0:0:
402,192,148121,128,0,148234:0:0:0:0:
256,192,148121,1,0,0:0:0:0:
475,192,148234,1,0,0:0:0:0:
329,192,148234,1,0,0:0:0:0:
182,192,148234,1,0,0:0:0:0:
109,192,148346,128,0,148685:0:0:0:0:
256,192,148346,128,0,148572:0:0:0:0:
36,192,148346,1,0,0:0:0:0:
475,192,148346,128,0,148910:0:0:0:0:
182,192,148459,1,0,0:0:0:0:
402,192,148459,128,0,148798:0:0:0:0:
36,192,148572,1,0,0:0:0:0:
329,192,148572,128,0,148685:0:0:0:0:
182,192,148685,128,0,149023:0:0:0:0:
256,192,148685,128,0,148798:0:0:0:0:
36,192,148798,128,0,149023:0:0:0:0:
329,192,148798,128,0,148910:0:0:0:0:
109,192,148798,1,0,0:0:0:0:
256,192,148910,1,0,0:0:0:0:
402,192,148910,128,0,149023:0:0:0:0:
109,192,149023,1,0,0:0:0:0:
475,192,149023,128,0,149136:0:0:0:0:
329,192,149136,1,0,0:0:0:0:
182,192,149136,1,0,0:0:0:0:
402,192,149249,128,0,149587:0:0:0:0:
475,192,149249,1,0,0:0:0:0:
256,192,149249,128,0,149474:0:0:0:0:
36,192,149249,128,0,149474:0:0:0:0:
329,192,149361,1,0,0:0:0:0:
109,192,149361,128,0,149587:0:0:0:0:
475,192,149474,1,0,0:0:0:0:
182,192,149474,128,0,149700:0:0:0:0:
329,192,149587,128,0,149925:0:0:0:0:
256,192,149587,128,0,149700:0:0:0:0:
36,192,149587,128,0,149925:0:0:0:0:
475,192,149700,128,0,149925:0:0:0:0:
402,192,149700,1,0,0:0:0:0:
109,192,149700,128,0,149813:0:0:0:0:
182,192,149813,128,0,149925:0:0:0:0:
402,192,149925,1,0,0:0:0:0:
109,192,149925,128,0,150038:0:0:0:0:
256,192,149925,1,0,0:0:0:0:
36,192,150038,1,0,0:0:0:0:
182,192,150038,1,0,0:0:0:0:
329,192,150038,1,0,0:0:0:0:
402,192,150151,128,0,150489:0:0:0:0:
256,192,150151,128,0,150376:0:0:0:0:
475,192,150151,1,0,0:0:0:0:
36,192,150151,128,0,150715:0:0:0:0:
329,192,150264,1,0,0:0:0:0:
109,192,150264,128,0,150602:0:0:0:0:
475,192,150376,1,0,0:0:0:0:
182,192,150376,128,0,150489:0:0:0:0:
329,192,150489,128,0,150828:0:0:0:0:
256,192,150489,128,0,150602:0:0:0:0:
475,192,150602,128,0,150828:0:0:0:0:
182,192,150602,128,0,150715:0:0:0:0:
402,192,150602,1,0,0:0:0:0:
256,192,150715,1,0,0:0:0:0:
109,192,150715,128,0,150828:0:0:0:0:
402,192,150828,1,0,0:0:0:0:
36,192,150828,128,0,150940:0:0:0:0:
182,192,150940,1,0,0:0:0:0:
329,192,150940,1,0,0:0:0:0:
109,192,151053,128,0,151392:0:0:0:0:
36,192,151053,1,0,0:0:0:0:
256,192,151053,128,0,151279:0:0:0:0:
475,192,151053,128,0,151279:0:0:0:0:
182,192,151166,1,0,0:0:0:0:
402,192,151166,128,0,151392:0:0:0:0:
36,192,151279,1,0,0:0:0:0:
329,192,151279,128,0,151504:0:0:0:0:
182,192,151392,128,0,151730:0:0:0:0:
256,192,151392,128,0,151504:0:0:0:0:
475,192,151392,128,0,151730:0:0:0:0:
36,192,151504,128,0,151730:0:0:0:0:
109,192,151504,1,0,0:0:0:0:
402,192,151504,128,0,151617:0:0:0:0:
329,192,151617,128,0,151730:0:0:0:0:
109,192,151730,1,0,0:0:0:0:
402,192,151730,128,0,151843:0:0:0:0:
256,192,151730,1,0,0:0:0:0:
475,192,151843,1,0,0:0:0:0:
329,192,151843,1,0,0:0:0:0:
182,192,151843,1,0,0:0:0:0:
475,192,151955,128,0,152181:0:0:0:0:
256,192,151955,128,0,152125:0:0:0:0:
402,192,151955,128,0,152012:0:0:0:0:
36,192,151955,1,0,0:0:0:0:
109,192,151955,128,0,152012:0:0:0:0:
329,192,152068,128,0,152181:0:0:0:0:
182,192,152068,1,0,0:0:0:0:
402,192,152181,128,0,152294:0:0:0:0:
256,192,152181,1,0,0:0:0:0:
36,192,152181,128,0,152237:0:0:0:0:
475,192,152294,128,0,152407:0:0:0:0:
329,192,152294,128,0,152632:0:0:0:0:
109,192,152294,1,0,0:0:0:0:
256,192,152407,128,0,152745:0:0:0:0:
402,192,152407,1,0,0:0:0:0:
182,192,152407,128,0,152632:0:0:0:0:
36,192,152407,128,0,152519:0:0:0:0:
475,192,152519,128,0,152632:0:0:0:0:
109,192,152519,128,0,152576:0:0:0:0:
402,192,152632,128,0,152745:0:0:0:0:
36,192,152632,1,0,0:0:0:0:
329,192,152745,128,0,152858:0:0:0:0:
182,192,152745,128,0,152970:0:0:0:0:
256,192,152858,128,0,153083:0:0:0:0:
109,192,152858,1,0,0:0:0:0:
36,192,152858,1,0,0:0:0:0:
402,192,152858,128,0,153027:0:0:0:0:
109,192,152970,128,0,153083:0:0:0:0:
475,192,152970,128,0,153083:0:0:0:0:
182,192,153083,128,0,153196:0:0:0:0:
36,192,153083,1,0,0:0:0:0:
402,192,153083,1,0,0:0:0:0:
329,192,153083,128,0,153140:0:0:0:0:
256,192,153196,128,0,153309:0:0:0:0:
109,192,153196,128,0,153534:0:0:0:0:
475,192,153196,1,0,0:0:0:0:
36,192,153309,128,0,153647:0:0:0:0:
182,192,153309,1,0,0:0:0:0:
329,192,153309,128,0,153422:0:0:0:0:
402,192,153309,128,0,153534:0:0:0:0:
256,192,153422,128,0,153534:0:0:0:0:
475,192,153422,128,0,153534:0:0:0:0:
182,192,153534,128,0,153647:0:0:0:0:
329,192,153534,128,0,153647:0:0:0:0:
109,192,153647,1,0,0:0:0:0:
402,192,153647,1,0,0:0:0:0:
36,192,153760,128,0,153986:0:0:0:0:
256,192,153760,128,0,153929:0:0:0:0:
109,192,153760,128,0,153816:0:0:0:0:
402,192,153760,128,0,153816:0:0:0:0:
475,192,153760,1,0,0:0:0:0:
182,192,153873,128,0,153986:0:0:0:0:
329,192,153873,1,0,0:0:0:0:
109,192,153986,128,0,154098:0:0:0:0:
256,192,153986,1,0,0:0:0:0:
475,192,153986,128,0,154042:0:0:0:0:
36,192,154098,128,0,154211:0:0:0:0:
182,192,154098,128,0,154437:0:0:0:0:
402,192,154098,1,0,0:0:0:0:
256,192,154211,128,0,154549:0:0:0:0:
109,192,154211,1,0,0:0:0:0:
329,192,154211,128,0,154437:0:0:0:0:
475,192,154211,128,0,154324:0:0:0:0:
36,192,154324,128,0,154437:0:0:0:0:
402,192,154324,128,0,154380:0:0:0:0:
109,192,154437,128,0,154549:0:0:0:0:
475,192,154437,1,0,0:0:0:0:
182,192,154549,128,0,154662:0:0:0:0:
329,192,154549,128,0,154775:0:0:0:0:
256,192,154662,128,0,154888:0:0:0:0:
402,192,154662,1,0,0:0:0:0:
475,192,154662,1,0,0:0:0:0:
109,192,154662,128,0,154831:0:0:0:0:
402,192,154775,128,0,154888:0:0:0:0:
36,192,154775,128,0,154888:0:0:0:0:
329,192,154888,128,0,155001:0:0:0:0:
475,192,154888,1,0,0:0:0:0:
109,192,154888,1,0,0:0:0:0:
182,192,154888,128,0,154944:0:0:0:0:
256,192,155001,128,0,155113:0:0:0:0:
402,192,155001,128,0,155339:0:0:0:0:
36,192,155001,1,0,0:0:0:0:
475,192,155113,128,0,155452:0:0:0:0:
329,192,155113,1,0,0:0:0:0:
182,192,155113,128,0,155226:0:0:0:0:
109,192,155113,128,0,155339:0:0:0:0:
256,192,155226,128,0,155339:0:0:0:0:
36,192,155226,128,0,155339:0:0:0:0:
329,192,155339,128,0,155452:0:0:0:0:
182,192,155339,128,0,155452:0:0:0:0:
402,192,155452,128,0,155564:0:0:0:0:
109,192,155452,128,0,155564:0:0:0:0:
329,192,155564,1,0,0:0:0:0:
256,192,155564,1,0,0:0:0:0:
182,192,155564,1,0,0:0:0:0:
36,192,155564,128,0,155677:0:0:0:0:
475,192,155564,128,0,155677:0:0:0:0:
109,192,155677,128,0,155790:0:0:0:0:
402,192,155677,128,0,155790:0:0:0:0:
36,192,155790,128,0,155903:0:0:0:0:
475,192,155790,128,0,155903:0:0:0:0:
109,192,155903,128,0,156016:0:0:0:0:
402,192,155903,128,0,156016:0:0:0:0:
475,192,156016,1,0,0:0:0:0:
36,192,156016,1,0,0:0:0:0:
182,192,156016,128,0,156410:0:0:0:0:
256,192,156016,128,0,156410:0:0:0:0:
329,192,156016,128,0,156410:0:0:0:0:
402,192,156128,128,0,156241:0:0:0:0:
109,192,156128,128,0,156241:0:0:0:0:
36,192,156241,128,0,156354:0:0:0:0:
475,192,156241,128,0,156354:0:0:0:0:
109,192,156354,128,0,156467:0:0:0:0:
402,192,156354,128,0,156467:0:0:0:0:
182,192,156467,1,0,0:0:0:0:
256,192,156467,1,0,0:0:0:0:
329,192,156467,1,0,0:0:0:0:
36,192,156467,128,0,156580:0:0:0:0:
475,192,156467,128,0,156580:0:0:0:0:
109,192,156580,128,0,156692:0:0:0:0:
402,192,156580,128,0,156692:0:0:0:0:
36,192,156692,128,0,156805:0:0:0:0:
475,192,156692,128,0,156805:0:0:0:0:
109,192,156805,128,0,156918:0:0:0:0:
402,192,156805,128,0,156918:0:0:0:0:
475,192,156918,128,0,157031:0:0:0:0:
36,192,156918,128,0,157031:0:0:0:0:
182,192,156918,128,0,157313:0:0:0:0:
256,192,156918,128,0,157313:0:0:0:0:
329,192,156918,128,0,157313:0:0:0:0:
402,192,157031,128,0,157143:0:0:0:0:
109,192,157031,128,0,157143:0:0:0:0:
36,192,157143,128,0,157256:0:0:0:0:
475,192,157143,128,0,157256:0:0:0:0:
109,192,157256,128,0,157369:0:0:0:0:
402,192,157256,128,0,157369:0:0:0:0:
182,192,157369,1,0,0:0:0:0:
256,192,157369,1,0,0:0:0:0:
329,192,157369,1,0,0:0:0:0:
475,192,157369,1,0,0:0:0:0:
36,192,157369,1,0,0:0:0:0:
329,192,157482,128,0,157623:0:0:0:0:
475,192,157482,128,0,157623:0:0:0:0:
256,192,157595,1,0,0:0:0:0:
402,192,157595,1,0,0:0:0:0:
256,192,157707,128,0,157848:0:0:0:0:
402,192,157707,128,0,157848:0:0:0:0:
329,192,157820,1,0,0:0:0:0:
182,192,157820,1,0,0:0:0:0:
182,192,157933,128,0,158074:0:0:0:0:
329,192,157933,128,0,158074:0:0:0:0:
109,192,158046,1,0,0:0:0:0:
256,192,158046,1,0,0:0:0:0:
109,192,158158,128,0,158299:0:0:0:0:
256,192,158158,128,0,158299:0:0:0:0:
36,192,158271,1,0,0:0:0:0:
182,192,158271,1,0,0:0:0:0:
36,192,158384,128,0,158525:0:0:0:0:
182,192,158384,128,0,158525:0:0:0:0:
109,192,158497,1,0,0:0:0:0:
256,192,158497,1,0,0:0:0:0:
256,192,158610,128,0,158751:0:0:0:0:
109,192,158610,128,0,158751:0:0:0:0:
182,192,158722,1,0,0:0:0:0:
329,192,158722,1,0,0:0:0:0:
182,192,158835,128,0,158976:0:0:0:0:
329,192,158835,128,0,158976:0:0:0:0:
256,192,158948,1,0,0:0:0:0:
402,192,158948,1,0,0:0:0:0:
256,192,159061,128,0,159202:0:0:0:0:
402,192,159061,128,0,159202:0:0:0:0:
36,192,159173,128,0,159202:0:0:0:0:
109,192,159173,128,0,159202:0:0:0:0:
109,192,159286,1,0,0:0:0:0:
36,192,159286,1,0,0:0:0:0:
402,192,159399,128,0,159427:0:0:0:0:
475,192,159399,128,0,159427:0:0:0:0:
402,192,159512,1,0,0:0:0:0:
475,192,159512,1,0,0:0:0:0:
182,192,159625,128,0,159653:0:0:0:0:
109,192,159625,128,0,159653:0:0:0:0:
256,192,159625,128,0,159963:0:0:0:0:
329,192,159625,128,0,159963:0:0:0:0:
182,192,159737,1,0,0:0:0:0:
109,192,159737,1,0,0:0:0:0:
402,192,159850,128,0,159878:0:0:0:0:
475,192,159850,128,0,159878:0:0:0:0:
402,192,159963,1,0,0:0:0:0:
475,192,159963,1,0,0:0:0:0:
109,192,160076,128,0,160104:0:0:0:0:
36,192,160076,128,0,160104:0:0:0:0:
256,192,160076,128,0,160414:0:0:0:0:
109,192,160189,1,0,0:0:0:0:
36,192,160189,1,0,0:0:0:0:
329,192,160301,128,0,160330:0:0:0:0:
402,192,160301,128,0,160330:0:0:0:0:
329,192,160414,1,0,0:0:0:0:
402,192,160414,1,0,0:0:0:0:
36,192,160527,128,0,160555:0:0:0:0:
109,192,160527,128,0,160555:0:0:0:0:
256,192,160527,128,0,160865:0:0:0:0:
182,192,160527,128,0,160865:0:0:0:0:
36,192,160640,1,0,0:0:0:0:
109,192,160640,1,0,0:0:0:0:
402,192,160752,128,0,160781:0:0:0:0:
475,192,160752,128,0,160781:0:0:0:0:
402,192,160865,1,0,0:0:0:0:
475,192,160865,1,0,0:0:0:0:
36,192,160978,128,0,161006:0:0:0:0:
109,192,160978,128,0,161006:0:0:0:0:
256,192,160978,128,0,161316:0:0:0:0:
109,192,161091,1,0,0:0:0:0:
36,192,161091,1,0,0:0:0:0:
402,192,161204,128,0,161232:0:0:0:0:
475,192,161204,128,0,161232:0:0:0:0:
402,192,161316,1,0,0:0:0:0:
475,192,161316,1,0,0:0:0:0:
182,192,161429,128,0,161457:0:0:0:0:
109,192,161429,128,0,161457:0:0:0:0:
256,192,161429,128,0,161767:0:0:0:0:
329,192,161429,128,0,161767:0:0:0:0:
182,192,161542,1,0,0:0:0:0:
109,192,161542,1,0,0:0:0:0:
402,192,161655,128,0,161683:0:0:0:0:
475,192,161655,128,0,161683:0:0:0:0:
402,192,161767,1,0,0:0:0:0:
475,192,161767,1,0,0:0:0:0:
109,192,161880,128,0,161908:0:0:0:0:
36,192,161880,128,0,161908:0:0:0:0:
256,192,161880,128,0,162219:0:0:0:0:
109,192,161993,1,0,0:0:0:0:
36,192,161993,1,0,0:0:0:0:
329,192,162106,128,0,162134:0:0:0:0:
402,192,162106,128,0,162134:0:0:0:0:
329,192,162219,1,0,0:0:0:0:
402,192,162219,1,0,0:0:0:0:
36,192,162331,128,0,162360:0:0:0:0:
109,192,162331,128,0,162360:0:0:0:0:
256,192,162331,128,0,162670:0:0:0:0:
182,192,162331,128,0,162670:0:0:0:0:
36,192,162444,1,0,0:0:0:0:
109,192,162444,1,0,0:0:0:0:
402,192,162557,128,0,162585:0:0:0:0:
475,192,162557,128,0,162585:0:0:0:0:
402,192,162670,1,0,0:0:0:0:
475,192,162670,1,0,0:0:0:0:
109,192,162783,128,0,162839:0:0:0:0:
36,192,162783,128,0,162839:0:0:0:0:
182,192,162783,128,0,163008:0:0:0:0:
329,192,162895,1,0,0:0:0:0:
402,192,162895,1,0,0:0:0:0:
36,192,163008,128,0,163177:0:0:0:0:
109,192,163008,128,0,163177:0:0:0:0:
256,192,163008,128,0,163121:0:0:0:0:
402,192,163121,1,0,0:0:0:0:
329,192,163121,1,0,0:0:0:0:
256,192,163234,1,0,0:0:0:0:
109,192,163234,1,0,0:0:0:0:
36,192,163234,1,0,0:0:0:0:
475,192,163234,128,0,163346:0:0:0:0:
329,192,163346,1,0,0:0:0:0:
402,192,163459,128,0,163516:0:0:0:0:
475,192,163459,128,0,163516:0:0:0:0:
182,192,163459,128,0,163685:0:0:0:0:
36,192,163572,1,0,0:0:0:0:
109,192,163572,1,0,0:0:0:0:
402,192,163685,128,0,163854:0:0:0:0:
475,192,163685,128,0,163854:0:0:0:0:
256,192,163685,128,0,163798:0:0:0:0:
109,192,163798,1,0,0:0:0:0:
36,192,163798,1,0,0:0:0:0:
475,192,163910,1,0,0:0:0:0:
402,192,163910,128,0,164023:0:0:0:0:
256,192,163910,1,0,0:0:0:0:
182,192,164023,1,0,0:0:0:0:
109,192,164136,128,0,164192:0:0:0:0:
36,192,164136,128,0,164192:0:0:0:0:
402,192,164136,128,0,164361:0:0:0:0:
256,192,164249,1,0,0:0:0:0:
182,192,164249,1,0,0:0:0:0:
109,192,164361,128,0,164531:0:0:0:0:
36,192,164361,128,0,164531:0:0:0:0:
475,192,164361,128,0,164474:0:0:0:0:
329,192,164474,1,0,0:0:0:0:
256,192,164474,1,0,0:0:0:0:
402,192,164587,1,0,0:0:0:0:
109,192,164587,1,0,0:0:0:0:
36,192,164587,128,0,164700:0:0:0:0:
182,192,164700,1,0,0:0:0:0:
256,192,164700,1,0,0:0:0:0:
329,192,164813,128,0,164869:0:0:0:0:
402,192,164813,128,0,164869:0:0:0:0:
36,192,164813,1,0,0:0:0:0:
109,192,164813,1,0,0:0:0:0:
256,192,164925,1,0,0:0:0:0:
109,192,165038,1,0,0:0:0:0:
402,192,165038,128,0,165207:0:0:0:0:
475,192,165038,128,0,165207:0:0:0:0:
36,192,165038,1,0,0:0:0:0:
182,192,165151,1,0,0:0:0:0:
402,192,165264,1,0,0:0:0:0:
475,192,165264,1,0,0:0:0:0:
256,192,165264,1,0,0:0:0:0:
329,192,165376,1,0,0:0:0:0:
36,192,165489,1,0,0:0:0:0:
182,192,165489,128,0,165546:0:0:0:0:
109,192,165489,128,0,165546:0:0:0:0:
402,192,165489,1,0,0:0:0:0:
475,192,165489,1,0,0:0:0:0:
256,192,165602,1,0,0:0:0:0:
329,192,165602,1,0,0:0:0:0:
402,192,165715,1,0,0:0:0:0:
475,192,165715,1,0,0:0:0:0:
109,192,165715,128,0,165884:0:0:0:0:
36,192,165715,128,0,165884:0:0:0:0:
256,192,165828,1,0,0:0:0:0:
182,192,165940,1,0,0:0:0:0:
329,192,165940,128,0,165997:0:0:0:0:
402,192,165940,128,0,165997:0:0:0:0:
36,192,165940,1,0,0:0:0:0:
109,192,165940,1,0,0:0:0:0:
402,192,166053,1,0,0:0:0:0:
329,192,166053,1,0,0:0:0:0:
182,192,166166,128,0,166222:0:0:0:0:
109,192,166166,128,0,166222:0:0:0:0:
475,192,166166,1,0,0:0:0:0:
256,192,166166,1,0,0:0:0:0:
182,192,166279,1,0,0:0:0:0:
109,192,166279,1,0,0:0:0:0:
402,192,166279,1,0,0:0:0:0:
36,192,166392,128,0,166420:0:0:0:0:
109,192,166392,128,0,166420:0:0:0:0:
329,192,166392,128,0,166504:0:0:0:0:
109,192,166504,1,0,0:0:0:0:
36,192,166504,1,0,0:0:0:0:
402,192,166617,128,0,166645:0:0:0:0:
475,192,166617,128,0,166645:0:0:0:0:
182,192,166617,128,0,166730:0:0:0:0:
402,192,166730,1,0,0:0:0:0:
475,192,166730,1,0,0:0:0:0:
182,192,166843,128,0,166871:0:0:0:0:
109,192,166843,128,0,166871:0:0:0:0:
256,192,166843,128,0,167181:0:0:0:0:
329,192,166843,128,0,167181:0:0:0:0:
182,192,166955,1,0,0:0:0:0:
109,192,166955,1,0,0:0:0:0:
402,192,167068,128,0,167096:0:0:0:0:
475,192,167068,128,0,167096:0:0:0:0:
402,192,167181,1,0,0:0:0:0:
475,192,167181,1,0,0:0:0:0:
109,192,167294,128,0,167322:0:0:0:0:
36,192,167294,128,0,167322:0:0:0:0:
256,192,167294,128,0,167632:0:0:0:0:
109,192,167407,1,0,0:0:0:0:
36,192,167407,1,0,0:0:0:0:
329,192,167519,128,0,167548:0:0:0:0:
402,192,167519,128,0,167548:0:0:0:0:
329,192,167632,1,0,0:0:0:0:
402,192,167632,1,0,0:0:0:0:
36,192,167745,128,0,167773:0:0:0:0:
109,192,167745,128,0,167773:0:0:0:0:
256,192,167745,128,0,168083:0:0:0:0:
182,192,167745,128,0,168083:0:0:0:0:
36,192,167858,1,0,0:0:0:0:
109,192,167858,1,0,0:0:0:0:
402,192,167970,128,0,167999:0:0:0:0:
475,192,167970,128,0,167999:0:0:0:0:
402,192,168083,1,0,0:0:0:0:
475,192,168083,1,0,0:0:0:0:
36,192,168196,128,0,168224:0:0:0:0:
109,192,168196,128,0,168224:0:0:0:0:
256,192,168196,128,0,168534:0:0:0:0:
109,192,168309,1,0,0:0:0:0:
36,192,168309,1,0,0:0:0:0:
402,192,168422,128,0,168450:0:0:0:0:
475,192,168422,128,0,168450:0:0:0:0:
402,192,168534,1,0,0:0:0:0:
475,192,168534,1,0,0:0:0:0:
182,192,168647,128,0,168675:0:0:0:0:
109,192,168647,128,0,168675:0:0:0:0:
256,192,168647,128,0,168986:0:0:0:0:
329,192,168647,128,0,168986:0:0:0:0:
182,192,168760,1,0,0:0:0:0:
109,192,168760,1,0,0:0:0:0:
402,192,168873,128,0,168901:0:0:0:0:
475,192,168873,128,0,168901:0:0:0:0:
402,192,168986,1,0,0:0:0:0:
475,192,168986,1,0,0:0:0:0:
109,192,169098,128,0,169126:0:0:0:0:
36,192,169098,128,0,169126:0:0:0:0:
256,192,169098,128,0,169437:0:0:0:0:
109,192,169211,1,0,0:0:0:0:
36,192,169211,1,0,0:0:0:0:
329,192,169324,128,0,169352:0:0:0:0:
402,192,169324,128,0,169352:0:0:0:0:
329,192,169437,1,0,0:0:0:0:
402,192,169437,1,0,0:0:0:0:
36,192,169549,128,0,169578:0:0:0:0:
109,192,169549,128,0,169578:0:0:0:0:
256,192,169549,128,0,169888:0:0:0:0:
182,192,169549,128,0,169888:0:0:0:0:
36,192,169662,1,0,0:0:0:0:
109,192,169662,1,0,0:0:0:0:
402,192,169775,128,0,169803:0:0:0:0:
475,192,169775,128,0,169803:0:0:0:0:
402,192,169888,1,0,0:0:0:0:
475,192,169888,1,0,0:0:0:0:
109,192,170001,1,0,0:0:0:0:
36,192,170001,1,0,0:0:0:0:
182,192,170001,1,0,0:0:0:0:
182,192,170113,128,0,170339:0:0:0:0:
109,192,170113,128,0,170339:0:0:0:0:
36,192,170113,128,0,170339:0:0:0:0:
256,192,170226,1,0,0:0:0:0:
329,192,170226,1,0,0:0:0:0:
256,192,170339,128,0,170564:0:0:0:0:
329,192,170339,128,0,170564:0:0:0:0:
182,192,170452,1,0,0:0:0:0:
109,192,170452,1,0,0:0:0:0:
402,192,170452,1,0,0:0:0:0:
475,192,170452,1,0,0:0:0:0:
109,192,170564,1,0,0:0:0:0:
182,192,170564,1,0,0:0:0:0:
402,192,170564,128,0,170790:0:0:0:0:
475,192,170564,128,0,170790:0:0:0:0:
329,192,170677,1,0,0:0:0:0:
256,192,170677,1,0,0:0:0:0:
36,192,170790,1,0,0:0:0:0:
109,192,170790,1,0,0:0:0:0:
182,192,170790,128,0,171016:0:0:0:0:
256,192,170790,128,0,171016:0:0:0:0:
402,192,170903,1,0,0:0:0:0:
475,192,170903,1,0,0:0:0:0:
329,192,170903,1,0,0:0:0:0:
109,192,170903,128,0,171241:0:0:0:0:
36,192,170903,128,0,171241:0:0:0:0:
329,192,171016,128,0,171241:0:0:0:0:
402,192,171016,128,0,171241:0:0:0:0:
475,192,171016,128,0,171241:0:0:0:0:
256,192,171128,1,0,0:0:0:0:
182,192,171128,1,0,0:0:0:0:
256,192,171241,128,0,171467:0:0:0:0:
182,192,171241,128,0,171467:0:0:0:0:
329,192,171354,1,0,0:0:0:0:
402,192,171354,1,0,0:0:0:0:
109,192,171354,1,0,0:0:0:0:
36,192,171354,1,0,0:0:0:0:
402,192,171467,1,0,0:0:0:0:
329,192,171467,1,0,0:0:0:0:
109,192,171467,128,0,171692:0:0:0:0:
36,192,171467,128,0,171692:0:0:0:0:
256,192,171580,128,0,171692:0:0:0:0:
182,192,171580,128,0,171692:0:0:0:0:
402,192,171692,1,0,0:0:0:0:
329,192,171692,1,0,0:0:0:0:
182,192,171805,1,0,0:0:0:0:
109,192,171805,1,0,0:0:0:0:
36,192,171805,1,0,0:0:0:0:
329,192,171805,128,0,171974:0:0:0:0:
402,192,171805,128,0,171974:0:0:0:0:
475,192,171805,128,0,171974:0:0:0:0:
109,192,171918,1,0,0:0:0:0:
36,192,171918,1,0,0:0:0:0:
329,192,172031,128,0,172143:0:0:0:0:
402,192,172031,128,0,172143:0:0:0:0:
475,192,172031,128,0,172143:0:0:0:0:
256,192,172031,128,0,172143:0:0:0:0:
182,192,172143,1,0,0:0:0:0:
109,192,172143,1,0,0:0:0:0:
329,192,172256,1,0,0:0:0:0:
402,192,172256,1,0,0:0:0:0:
475,192,172256,1,0,0:0:0:0:
182,192,172256,128,0,172369:0:0:0:0:
36,192,172256,128,0,172369:0:0:0:0:
109,192,172256,128,0,172369:0:0:0:0:
475,192,172369,1,0,0:0:0:0:
402,192,172369,1,0,0:0:0:0:
36,192,172482,128,0,172595:0:0:0:0:
109,192,172482,128,0,172595:0:0:0:0:
182,192,172482,128,0,172595:0:0:0:0:
256,192,172482,128,0,172595:0:0:0:0:
402,192,172595,1,0,0:0:0:0:
329,192,172595,1,0,0:0:0:0:
182,192,172707,1,0,0:0:0:0:
109,192,172707,1,0,0:0:0:0:
329,192,172707,1,0,0:0:0:0:
402,192,172707,1,0,0:0:0:0:
36,192,172707,128,0,172933:0:0:0:0:
475,192,172707,128,0,172820:0:0:0:0:
256,192,172820,1,0,0:0:0:0:
182,192,172933,1,0,0:0:0:0:
109,192,172933,1,0,0:0:0:0:
329,192,172933,1,0,0:0:0:0:
402,192,172933,1,0,0:0:0:0:
475,192,172933,128,0,173158:0:0:0:0:
36,192,173046,128,0,173158:0:0:0:0:
402,192,173158,1,0,0:0:0:0:
329,192,173158,1,0,0:0:0:0:
182,192,173158,1,0,0:0:0:0:
109,192,173158,1,0,0:0:0:0:
256,192,173158,128,0,173384:0:0:0:0:
475,192,173271,128,0,173384:0:0:0:0:
402,192,173384,1,0,0:0:0:0:
329,192,173384,1,0,0:0:0:0:
182,192,173384,1,0,0:0:0:0:
109,192,173384,1,0,0:0:0:0:
36,192,173384,1,0,0:0:0:0:
256,192,173497,128,0,173610:0:0:0:0:
182,192,173610,128,0,173779:0:0:0:0:
109,192,173610,128,0,174004:0:0:0:0:
36,192,173610,128,0,174230:0:0:0:0:
329,192,173610,128,0,173892:0:0:0:0:
402,192,173610,128,0,174117:0:0:0:0:
475,192,173610,128,0,174343:0:0:0:0:
256,192,173722,1,0,0:0:0:0:
182,192,173835,1,0,0:0:0:0:
329,192,173948,1,0,0:0:0:0:
109,192,174061,1,0,0:0:0:0:
402,192,174173,1,0,0:0:0:0:
36,192,174286,1,0,0:0:0:0:
475,192,174399,1,0,0:0:0:0:
36,192,174512,1,0,0:0:0:0:
402,192,174625,1,0,0:0:0:0:
475,192,174625,128,0,175358:0:0:0:0:
36,192,174737,128,0,175358:0:0:0:0:
109,192,174737,1,0,0:0:0:0:
402,192,174850,128,0,175358:0:0:0:0:
329,192,174850,1,0,0:0:0:0:
109,192,174963,128,0,175358:0:0:0:0:
182,192,174963,1,0,0:0:0:0:
329,192,175076,128,0,175358:0:0:0:0:
182,192,175189,128,0,175358:0:0:0:0:
256,192,175189,1,0,0:0:0:0:
256,192,175301,128,0,175358:0:0:0:0:
182,192,175414,1,0,0:0:0:0:
109,192,175414,1,0,0:0:0:0:
36,192,175414,1,0,0:0:0:0:
475,192,175414,1,0,0:0:0:0:
402,192,175414,1,0,0:0:0:0:
329,192,175414,1,0,0:0:0:0:
256,192,175527,128,0,176880:0:0:0:0:
329,192,175640,128,0,176542:0:0:0:0:
182,192,175752,128,0,176429:0:0:0:0:
402,192,175865,128,0,176316:0:0:0:0:
109,192,175978,128,0,176204:0:0:0:0:
475,192,176091,1,0,0:0:0:0:
36,192,176204,1,0,0:0:0:0:
475,192,176316,1,0,0:0:0:0:
109,192,176429,1,0,0:0:0:0:
36,192,176429,128,0,176655:0:0:0:0:
402,192,176542,1,0,0:0:0:0:
475,192,176542,128,0,176767:0:0:0:0:
182,192,176655,1,0,0:0:0:0:
109,192,176655,128,0,176880:0:0:0:0:
329,192,176767,1,0,0:0:0:0:
402,192,176767,128,0,176993:0:0:0:0:
182,192,176880,128,0,177106:0:0:0:0:
256,192,176993,1,0,0:0:0:0:
329,192,176993,128,0,177106:0:0:0:0:
256,192,177106,128,0,177162:0:0:0:0:
329,192,177219,128,0,177501:0:0:0:0:
402,192,177219,128,0,177726:0:0:0:0:
475,192,177219,128,0,177952:0:0:0:0:
182,192,177219,128,0,177388:0:0:0:0:
109,192,177219,128,0,177613:0:0:0:0:
36,192,177219,128,0,177839:0:0:0:0:
256,192,177331,1,0,0:0:0:0:
182,192,177444,1,0,0:0:0:0:
329,192,177557,1,0,0:0:0:0:
109,192,177670,1,0,0:0:0:0:
402,192,177783,1,0,0:0:0:0:
36,192,177895,1,0,0:0:0:0:
475,192,178008,1,0,0:0:0:0:
36,192,178121,1,0,0:0:0:0:
475,192,178234,128,0,178967:0:0:0:0:
402,192,178234,1,0,0:0:0:0:
109,192,178346,1,0,0:0:0:0:
36,192,178346,128,0,178967:0:0:0:0:
329,192,178459,1,0,0:0:0:0:
402,192,178459,128,0,178967:0:0:0:0:
182,192,178572,1,0,0:0:0:0:
109,192,178572,128,0,178967:0:0:0:0:
329,192,178685,128,0,178967:0:0:0:0:
256,192,178798,1,0,0:0:0:0:
182,192,178798,128,0,178967:0:0:0:0:
256,192,178910,128,0,178967:0:0:0:0:
182,192,179023,1,0,0:0:0:0:
109,192,179023,1,0,0:0:0:0:
36,192,179023,1,0,0:0:0:0:
329,192,179023,1,0,0:0:0:0:
402,192,179023,1,0,0:0:0:0:
475,192,179023,1,0,0:0:0:0:
256,192,179136,128,0,180376:0:0:0:0:
329,192,179249,128,0,180151:0:0:0:0:
182,192,179361,128,0,180038:0:0:0:0:
402,192,179474,128,0,179925:0:0:0:0:
109,192,179587,128,0,179813:0:0:0:0:
475,192,179700,1,0,0:0:0:0:
36,192,179813,1,0,0:0:0:0:
475,192,179925,1,0,0:0:0:0:
109,192,180038,1,0,0:0:0:0:
36,192,180038,128,0,180771:0:0:0:0:
475,192,180151,128,0,180771:0:0:0:0:
402,192,180151,1,0,0:0:0:0:
109,192,180264,128,0,180771:0:0:0:0:
182,192,180264,1,0,0:0:0:0:
402,192,180376,128,0,180771:0:0:0:0:
329,192,180376,1,0,0:0:0:0:
182,192,180489,128,0,180771:0:0:0:0:
256,192,180489,1,0,0:0:0:0:
329,192,180602,128,0,180771:0:0:0:0:
256,192,180715,128,0,180771:0:0:0:0:
329,192,180828,128,0,180997:0:0:0:0:
402,192,180828,128,0,181110:0:0:0:0:
475,192,180828,128,0,181222:0:0:0:0:
182,192,180828,128,0,181053:0:0:0:0:
109,192,180828,128,0,181279:0:0:0:0:
36,192,180828,128,0,181504:0:0:0:0:
256,192,180940,1,0,0:0:0:0:
329,192,181053,1,0,0:0:0:0:
402,192,181166,1,0,0:0:0:0:
182,192,181166,128,0,181279:0:0:0:0:
475,192,181279,1,0,0:0:0:0:
256,192,181279,1,0,0:0:0:0:
109,192,181392,128,0,181504:0:0:0:0:
402,192,181392,1,0,0:0:0:0:
182,192,181504,1,0,0:0:0:0:
329,192,181504,1,0,0:0:0:0:
402,192,181617,1,0,0:0:0:0:
36,192,181617,128,0,181730:0:0:0:0:
475,192,181730,128,0,181786:0:0:0:0:
256,192,181730,128,0,181843:0:0:0:0:
109,192,181730,1,0,0:0:0:0:
475,192,181843,128,0,182576:0:0:0:0:
329,192,181843,1,0,0:0:0:0:
182,192,181843,128,0,181955:0:0:0:0:
402,192,181955,128,0,182012:0:0:0:0:
109,192,181955,128,0,182068:0:0:0:0:
256,192,182068,1,0,0:0:0:0:
402,192,182068,128,0,182576:0:0:0:0:
36,192,182068,128,0,182576:0:0:0:0:
329,192,182181,128,0,182237:0:0:0:0:
109,192,182181,128,0,182576:0:0:0:0:
329,192,182294,128,0,182576:0:0:0:0:
182,192,182294,128,0,182576:0:0:0:0:
256,192,182407,128,0,182463:0:0:0:0:
256,192,182519,128,0,182689:0:0:0:0:
182,192,182632,128,0,182801:0:0:0:0:
109,192,182632,128,0,182914:0:0:0:0:
36,192,182632,128,0,183027:0:0:0:0:
329,192,182632,128,0,182858:0:0:0:0:
402,192,182632,128,0,183083:0:0:0:0:
475,192,182632,128,0,183309:0:0:0:0:
256,192,182745,1,0,0:0:0:0:
182,192,182858,1,0,0:0:0:0:
109,192,182970,1,0,0:0:0:0:
329,192,182970,128,0,183083:0:0:0:0:
36,192,183083,1,0,0:0:0:0:
256,192,183083,1,0,0:0:0:0:
402,192,183196,128,0,183309:0:0:0:0:
109,192,183196,1,0,0:0:0:0:
329,192,183309,1,0,0:0:0:0:
182,192,183309,1,0,0:0:0:0:
109,192,183422,1,0,0:0:0:0:
475,192,183422,128,0,183534:0:0:0:0:
36,192,183534,128,0,183591:0:0:0:0:
256,192,183534,128,0,183647:0:0:0:0:
402,192,183534,1,0,0:0:0:0:
36,192,183647,128,0,184380:0:0:0:0:
182,192,183647,1,0,0:0:0:0:
329,192,183647,128,0,183760:0:0:0:0:
109,192,183760,128,0,183816:0:0:0:0:
402,192,183760,128,0,183873:0:0:0:0:
256,192,183873,1,0,0:0:0:0:
109,192,183873,128,0,184380:0:0:0:0:
475,192,183873,128,0,184380:0:0:0:0:
182,192,183986,128,0,184042:0:0:0:0:
402,192,183986,128,0,184380:0:0:0:0:
182,192,184098,128,0,184380:0:0:0:0:
329,192,184098,128,0,184380:0:0:0:0:
256,192,184211,128,0,184267:0:0:0:0:
256,192,184324,128,0,184493:0:0:0:0:
329,192,184437,128,0,184719:0:0:0:0:
402,192,184437,128,0,184944:0:0:0:0:
475,192,184437,128,0,185170:0:0:0:0:
182,192,184437,128,0,184606:0:0:0:0:
109,192,184437,128,0,184831:0:0:0:0:
36,192,184437,128,0,185057:0:0:0:0:
256,192,184549,1,0,0:0:0:0:
182,192,184662,1,0,0:0:0:0:
329,192,184775,1,0,0:0:0:0:
256,192,184775,1,0,0:0:0:0:
109,192,184888,1,0,0:0:0:0:
182,192,184888,1,0,0:0:0:0:
402,192,185001,1,0,0:0:0:0:
329,192,185001,1,0,0:0:0:0:
36,192,185113,1,0,0:0:0:0:
109,192,185113,1,0,0:0:0:0:
475,192,185226,1,0,0:0:0:0:
402,192,185226,1,0,0:0:0:0:
109,192,185339,1,0,0:0:0:0:
36,192,185339,1,0,0:0:0:0:
109,192,185452,128,0,185734:0:0:0:0:
36,192,185452,128,0,185734:0:0:0:0:
402,192,185564,1,0,0:0:0:0:
475,192,185564,1,0,0:0:0:0:
402,192,185677,128,0,185959:0:0:0:0:
475,192,185677,128,0,185959:0:0:0:0:
182,192,185790,1,0,0:0:0:0:
109,192,185790,1,0,0:0:0:0:
109,192,185903,128,0,186185:0:0:0:0:
182,192,185903,128,0,186185:0:0:0:0:
329,192,186016,1,0,0:0:0:0:
402,192,186016,1,0,0:0:0:0:
329,192,186128,128,0,186185:0:0:0:0:
402,192,186128,128,0,186185:0:0:0:0:
256,192,186241,128,0,186298:0:0:0:0:
182,192,186241,128,0,186410:0:0:0:0:
109,192,186241,128,0,186636:0:0:0:0:
36,192,186241,128,0,186861:0:0:0:0:
329,192,186241,128,0,186523:0:0:0:0:
402,192,186241,128,0,186749:0:0:0:0:
475,192,186241,128,0,186974:0:0:0:0:
256,192,186354,1,0,0:0:0:0:
182,192,186467,1,0,0:0:0:0:
256,192,186580,1,0,0:0:0:0:
329,192,186580,1,0,0:0:0:0:
182,192,186692,1,0,0:0:0:0:
109,192,186692,1,0,0:0:0:0:
329,192,186805,1,0,0:0:0:0:
402,192,186805,1,0,0:0:0:0:
109,192,186918,1,0,0:0:0:0:
36,192,186918,1,0,0:0:0:0:
402,192,187031,1,0,0:0:0:0:
475,192,187031,1,0,0:0:0:0:
182,192,187143,1,0,0:0:0:0:
109,192,187143,1,0,0:0:0:0:
36,192,187143,1,0,0:0:0:0:
329,192,187256,1,0,0:0:0:0:
402,192,187256,1,0,0:0:0:0:
475,192,187256,1,0,0:0:0:0:
256,192,187369,1,0,0:0:0:0:
182,192,187369,1,0,0:0:0:0:
109,192,187369,1,0,0:0:0:0:
36,192,187369,1,0,0:0:0:0:
329,192,187482,1,0,0:0:0:0:
256,192,187482,1,0,0:0:0:0:
402,192,187482,1,0,0:0:0:0:
475,192,187482,1,0,0:0:0:0:
182,192,187595,1,0,0:0:0:0:
109,192,187595,1,0,0:0:0:0:
36,192,187595,1,0,0:0:0:0:
329,192,187707,1,0,0:0:0:0:
402,192,187707,1,0,0:0:0:0:
475,192,187707,1,0,0:0:0:0:
256,192,187820,1,0,0:0:0:0:
109,192,188046,128,0,188102:0:0:0:0:
36,192,188046,128,0,188440:0:0:0:0:
329,192,188046,128,0,188271:0:0:0:0:
402,192,188046,128,0,188271:0:0:0:0:
182,192,188158,128,0,188215:0:0:0:0:
256,192,188271,128,0,188328:0:0:0:0:
475,192,188271,128,0,188497:0:0:0:0:
329,192,188384,128,0,188440:0:0:0:0:
402,192,188497,128,0,188553:0:0:0:0:
109,192,188497,128,0,188892:0:0:0:0:
36,192,188497,128,0,188553:0:0:0:0:
256,192,188497,128,0,188553:0:0:0:0:
182,192,188497,128,0,188722:0:0:0:0:
329,192,188610,128,0,188666:0:0:0:0:
256,192,188722,128,0,188779:0:0:0:0:
402,192,188722,128,0,188948:0:0:0:0:
475,192,188722,128,0,189173:0:0:0:0:
182,192,188835,128,0,188892:0:0:0:0:
109,192,188948,128,0,189004:0:0:0:0:
329,192,188948,128,0,189343:0:0:0:0:
36,192,188948,128,0,189173:0:0:0:0:
182,192,189061,128,0,189117:0:0:0:0:
256,192,189173,128,0,189230:0:0:0:0:
402,192,189173,128,0,189343:0:0:0:0:
36,192,189286,128,0,189343:0:0:0:0:
475,192,189286,128,0,189343:0:0:0:0:
109,192,189399,128,0,189455:0:0:0:0:
329,192,189399,128,0,189455:0:0:0:0:
36,192,189399,128,0,189794:0:0:0:0:
182,192,189512,128,0,189568:0:0:0:0:
402,192,189512,128,0,189568:0:0:0:0:
256,192,189625,128,0,189681:0:0:0:0:
475,192,189625,128,0,189681:0:0:0:0:
109,192,189625,128,0,189794:0:0:0:0:
329,192,189737,128,0,189794:0:0:0:0:
402,192,189850,128,0,189907:0:0:0:0:
475,192,189850,128,0,190245:0:0:0:0:
182,192,189850,128,0,190076:0:0:0:0:
109,192,189850,128,0,190076:0:0:0:0:
329,192,189963,128,0,190019:0:0:0:0:
256,192,190076,128,0,190132:0:0:0:0:
36,192,190076,128,0,190301:0:0:0:0:
182,192,190189,128,0,190245:0:0:0:0:
109,192,190301,128,0,190358:0:0:0:0:
402,192,190301,128,0,190696:0:0:0:0:
475,192,190301,128,0,190358:0:0:0:0:
256,192,190301,128,0,190358:0:0:0:0:
329,192,190301,128,0,190527:0:0:0:0:
182,192,190414,128,0,190470:0:0:0:0:
256,192,190527,128,0,190583:0:0:0:0:
109,192,190527,128,0,190752:0:0:0:0:
36,192,190527,128,0,190978:0:0:0:0:
329,192,190640,128,0,190696:0:0:0:0:
402,192,190752,128,0,190809:0:0:0:0:
182,192,190752,128,0,191147:0:0:0:0:
475,192,190752,128,0,190978:0:0:0:0:
329,192,190865,128,0,190922:0:0:0:0:
256,192,190978,128,0,191034:0:0:0:0:
109,192,190978,128,0,191147:0:0:0:0:
475,192,191091,128,0,191147:0:0:0:0:
36,192,191091,128,0,191147:0:0:0:0:
402,192,191204,128,0,191260:0:0:0:0:
182,192,191204,128,0,191260:0:0:0:0:
475,192,191204,128,0,191542:0:0:0:0:
329,192,191316,128,0,191373:0:0:0:0:
109,192,191316,128,0,191373:0:0:0:0:
256,192,191429,128,0,191486:0:0:0:0:
36,192,191429,128,0,191486:0:0:0:0:
402,192,191429,128,0,191542:0:0:0:0:
182,192,191542,128,0,191598:0:0:0:0:
109,192,191655,128,0,191711:0:0:0:0:
36,192,191655,128,0,191711:0:0:0:0:
329,192,191655,128,0,192049:0:0:0:0:
475,192,191655,1,0,0:0:0:0:
402,192,191655,1,0,0:0:0:0:
182,192,191767,128,0,191824:0:0:0:0:
256,192,191880,128,0,192049:0:0:0:0:
109,192,191880,128,0,191937:0:0:0:0:
36,192,191993,128,0,192049:0:0:0:0:
182,192,192106,128,0,192501:0:0:0:0:
256,192,192106,1,0,0:0:0:0:
329,192,192106,1,0,0:0:0:0:
475,192,192106,128,0,192162:0:0:0:0:
402,192,192219,128,0,192275:0:0:0:0:
109,192,192331,128,0,192501:0:0:0:0:
329,192,192331,128,0,192388:0:0:0:0:
402,192,192444,128,0,192501:0:0:0:0:
256,192,192557,128,0,192952:0:0:0:0:
109,192,192557,1,0,0:0:0:0:
182,192,192557,1,0,0:0:0:0:
36,192,192557,128,0,192613:0:0:0:0:
475,192,192557,128,0,192613:0:0:0:0:
402,192,192670,128,0,192726:0:0:0:0:
329,192,192783,128,0,192952:0:0:0:0:
109,192,192783,128,0,192839:0:0:0:0:
182,192,192895,128,0,192952:0:0:0:0:
109,192,193008,128,0,193403:0:0:0:0:
329,192,193008,1,0,0:0:0:0:
256,192,193008,1,0,0:0:0:0:
475,192,193008,128,0,193064:0:0:0:0:
36,192,193008,128,0,193064:0:0:0:0:
402,192,193121,128,0,193177:0:0:0:0:
36,192,193234,128,0,193403:0:0:0:0:
329,192,193234,128,0,193290:0:0:0:0:
256,192,193346,128,0,193403:0:0:0:0:
402,192,193459,128,0,193516:0:0:0:0:
475,192,193459,128,0,193516:0:0:0:0:
36,192,193459,1,0,0:0:0:0:
109,192,193459,1,0,0:0:0:0:
182,192,193459,128,0,193854:0:0:0:0:
329,192,193572,128,0,193854:0:0:0:0:
256,192,193685,128,0,193854:0:0:0:0:
402,192,193685,128,0,194080:0:0:0:0:
475,192,193798,128,0,194305:0:0:0:0:
329,192,193910,128,0,194305:0:0:0:0:
256,192,193910,1,0,0:0:0:0:
182,192,193910,1,0,0:0:0:0:
36,192,193910,128,0,194305:0:0:0:0:
109,192,194023,128,0,194192:0:0:0:0:
402,192,194136,128,0,194305:0:0:0:0:
182,192,194136,128,0,194531:0:0:0:0:
109,192,194249,128,0,194418:0:0:0:0:
256,192,194361,128,0,194756:0:0:0:0:
402,192,194361,1,0,0:0:0:0:
329,192,194361,1,0,0:0:0:0:
36,192,194361,128,0,194756:0:0:0:0:
475,192,194361,128,0,194756:0:0:0:0:
109,192,194474,128,0,194869:0:0:0:0:
182,192,194587,128,0,194756:0:0:0:0:
402,192,194587,128,0,194756:0:0:0:0:
329,192,194700,128,0,195207:0:0:0:0:
402,192,194813,128,0,195207:0:0:0:0:
182,192,194813,1,0,0:0:0:0:
256,192,194813,1,0,0:0:0:0:
36,192,194813,1,0,0:0:0:0:
475,192,194813,128,0,194982:0:0:0:0:
109,192,194925,1,0,0:0:0:0:
475,192,195038,128,0,195207:0:0:0:0:
182,192,195038,1,0,0:0:0:0:
256,192,195151,1,0,0:0:0:0:
329,192,195264,128,0,195320:0:0:0:0:
475,192,195264,128,0,195658:0:0:0:0:
36,192,195264,128,0,195489:0:0:0:0:
109,192,195264,128,0,195489:0:0:0:0:
402,192,195264,128,0,195489:0:0:0:0:
256,192,195376,128,0,195433:0:0:0:0:
182,192,195489,128,0,195546:0:0:0:0:
329,192,195489,128,0,195715:0:0:0:0:
109,192,195602,128,0,195658:0:0:0:0:
402,192,195715,128,0,196110:0:0:0:0:
475,192,195715,128,0,195771:0:0:0:0:
256,192,195715,128,0,195771:0:0:0:0:
36,192,195715,128,0,196166:0:0:0:0:
109,192,195828,128,0,195884:0:0:0:0:
182,192,195940,128,0,195997:0:0:0:0:
329,192,195940,128,0,196110:0:0:0:0:
256,192,196053,128,0,196110:0:0:0:0:
329,192,196166,128,0,196222:0:0:0:0:
182,192,196166,128,0,196561:0:0:0:0:
475,192,196166,128,0,196392:0:0:0:0:
402,192,196279,128,0,196335:0:0:0:0:
36,192,196279,128,0,196335:0:0:0:0:
329,192,196392,128,0,196448:0:0:0:0:
109,192,196392,128,0,196673:0:0:0:0:
256,192,196504,128,0,196561:0:0:0:0:
36,192,196504,128,0,196786:0:0:0:0:
402,192,196617,128,0,196673:0:0:0:0:
182,192,196617,128,0,196673:0:0:0:0:
475,192,196617,128,0,197012:0:0:0:0:
329,192,196730,128,0,196786:0:0:0:0:
109,192,196730,128,0,196786:0:0:0:0:
256,192,196843,128,0,196899:0:0:0:0:
36,192,196843,128,0,196899:0:0:0:0:
402,192,196843,128,0,197012:0:0:0:0:
182,192,196955,128,0,197012:0:0:0:0:
182,192,197068,128,0,197125:0:0:0:0:
36,192,197068,128,0,197463:0:0:0:0:
475,192,197068,128,0,197294:0:0:0:0:
402,192,197068,128,0,197294:0:0:0:0:
109,192,197068,128,0,197294:0:0:0:0:
256,192,197181,128,0,197237:0:0:0:0:
329,192,197294,128,0,197350:0:0:0:0:
182,192,197294,128,0,197519:0:0:0:0:
402,192,197407,128,0,197463:0:0:0:0:
109,192,197519,128,0,197914:0:0:0:0:
36,192,197519,128,0,197576:0:0:0:0:
256,192,197519,128,0,197576:0:0:0:0:
475,192,197519,128,0,197970:0:0:0:0:
402,192,197632,128,0,197689:0:0:0:0:
329,192,197745,128,0,197801:0:0:0:0:
182,192,197745,128,0,197914:0:0:0:0:
256,192,197858,128,0,197914:0:0:0:0:
182,192,197970,128,0,198027:0:0:0:0:
329,192,197970,128,0,198365:0:0:0:0:
36,192,197970,128,0,198196:0:0:0:0:
109,192,198083,128,0,198140:0:0:0:0:
475,192,198083,128,0,198140:0:0:0:0:
182,192,198196,128,0,198252:0:0:0:0:
402,192,198196,128,0,198478:0:0:0:0:
256,192,198309,128,0,198365:0:0:0:0:
475,192,198309,128,0,198591:0:0:0:0:
109,192,198422,128,0,198478:0:0:0:0:
329,192,198422,128,0,198478:0:0:0:0:
36,192,198422,128,0,198816:0:0:0:0:
182,192,198534,128,0,198591:0:0:0:0:
402,192,198534,128,0,198591:0:0:0:0:
256,192,198647,128,0,198704:0:0:0:0:
475,192,198647,128,0,198704:0:0:0:0:
109,192,198647,128,0,198816:0:0:0:0:
329,192,198760,128,0,198816:0:0:0:0:
402,192,198873,128,0,198929:0:0:0:0:
475,192,198873,128,0,198929:0:0:0:0:
182,192,198873,128,0,199267:0:0:0:0:
36,192,198873,1,0,0:0:0:0:
109,192,198873,1,0,0:0:0:0:
329,192,198986,128,0,199042:0:0:0:0:
256,192,199098,128,0,199267:0:0:0:0:
402,192,199098,128,0,199155:0:0:0:0:
109,192,199098,1,0,0:0:0:0:
36,192,199098,1,0,0:0:0:0:
475,192,199211,128,0,199267:0:0:0:0:
329,192,199324,128,0,199719:0:0:0:0:
256,192,199324,1,0,0:0:0:0:
182,192,199324,1,0,0:0:0:0:
36,192,199324,128,0,199380:0:0:0:0:
109,192,199437,128,0,199493:0:0:0:0:
402,192,199549,128,0,199719:0:0:0:0:
182,192,199549,128,0,199606:0:0:0:0:
256,192,199549,1,0,0:0:0:0:
475,192,199549,1,0,0:0:0:0:
109,192,199662,128,0,199719:0:0:0:0:
256,192,199775,128,0,200170:0:0:0:0:
402,192,199775,1,0,0:0:0:0:
329,192,199775,1,0,0:0:0:0:
475,192,199775,128,0,199831:0:0:0:0:
36,192,199775,128,0,199831:0:0:0:0:
109,192,199888,128,0,199944:0:0:0:0:
182,192,200001,128,0,200170:0:0:0:0:
402,192,200001,128,0,200057:0:0:0:0:
475,192,200001,1,0,0:0:0:0:
36,192,200001,1,0,0:0:0:0:
329,192,200113,128,0,200170:0:0:0:0:
402,192,200226,128,0,200621:0:0:0:0:
182,192,200226,1,0,0:0:0:0:
256,192,200226,1,0,0:0:0:0:
36,192,200226,128,0,200283:0:0:0:0:
475,192,200226,128,0,200283:0:0:0:0:
109,192,200339,128,0,200395:0:0:0:0:
475,192,200452,128,0,200621:0:0:0:0:
182,192,200452,128,0,200508:0:0:0:0:
329,192,200452,1,0,0:0:0:0:
36,192,200452,1,0,0:0:0:0:
256,192,200564,128,0,200621:0:0:0:0:
109,192,200677,128,0,200734:0:0:0:0:
36,192,200677,128,0,200734:0:0:0:0:
475,192,200677,1,0,0:0:0:0:
402,192,200677,1,0,0:0:0:0:
329,192,200677,128,0,201072:0:0:0:0:
182,192,200790,128,0,201072:0:0:0:0:
256,192,200903,128,0,201072:0:0:0:0:
109,192,200903,128,0,201298:0:0:0:0:
402,192,200903,128,0,200959:0:0:0:0:
475,192,200903,128,0,200959:0:0:0:0:
36,192,201016,128,0,201523:0:0:0:0:
182,192,201128,128,0,201523:0:0:0:0:
256,192,201128,1,0,0:0:0:0:
329,192,201128,1,0,0:0:0:0:
475,192,201128,128,0,201523:0:0:0:0:
402,192,201241,128,0,201410:0:0:0:0:
256,192,201354,128,0,201410:0:0:0:0:
329,192,201354,128,0,201410:0:0:0:0:
109,192,201354,128,0,201523:0:0:0:0:
402,192,201467,128,0,201636:0:0:0:0:
256,192,201580,128,0,201974:0:0:0:0:
109,192,201580,1,0,0:0:0:0:
182,192,201580,1,0,0:0:0:0:
475,192,201580,128,0,201974:0:0:0:0:
36,192,201580,128,0,201974:0:0:0:0:
402,192,201692,128,0,202087:0:0:0:0:
329,192,201805,128,0,201974:0:0:0:0:
109,192,201805,128,0,201861:0:0:0:0:
182,192,201805,128,0,201861:0:0:0:0:
182,192,201918,128,0,202425:0:0:0:0:
329,192,202031,1,0,0:0:0:0:
256,192,202031,1,0,0:0:0:0:
475,192,202031,1,0,0:0:0:0:
36,192,202031,128,0,202200:0:0:0:0:
109,192,202031,128,0,202200:0:0:0:0:
402,192,202143,1,0,0:0:0:0:
36,192,202256,128,0,202425:0:0:0:0:
329,192,202256,1,0,0:0:0:0:
109,192,202256,128,0,202425:0:0:0:0:
475,192,202256,1,0,0:0:0:0:
256,192,202369,1,0,0:0:0:0:
182,192,202482,1,0,0:0:0:0:
109,192,202482,1,0,0:0:0:0:
36,192,202482,1,0,0:0:0:0:
475,192,202482,1,0,0:0:0:0:
329,192,202482,1,0,0:0:0:0:
256,192,202707,128,0,202820:0:0:0:0:
402,192,202707,128,0,202820:0:0:0:0:
329,192,202933,128,0,203046:0:0:0:0:
256,192,203158,128,0,203271:0:0:0:0:
402,192,203158,128,0,203271:0:0:0:0:
182,192,203384,128,0,203610:0:0:0:0:
475,192,203384,128,0,203610:0:0:0:0:
329,192,203384,128,0,203610:0:0:0:0:
256,192,203610,128,0,203835:0:0:0:0:
402,192,203610,128,0,203835:0:0:0:0:
109,192,203610,128,0,203835:0:0:0:0:
329,192,203835,128,0,204061:0:0:0:0:
182,192,203835,128,0,204061:0:0:0:0:
36,192,203835,128,0,204061:0:0:0:0:
109,192,204061,128,0,204286:0:0:0:0:
256,192,204061,128,0,204286:0:0:0:0:
329,192,204286,1,0,0:0:0:0:
475,192,204286,1,0,0:0:0:0:
182,192,204286,1,0,0:0:0:0:
36,192,204286,1,0,0:0:0:0:
256,192,204512,128,0,204625:0:0:0:0:
109,192,204512,128,0,204625:0:0:0:0:
182,192,204737,128,0,204850:0:0:0:0:
256,192,204963,128,0,205076:0:0:0:0:
109,192,204963,128,0,205076:0:0:0:0:
36,192,205189,128,0,205414:0:0:0:0:
182,192,205189,128,0,205414:0:0:0:0:
329,192,205189,128,0,205414:0:0:0:0:
109,192,205414,128,0,205640:0:0:0:0:
256,192,205414,128,0,205640:0:0:0:0:
402,192,205414,128,0,205640:0:0:0:0:
329,192,205640,128,0,205865:0:0:0:0:
182,192,205640,128,0,205865:0:0:0:0:
475,192,205640,128,0,205865:0:0:0:0:
256,192,205865,128,0,206091:0:0:0:0:
402,192,205865,128,0,206091:0:0:0:0:
182,192,206091,1,0,0:0:0:0:
36,192,206091,1,0,0:0:0:0:
329,192,206091,1,0,0:0:0:0:
475,192,206091,1,0,0:0:0:0:
256,192,206316,128,0,206429:0:0:0:0:
402,192,206316,128,0,206429:0:0:0:0:
329,192,206542,128,0,206655:0:0:0:0:
256,192,206767,128,0,206880:0:0:0:0:
402,192,206767,128,0,206880:0:0:0:0:
182,192,206993,128,0,207219:0:0:0:0:
475,192,206993,128,0,207219:0:0:0:0:
329,192,206993,128,0,207219:0:0:0:0:
256,192,206993,128,0,207049:0:0:0:0:
402,192,206993,128,0,207049:0:0:0:0:
256,192,207219,128,0,207444:0:0:0:0:
402,192,207219,128,0,207444:0:0:0:0:
109,192,207219,128,0,207444:0:0:0:0:
329,192,207444,128,0,207670:0:0:0:0:
182,192,207444,128,0,207670:0:0:0:0:
36,192,207444,128,0,207670:0:0:0:0:
109,192,207670,128,0,207895:0:0:0:0:
256,192,207670,128,0,207895:0:0:0:0:
329,192,207895,1,0,0:0:0:0:
475,192,207895,1,0,0:0:0:0:
182,192,207895,1,0,0:0:0:0:
36,192,207895,1,0,0:0:0:0:
256,192,208121,128,0,208234:0:0:0:0:
109,192,208121,128,0,208234:0:0:0:0:
182,192,208346,128,0,208459:0:0:0:0:
256,192,208572,128,0,208685:0:0:0:0:
109,192,208572,128,0,208685:0:0:0:0:
36,192,208798,128,0,209023:0:0:0:0:
182,192,208798,128,0,209023:0:0:0:0:
329,192,208798,128,0,209023:0:0:0:0:
256,192,208798,128,0,208854:0:0:0:0:
109,192,208798,128,0,208854:0:0:0:0:
109,192,209023,128,0,209249:0:0:0:0:
256,192,209023,128,0,209249:0:0:0:0:
402,192,209023,128,0,209249:0:0:0:0:
329,192,209249,128,0,209474:0:0:0:0:
182,192,209249,128,0,209474:0:0:0:0:
475,192,209249,128,0,209474:0:0:0:0:
256,192,209474,128,0,209700:0:0:0:0:
402,192,209474,128,0,209700:0:0:0:0:
182,192,209700,1,0,0:0:0:0:
36,192,209700,1,0,0:0:0:0:
329,192,209700,1,0,0:0:0:0:
475,192,209700,1,0,0:0:0:0:
109,192,209700,128,0,210602:0:0:0:0:
402,192,209925,128,0,210038:0:0:0:0:
256,192,209925,128,0,210038:0:0:0:0:
329,192,210151,128,0,210264:0:0:0:0:
402,192,210376,128,0,210489:0:0:0:0:
256,192,210376,128,0,210489:0:0:0:0:
475,192,210602,128,0,210828:0:0:0:0:
182,192,210602,128,0,210828:0:0:0:0:
329,192,210602,128,0,210771:0:0:0:0:
402,192,210602,128,0,210658:0:0:0:0:
109,192,210828,128,0,211053:0:0:0:0:
402,192,210828,128,0,211053:0:0:0:0:
329,192,210828,1,0,0:0:0:0:
256,192,210828,128,0,210997:0:0:0:0:
36,192,211053,128,0,211279:0:0:0:0:
329,192,211053,128,0,211279:0:0:0:0:
256,192,211053,1,0,0:0:0:0:
182,192,211053,128,0,211222:0:0:0:0:
256,192,211279,128,0,211504:0:0:0:0:
109,192,211279,128,0,211504:0:0:0:0:
182,192,211279,1,0,0:0:0:0:
182,192,211504,1,0,0:0:0:0:
36,192,211504,1,0,0:0:0:0:
329,192,211504,1,0,0:0:0:0:
475,192,211504,1,0,0:0:0:0:
402,192,211504,128,0,212125:0:0:0:0:
109,192,211730,128,0,211843:0:0:0:0:
256,192,211730,128,0,211843:0:0:0:0:
182,192,211955,128,0,212068:0:0:0:0:
109,192,212181,128,0,212294:0:0:0:0:
256,192,212181,128,0,212294:0:0:0:0:
402,192,212181,128,0,212294:0:0:0:0:
329,192,212407,128,0,212632:0:0:0:0:
36,192,212407,128,0,212632:0:0:0:0:
109,192,212407,128,0,212463:0:0:0:0:
182,192,212407,128,0,212576:0:0:0:0:
402,192,212632,128,0,212858:0:0:0:0:
109,192,212632,128,0,212858:0:0:0:0:
182,192,212632,1,0,0:0:0:0:
256,192,212632,128,0,212801:0:0:0:0:
475,192,212858,128,0,213083:0:0:0:0:
182,192,212858,128,0,213083:0:0:0:0:
256,192,212858,1,0,0:0:0:0:
329,192,212858,128,0,213027:0:0:0:0:
402,192,213083,128,0,213309:0:0:0:0:
256,192,213083,128,0,213309:0:0:0:0:
329,192,213083,1,0,0:0:0:0:
329,192,213309,1,0,0:0:0:0:
475,192,213309,1,0,0:0:0:0:
182,192,213309,1,0,0:0:0:0:
36,192,213309,128,0,214098:0:0:0:0:
256,192,213422,1,0,0:0:0:0:
109,192,213422,128,0,213986:0:0:0:0:
329,192,213534,1,0,0:0:0:0:
182,192,213534,128,0,213873:0:0:0:0:
402,192,213647,1,0,0:0:0:0:
256,192,213647,128,0,213760:0:0:0:0:
329,192,213760,1,0,0:0:0:0:
475,192,213760,128,0,214549:0:0:0:0:
256,192,213873,1,0,0:0:0:0:
402,192,213873,128,0,214437:0:0:0:0:
182,192,213986,1,0,0:0:0:0:
329,192,213986,128,0,214324:0:0:0:0:
109,192,214098,1,0,0:0:0:0:
256,192,214098,128,0,214211:0:0:0:0:
182,192,214211,1,0,0:0:0:0:
36,192,214211,128,0,215001:0:0:0:0:
256,192,214324,1,0,0:0:0:0:
109,192,214324,128,0,214888:0:0:0:0:
329,192,214437,1,0,0:0:0:0:
182,192,214437,128,0,214775:0:0:0:0:
402,192,214549,1,0,0:0:0:0:
256,192,214549,128,0,214662:0:0:0:0:
329,192,214662,1,0,0:0:0:0:
475,192,214662,128,0,214775:0:0:0:0:
256,192,214775,1,0,0:0:0:0:
402,192,214775,128,0,214888:0:0:0:0:
182,192,214888,1,0,0:0:0:0:
329,192,214888,128,0,215001:0:0:0:0:
109,192,215001,1,0,0:0:0:0:
256,192,215001,128,0,215113:0:0:0:0:
36,192,215113,1,0,0:0:0:0:
475,192,215113,1,0,0:0:0:0:
402,192,215113,1,0,0:0:0:0:
182,192,215113,128,0,215564:0:0:0:0:
402,192,215226,1,0,0:0:0:0:
475,192,215226,1,0,0:0:0:0:
402,192,215339,1,0,0:0:0:0:
475,192,215339,1,0,0:0:0:0:
36,192,215339,128,0,215790:0:0:0:0:
402,192,215452,1,0,0:0:0:0:
475,192,215452,1,0,0:0:0:0:
402,192,215564,1,0,0:0:0:0:
475,192,215564,1,0,0:0:0:0:
256,192,215564,128,0,216016:0:0:0:0:
402,192,215677,1,0,0:0:0:0:
475,192,215677,1,0,0:0:0:0:
402,192,215790,1,0,0:0:0:0:
475,192,215790,1,0,0:0:0:0:
109,192,215790,128,0,216016:0:0:0:0:
402,192,215903,1,0,0:0:0:0:
475,192,215903,1,0,0:0:0:0:
402,192,216016,1,0,0:0:0:0:
475,192,216016,1,0,0:0:0:0:
182,192,216016,128,0,216467:0:0:0:0:
402,192,216128,1,0,0:0:0:0:
475,192,216128,1,0,0:0:0:0:
475,192,216241,1,0,0:0:0:0:
402,192,216241,1,0,0:0:0:0:
36,192,216241,128,0,216467:0:0:0:0:
402,192,216354,1,0,0:0:0:0:
475,192,216354,1,0,0:0:0:0:
475,192,216467,1,0,0:0:0:0:
402,192,216467,1,0,0:0:0:0:
109,192,216467,128,0,216918:0:0:0:0:
402,192,216580,1,0,0:0:0:0:
475,192,216580,1,0,0:0:0:0:
475,192,216692,1,0,0:0:0:0:
402,192,216692,1,0,0:0:0:0:
256,192,216692,128,0,216918:0:0:0:0:
402,192,216805,1,0,0:0:0:0:
475,192,216805,1,0,0:0:0:0:
475,192,216918,1,0,0:0:0:0:
402,192,216918,1,0,0:0:0:0:
36,192,216918,1,0,0:0:0:0:
182,192,216918,1,0,0:0:0:0:
36,192,217143,128,0,217369:0:0:0:0:
182,192,217143,1,0,0:0:0:0:
256,192,217369,1,0,0:0:0:0:
109,192,217369,1,0,0:0:0:0:
329,192,217369,1,0,0:0:0:0:
475,192,217369,1,0,0:0:0:0:
402,192,217369,1,0,0:0:0:0:
36,192,217595,128,0,217820:0:0:0:0:
182,192,217595,1,0,0:0:0:0:
256,192,217820,1,0,0:0:0:0:
402,192,217820,1,0,0:0:0:0:
36,192,218046,128,0,218271:0:0:0:0:
182,192,218046,1,0,0:0:0:0:
109,192,218271,1,0,0:0:0:0:
256,192,218271,1,0,0:0:0:0:
402,192,218271,1,0,0:0:0:0:
329,192,218271,1,0,0:0:0:0:
475,192,218271,1,0,0:0:0:0:
36,192,218497,128,0,218722:0:0:0:0:
182,192,218497,1,0,0:0:0:0:
256,192,218722,1,0,0:0:0:0:
402,192,218722,1,0,0:0:0:0:
475,192,218948,128,0,219173:0:0:0:0:
329,192,218948,1,0,0:0:0:0:
256,192,219173,1,0,0:0:0:0:
182,192,219173,1,0,0:0:0:0:
109,192,219173,1,0,0:0:0:0:
36,192,219173,1,0,0:0:0:0:
402,192,219173,1,0,0:0:0:0:
475,192,219399,128,0,219625:0:0:0:0:
329,192,219399,1,0,0:0:0:0:
256,192,219625,1,0,0:0:0:0:
109,192,219625,1,0,0:0:0:0:
475,192,219850,128,0,220076:0:0:0:0:
329,192,219850,1,0,0:0:0:0:
402,192,220076,1,0,0:0:0:0:
182,192,220076,1,0,0:0:0:0:
256,192,220076,1,0,0:0:0:0:
36,192,220076,1,0,0:0:0:0:
109,192,220076,1,0,0:0:0:0:
475,192,220301,128,0,220527:0:0:0:0:
329,192,220301,1,0,0:0:0:0:
256,192,220527,1,0,0:0:0:0:
109,192,220527,1,0,0:0:0:0:
182,192,220752,128,0,220978:0:0:0:0:
36,192,220752,1,0,0:0:0:0:
109,192,220978,1,0,0:0:0:0:
329,192,220978,1,0,0:0:0:0:
475,192,220978,1,0,0:0:0:0:
402,192,220978,1,0,0:0:0:0:
256,192,220978,1,0,0:0:0:0:
182,192,221204,128,0,221429:0:0:0:0:
36,192,221204,1,0,0:0:0:0:
256,192,221429,1,0,0:0:0:0:
402,192,221429,1,0,0:0:0:0:
182,192,221655,128,0,221880:0:0:0:0:
36,192,221655,1,0,0:0:0:0:
109,192,221880,1,0,0:0:0:0:
256,192,221880,1,0,0:0:0:0:
329,192,221880,1,0,0:0:0:0:
475,192,221880,1,0,0:0:0:0:
402,192,221880,1,0,0:0:0:0:
182,192,222106,128,0,222331:0:0:0:0:
36,192,222106,1,0,0:0:0:0:
256,192,222331,1,0,0:0:0:0:
402,192,222331,1,0,0:0:0:0:
329,192,222557,128,0,222783:0:0:0:0:
475,192,222557,1,0,0:0:0:0:
182,192,222783,1,0,0:0:0:0:
109,192,222783,1,0,0:0:0:0:
36,192,222783,1,0,0:0:0:0:
256,192,222783,1,0,0:0:0:0:
402,192,222783,1,0,0:0:0:0:
329,192,223008,128,0,223234:0:0:0:0:
475,192,223008,1,0,0:0:0:0:
256,192,223234,1,0,0:0:0:0:
109,192,223234,1,0,0:0:0:0:
329,192,223459,128,0,223685:0:0:0:0:
475,192,223459,1,0,0:0:0:0:
256,192,223685,1,0,0:0:0:0:
182,192,223685,1,0,0:0:0:0:
36,192,223685,1,0,0:0:0:0:
109,192,223685,1,0,0:0:0:0:
402,192,223685,1,0,0:0:0:0:
475,192,223910,1,0,0:0:0:0:
329,192,223910,128,0,224136:0:0:0:0:
36,192,224136,128,0,224587:0:0:0:0:
182,192,224136,128,0,224192:0:0:0:0:
475,192,224136,1,0,0:0:0:0:
109,192,224249,128,0,224700:0:0:0:0:
256,192,224249,128,0,224305:0:0:0:0:
182,192,224361,128,0,224813:0:0:0:0:
329,192,224361,128,0,224418:0:0:0:0:
256,192,224474,128,0,224925:0:0:0:0:
402,192,224474,128,0,224531:0:0:0:0:
329,192,224587,128,0,225038:0:0:0:0:
475,192,224587,128,0,224643:0:0:0:0:
402,192,224700,128,0,225151:0:0:0:0:
36,192,224700,128,0,224756:0:0:0:0:
475,192,224813,128,0,225264:0:0:0:0:
109,192,224813,128,0,224869:0:0:0:0:
182,192,224925,128,0,224982:0:0:0:0:
36,192,224925,128,0,225151:0:0:0:0:
256,192,225038,128,0,225095:0:0:0:0:
109,192,225038,128,0,225264:0:0:0:0:
329,192,225151,128,0,225207:0:0:0:0:
182,192,225151,128,0,225376:0:0:0:0:
402,192,225264,128,0,225320:0:0:0:0:
256,192,225264,128,0,225489:0:0:0:0:
475,192,225376,128,0,225433:0:0:0:0:
329,192,225376,128,0,225602:0:0:0:0:
402,192,225489,128,0,225715:0:0:0:0:
182,192,225489,128,0,225602:0:0:0:0:
36,192,225489,128,0,225546:0:0:0:0:
256,192,225602,128,0,225715:0:0:0:0:
109,192,225602,128,0,225658:0:0:0:0:
329,192,225715,128,0,225828:0:0:0:0:
182,192,225715,128,0,225771:0:0:0:0:
402,192,225828,128,0,225940:0:0:0:0:
256,192,225828,128,0,225884:0:0:0:0:
475,192,225940,128,0,226392:0:0:0:0:
329,192,225940,128,0,225997:0:0:0:0:
36,192,225940,1,0,0:0:0:0:
402,192,226053,128,0,226504:0:0:0:0:
256,192,226053,128,0,226110:0:0:0:0:
329,192,226166,128,0,226617:0:0:0:0:
182,192,226166,128,0,226222:0:0:0:0:
256,192,226279,128,0,226730:0:0:0:0:
109,192,226279,128,0,226335:0:0:0:0:
182,192,226392,128,0,226843:0:0:0:0:
36,192,226392,128,0,226448:0:0:0:0:
109,192,226504,128,0,226955:0:0:0:0:
475,192,226504,128,0,226561:0:0:0:0:
36,192,226617,128,0,227068:0:0:0:0:
402,192,226617,128,0,226673:0:0:0:0:
329,192,226730,128,0,226786:0:0:0:0:
475,192,226730,128,0,226955:0:0:0:0:
256,192,226843,128,0,226899:0:0:0:0:
402,192,226843,128,0,227068:0:0:0:0:
182,192,226955,128,0,227012:0:0:0:0:
329,192,226955,128,0,227181:0:0:0:0:
109,192,227068,128,0,227125:0:0:0:0:
256,192,227068,128,0,227294:0:0:0:0:
36,192,227181,128,0,227237:0:0:0:0:
182,192,227181,128,0,227407:0:0:0:0:
109,192,227294,128,0,227519:0:0:0:0:
329,192,227294,128,0,227407:0:0:0:0:
475,192,227294,128,0,227350:0:0:0:0:
256,192,227407,128,0,227519:0:0:0:0:
402,192,227407,128,0,227463:0:0:0:0:
182,192,227519,128,0,227632:0:0:0:0:
329,192,227519,128,0,227576:0:0:0:0:
109,192,227632,128,0,227745:0:0:0:0:
256,192,227632,128,0,227689:0:0:0:0:
182,192,227745,128,0,227858:0:0:0:0:
36,192,227745,128,0,227858:0:0:0:0:
329,192,227858,128,0,227970:0:0:0:0:
475,192,227858,128,0,227970:0:0:0:0:
36,192,227970,128,0,228083:0:0:0:0:
182,192,227970,128,0,228083:0:0:0:0:
329,192,228083,128,0,228196:0:0:0:0:
475,192,228083,128,0,228196:0:0:0:0:
36,192,228196,128,0,228309:0:0:0:0:
182,192,228196,128,0,228309:0:0:0:0:
329,192,228309,128,0,228422:0:0:0:0:
475,192,228309,128,0,228422:0:0:0:0:
36,192,228422,128,0,228534:0:0:0:0:
182,192,228422,128,0,228534:0:0:0:0:
329,192,228534,128,0,228647:0:0:0:0:
475,192,228534,128,0,228647:0:0:0:0:
182,192,228647,128,0,228760:0:0:0:0:
36,192,228647,128,0,228760:0:0:0:0:
329,192,228760,128,0,228873:0:0:0:0:
475,192,228760,128,0,228873:0:0:0:0:
182,192,228873,128,0,228986:0:0:0:0:
36,192,228873,128,0,228986:0:0:0:0:
329,192,228986,128,0,229098:0:0:0:0:
475,192,228986,128,0,229098:0:0:0:0:
182,192,229098,128,0,229211:0:0:0:0:
36,192,229098,128,0,229211:0:0:0:0:
329,192,229211,128,0,229324:0:0:0:0:
475,192,229211,128,0,229324:0:0:0:0:
36,192,229324,128,0,229437:0:0:0:0:
182,192,229324,128,0,229437:0:0:0:0:
329,192,229437,128,0,229549:0:0:0:0:
475,192,229437,128,0,229549:0:0:0:0:
36,192,229549,128,0,229662:0:0:0:0:
109,192,229549,128,0,229662:0:0:0:0:
182,192,229549,128,0,229662:0:0:0:0:
256,192,229549,128,0,229662:0:0:0:0:
329,192,229662,128,0,229775:0:0:0:0:
402,192,229662,128,0,229775:0:0:0:0:
475,192,229662,128,0,229775:0:0:0:0:
109,192,229775,128,0,229888:0:0:0:0:
256,192,229775,128,0,229888:0:0:0:0:
36,192,229775,128,0,229888:0:0:0:0:
182,192,229775,128,0,229888:0:0:0:0:
475,192,229888,128,0,230001:0:0:0:0:
402,192,229888,128,0,230001:0:0:0:0:
329,192,229888,128,0,230001:0:0:0:0:
36,192,230001,128,0,230113:0:0:0:0:
182,192,230001,128,0,230113:0:0:0:0:
109,192,230001,128,0,230113:0:0:0:0:
256,192,230001,128,0,230113:0:0:0:0:
329,192,230113,128,0,230226:0:0:0:0:
402,192,230113,128,0,230226:0:0:0:0:
475,192,230113,128,0,230226:0:0:0:0:
109,192,230226,128,0,230339:0:0:0:0:
256,192,230226,128,0,230339:0:0:0:0:
36,192,230226,128,0,230339:0:0:0:0:
182,192,230226,128,0,230339:0:0:0:0:
475,192,230339,128,0,230452:0:0:0:0:
402,192,230339,128,0,230452:0:0:0:0:
329,192,230339,128,0,230452:0:0:0:0:
256,192,230452,1,0,0:0:0:0:
182,192,230452,1,0,0:0:0:0:
109,192,230452,1,0,0:0:0:0:
36,192,230452,1,0,0:0:0:0:
109,192,230677,1,0,0:0:0:0:
182,192,230677,1,0,0:0:0:0:
256,192,230677,1,0,0:0:0:0:
329,192,230677,1,0,0:0:0:0:
182,192,230903,1,0,0:0:0:0:
256,192,230903,1,0,0:0:0:0:
329,192,230903,1,0,0:0:0:0:
402,192,230903,1,0,0:0:0:0:
329,192,231016,1,0,0:0:0:0:
402,192,231016,1,0,0:0:0:0:
256,192,231128,1,0,0:0:0:0:
182,192,231128,1,0,0:0:0:0:
36,192,231354,128,0,231392:0:0:0:0:
475,192,231354,128,0,231580:0:0:0:0:
329,192,231354,1,0,0:0:0:0:
109,192,231429,128,0,231467:0:0:0:0:
182,192,231504,128,0,231542:0:0:0:0:
402,192,231580,1,0,0:0:0:0:
256,192,231580,128,0,231617:0:0:0:0:
36,192,231580,128,0,231805:0:0:0:0:
329,192,231655,128,0,231692:0:0:0:0:
402,192,231730,128,0,231767:0:0:0:0:
475,192,231805,128,0,231843:0:0:0:0:
109,192,231805,128,0,232031:0:0:0:0:
182,192,231805,1,0,0:0:0:0:
256,192,231880,128,0,231918:0:0:0:0:
329,192,231955,128,0,231993:0:0:0:0:
182,192,232031,128,0,232256:0:0:0:0:
475,192,232031,128,0,232068:0:0:0:0:
36,192,232031,1,0,0:0:0:0:
402,192,232106,128,0,232143:0:0:0:0:
329,192,232181,128,0,232219:0:0:0:0:
256,192,232256,128,0,232482:0:0:0:0:
36,192,232256,128,0,232294:0:0:0:0:
475,192,232256,1,0,0:0:0:0:
109,192,232331,128,0,232369:0:0:0:0:
182,192,232407,128,0,232444:0:0:0:0:
402,192,232482,128,0,232707:0:0:0:0:
329,192,232482,128,0,232519:0:0:0:0:
36,192,232482,1,0,0:0:0:0:
256,192,232557,128,0,232595:0:0:0:0:
182,192,232632,128,0,232670:0:0:0:0:
329,192,232707,128,0,232933:0:0:0:0:
36,192,232707,128,0,232745:0:0:0:0:
475,192,232707,1,0,0:0:0:0:
109,192,232783,128,0,232820:0:0:0:0:
182,192,232858,128,0,232895:0:0:0:0:
402,192,232933,128,0,233158:0:0:0:0:
256,192,232933,128,0,232970:0:0:0:0:
36,192,232933,1,0,0:0:0:0:
109,192,233008,128,0,233046:0:0:0:0:
182,192,233083,128,0,233121:0:0:0:0:
475,192,233158,128,0,233196:0:0:0:0:
36,192,233158,128,0,233384:0:0:0:0:
256,192,233158,1,0,0:0:0:0:
402,192,233234,128,0,233271:0:0:0:0:
329,192,233309,128,0,233346:0:0:0:0:
256,192,233384,128,0,233422:0:0:0:0:
475,192,233384,128,0,233610:0:0:0:0:
109,192,233384,1,0,0:0:0:0:
182,192,233459,128,0,233497:0:0:0:0:
109,192,233534,128,0,233572:0:0:0:0:
36,192,233610,128,0,233647:0:0:0:0:
402,192,233610,128,0,233835:0:0:0:0:
329,192,233610,1,0,0:0:0:0:
256,192,233685,128,0,233722:0:0:0:0:
182,192,233760,128,0,233798:0:0:0:0:
329,192,233835,128,0,234061:0:0:0:0:
36,192,233835,128,0,233873:0:0:0:0:
475,192,233835,1,0,0:0:0:0:
109,192,233910,128,0,233948:0:0:0:0:
182,192,233986,128,0,234023:0:0:0:0:
256,192,234061,128,0,234286:0:0:0:0:
475,192,234061,128,0,234098:0:0:0:0:
36,192,234061,1,0,0:0:0:0:
402,192,234136,128,0,234173:0:0:0:0:
329,192,234211,128,0,234249:0:0:0:0:
109,192,234286,128,0,234512:0:0:0:0:
182,192,234286,128,0,234324:0:0:0:0:
475,192,234286,1,0,0:0:0:0:
256,192,234361,128,0,234399:0:0:0:0:
329,192,234437,128,0,234474:0:0:0:0:
182,192,234512,128,0,234737:0:0:0:0:
475,192,234512,128,0,234549:0:0:0:0:
36,192,234512,1,0,0:0:0:0:
402,192,234587,128,0,234625:0:0:0:0:
329,192,234662,128,0,234700:0:0:0:0:
109,192,234737,128,0,234963:0:0:0:0:
256,192,234737,128,0,234775:0:0:0:0:
475,192,234737,1,0,0:0:0:0:
402,192,234813,128,0,234850:0:0:0:0:
329,192,234888,128,0,234925:0:0:0:0:
182,192,234963,128,0,235076:0:0:0:0:
475,192,234963,128,0,235076:0:0:0:0:
36,192,234963,128,0,235301:0:0:0:0:
256,192,235076,128,0,235189:0:0:0:0:
402,192,235076,128,0,235189:0:0:0:0:
109,192,235189,128,0,235301:0:0:0:0:
329,192,235189,128,0,235301:0:0:0:0:
182,192,235301,128,0,235414:0:0:0:0:
402,192,235301,128,0,235414:0:0:0:0:
109,192,235414,128,0,235752:0:0:0:0:
256,192,235414,128,0,235527:0:0:0:0:
475,192,235414,128,0,235527:0:0:0:0:
329,192,235527,128,0,235640:0:0:0:0:
182,192,235527,128,0,235640:0:0:0:0:
402,192,235640,128,0,235752:0:0:0:0:
36,192,235640,128,0,235752:0:0:0:0:
475,192,235752,128,0,235865:0:0:0:0:
256,192,235752,128,0,235865:0:0:0:0:
182,192,235865,128,0,236204:0:0:0:0:
329,192,235865,128,0,235978:0:0:0:0:
36,192,235865,128,0,235978:0:0:0:0:
109,192,235978,128,0,236091:0:0:0:0:
402,192,235978,128,0,236091:0:0:0:0:
256,192,236091,128,0,236204:0:0:0:0:
475,192,236091,128,0,236204:0:0:0:0:
329,192,236204,128,0,236316:0:0:0:0:
256,192,236316,128,0,236655:0:0:0:0:
36,192,236316,128,0,236429:0:0:0:0:
402,192,236316,128,0,236429:0:0:0:0:
109,192,236429,128,0,236542:0:0:0:0:
475,192,236429,128,0,236542:0:0:0:0:
182,192,236542,128,0,236655:0:0:0:0:
402,192,236542,128,0,236655:0:0:0:0:
109,192,236655,128,0,236767:0:0:0:0:
329,192,236655,128,0,236767:0:0:0:0:
475,192,236767,128,0,237106:0:0:0:0:
36,192,236767,1,0,0:0:0:0:
256,192,236767,1,0,0:0:0:0:
402,192,236767,1,0,0:0:0:0:
182,192,236767,1,0,0:0:0:0:
329,192,236993,1,0,0:0:0:0:
109,192,236993,1,0,0:0:0:0:
402,192,236993,1,0,0:0:0:0:
182,192,236993,1,0,0:0:0:0:
402,192,237219,128,0,237557:0:0:0:0:
182,192,237219,1,0,0:0:0:0:
256,192,237219,1,0,0:0:0:0:
36,192,237219,1,0,0:0:0:0:
329,192,237219,1,0,0:0:0:0:
475,192,237219,1,0,0:0:0:0:
256,192,237444,1,0,0:0:0:0:
182,192,237444,1,0,0:0:0:0:
109,192,237444,1,0,0:0:0:0:
36,192,237444,1,0,0:0:0:0:
256,192,237557,1,0,0:0:0:0:
329,192,237670,128,0,238008:0:0:0:0:
402,192,237670,1,0,0:0:0:0:
475,192,237670,1,0,0:0:0:0:
182,192,237670,1,0,0:0:0:0:
36,192,237670,1,0,0:0:0:0:
109,192,237670,1,0,0:0:0:0:
36,192,237895,1,0,0:0:0:0:
109,192,237895,1,0,0:0:0:0:
475,192,237895,1,0,0:0:0:0:
402,192,237895,1,0,0:0:0:0:
256,192,238121,128,0,238459:0:0:0:0:
36,192,238121,1,0,0:0:0:0:
475,192,238121,1,0,0:0:0:0:
182,192,238121,1,0,0:0:0:0:
329,192,238121,1,0,0:0:0:0:
36,192,238234,1,0,0:0:0:0:
475,192,238234,1,0,0:0:0:0:
109,192,238346,1,0,0:0:0:0:
402,192,238346,1,0,0:0:0:0:
329,192,238346,1,0,0:0:0:0:
182,192,238346,1,0,0:0:0:0:
36,192,238572,128,0,239361:0:0:0:0:
475,192,238572,128,0,238685:0:0:0:0:
402,192,238572,128,0,238910:0:0:0:0:
329,192,238685,128,0,238910:0:0:0:0:
256,192,238798,128,0,239023:0:0:0:0:
475,192,238798,128,0,239813:0:0:0:0:
182,192,238910,128,0,239136:0:0:0:0:
109,192,239023,128,0,239249:0:0:0:0:
329,192,239023,128,0,239361:0:0:0:0:
402,192,239023,128,0,239136:0:0:0:0:
256,192,239136,128,0,239361:0:0:0:0:
182,192,239249,128,0,239474:0:0:0:0:
402,192,239249,128,0,240038:0:0:0:0:
109,192,239361,128,0,239587:0:0:0:0:
256,192,239474,128,0,239813:0:0:0:0:
329,192,239474,128,0,239587:0:0:0:0:
36,192,239474,128,0,239700:0:0:0:0:
182,192,239587,128,0,239813:0:0:0:0:
109,192,239700,128,0,240264:0:0:0:0:
329,192,239700,128,0,239925:0:0:0:0:
36,192,239813,128,0,240264:0:0:0:0:
256,192,239925,128,0,240151:0:0:0:0:
182,192,239925,128,0,240038:0:0:0:0:
475,192,239925,128,0,240264:0:0:0:0:
329,192,240038,128,0,240602:0:0:0:0:
402,192,240151,128,0,240715:0:0:0:0:
182,192,240151,128,0,240376:0:0:0:0:
256,192,240264,128,0,240489:0:0:0:0:
475,192,240376,128,0,241166:0:0:0:0:
36,192,240376,128,0,240489:0:0:0:0:
109,192,240376,128,0,240715:0:0:0:0:
182,192,240489,128,0,240715:0:0:0:0:
256,192,240602,128,0,240828:0:0:0:0:
36,192,240602,128,0,241617:0:0:0:0:
329,192,240715,128,0,240940:0:0:0:0:
402,192,240828,128,0,241053:0:0:0:0:
182,192,240828,128,0,241166:0:0:0:0:
109,192,240828,128,0,240940:0:0:0:0:
256,192,240940,128,0,241166:0:0:0:0:
329,192,241053,128,0,241279:0:0:0:0:
109,192,241053,128,0,241843:0:0:0:0:
402,192,241166,128,0,241392:0:0:0:0:
256,192,241279,128,0,241617:0:0:0:0:
182,192,241279,128,0,241392:0:0:0:0:
475,192,241279,128,0,241504:0:0:0:0:
329,192,241392,128,0,241617:0:0:0:0:
402,192,241504,128,0,242068:0:0:0:0:
182,192,241504,128,0,241730:0:0:0:0:
475,192,241617,128,0,242068:0:0:0:0:
256,192,241730,128,0,241955:0:0:0:0:
329,192,241730,128,0,241843:0:0:0:0:
36,192,241730,128,0,242068:0:0:0:0:
182,192,241843,128,0,242181:0:0:0:0:
109,192,241955,128,0,242068:0:0:0:0:
329,192,241955,128,0,242181:0:0:0:0:
256,192,242068,128,0,242181:0:0:0:0:
109,192,242181,1,0,0:0:0:0:
402,192,242181,1,0,0:0:0:0:
475,192,242181,1,0,0:0:0:0:
36,192,242181,1,0,0:0:0:0:
329,192,242294,1,0,0:0:0:0:
256,192,242294,1,0,0:0:0:0:
402,192,242407,1,0,0:0:0:0:
109,192,242407,1,0,0:0:0:0:
182,192,242519,1,0,0:0:0:0:
256,192,242519,1,0,0:0:0:0:
109,192,242632,1,0,0:0:0:0:
36,192,242632,1,0,0:0:0:0:
475,192,242632,1,0,0:0:0:0:
402,192,242632,1,0,0:0:0:0:
329,192,242745,1,0,0:0:0:0:
256,192,242745,1,0,0:0:0:0:
402,192,242858,1,0,0:0:0:0:
109,192,242858,1,0,0:0:0:0:
182,192,242970,1,0,0:0:0:0:
256,192,242970,1,0,0:0:0:0:
109,192,243083,1,0,0:0:0:0:
402,192,243083,1,0,0:0:0:0:
475,192,243083,1,0,0:0:0:0:
36,192,243083,1,0,0:0:0:0:
329,192,243196,1,0,0:0:0:0:
256,192,243196,1,0,0:0:0:0:
402,192,243309,1,0,0:0:0:0:
109,192,243309,1,0,0:0:0:0:
182,192,243422,1,0,0:0:0:0:
256,192,243422,1,0,0:0:0:0:
109,192,243534,1,0,0:0:0:0:
402,192,243534,1,0,0:0:0:0:
36,192,243534,1,0,0:0:0:0:
475,192,243534,1,0,0:0:0:0:
329,192,243647,1,0,0:0:0:0:
256,192,243647,1,0,0:0:0:0:
402,192,243760,1,0,0:0:0:0:
109,192,243760,1,0,0:0:0:0:
182,192,243873,1,0,0:0:0:0:
256,192,243873,1,0,0:0:0:0:
109,192,243986,1,0,0:0:0:0:
402,192,243986,1,0,0:0:0:0:
475,192,243986,1,0,0:0:0:0:
36,192,243986,1,0,0:0:0:0:
109,192,244098,128,0,244324:0:0:0:0:
36,192,244098,128,0,244324:0:0:0:0:
402,192,244211,1,0,0:0:0:0:
475,192,244211,1,0,0:0:0:0:
402,192,244324,128,0,244549:0:0:0:0:
475,192,244324,128,0,244549:0:0:0:0:
109,192,244437,1,0,0:0:0:0:
182,192,244437,1,0,0:0:0:0:
182,192,244549,128,0,244775:0:0:0:0:
109,192,244549,128,0,244775:0:0:0:0:
329,192,244662,1,0,0:0:0:0:
402,192,244662,1,0,0:0:0:0:
329,192,244775,128,0,245001:0:0:0:0:
402,192,244775,128,0,245001:0:0:0:0:
182,192,244888,1,0,0:0:0:0:
36,192,244888,1,0,0:0:0:0:
182,192,245001,128,0,245226:0:0:0:0:
36,192,245001,128,0,245226:0:0:0:0:
329,192,245113,1,0,0:0:0:0:
475,192,245113,1,0,0:0:0:0:
329,192,245226,128,0,245452:0:0:0:0:
475,192,245226,128,0,245452:0:0:0:0:
256,192,245339,1,0,0:0:0:0:
182,192,245339,1,0,0:0:0:0:
256,192,245452,128,0,245677:0:0:0:0:
182,192,245452,128,0,245677:0:0:0:0:
329,192,245564,1,0,0:0:0:0:
402,192,245564,1,0,0:0:0:0:
329,192,245677,1,0,0:0:0:0:
402,192,245677,1,0,0:0:0:0:
329,192,245790,128,0,245959:0:0:0:0:
475,192,245790,128,0,246185:0:0:0:0:
109,192,245790,1,0,0:0:0:0:
36,192,245790,1,0,0:0:0:0:
182,192,245790,128,0,246185:0:0:0:0:
109,192,246016,1,0,0:0:0:0:
256,192,246016,128,0,246185:0:0:0:0:
36,192,246016,128,0,246410:0:0:0:0:
329,192,246016,1,0,0:0:0:0:
475,192,246241,1,0,0:0:0:0:
109,192,246241,128,0,246410:0:0:0:0:
329,192,246241,128,0,246636:0:0:0:0:
256,192,246241,128,0,246467:0:0:0:0:
402,192,246241,1,0,0:0:0:0:
36,192,246467,1,0,0:0:0:0:
109,192,246467,1,0,0:0:0:0:
402,192,246467,128,0,246636:0:0:0:0:
182,192,246467,128,0,246861:0:0:0:0:
475,192,246692,1,0,0:0:0:0:
402,192,246692,1,0,0:0:0:0:
256,192,246692,128,0,246861:0:0:0:0:
36,192,246692,128,0,247087:0:0:0:0:
329,192,246692,128,0,247087:0:0:0:0:
475,192,246918,1,0,0:0:0:0:
182,192,246918,1,0,0:0:0:0:
402,192,246918,128,0,247313:0:0:0:0:
109,192,246918,128,0,247087:0:0:0:0:
329,192,247143,1,0,0:0:0:0:
36,192,247143,1,0,0:0:0:0:
256,192,247143,128,0,247313:0:0:0:0:
182,192,247143,128,0,247538:0:0:0:0:
475,192,247143,128,0,247538:0:0:0:0:
256,192,247369,1,0,0:0:0:0:
402,192,247369,1,0,0:0:0:0:
36,192,247369,1,0,0:0:0:0:
109,192,247369,128,0,247538:0:0:0:0:
256,192,247595,128,0,247876:0:0:0:0:
182,192,247595,128,0,247651:0:0:0:0:
36,192,247595,128,0,247651:0:0:0:0:
475,192,247595,128,0,247651:0:0:0:0:
402,192,247707,1,0,0:0:0:0:
402,192,247820,128,0,248102:0:0:0:0:
329,192,247820,128,0,247876:0:0:0:0:
182,192,247820,128,0,247876:0:0:0:0:
109,192,247820,128,0,247876:0:0:0:0:
256,192,247933,1,0,0:0:0:0:
475,192,248046,128,0,248102:0:0:0:0:
329,192,248046,128,0,248328:0:0:0:0:
256,192,248046,128,0,248102:0:0:0:0:
109,192,248046,128,0,248102:0:0:0:0:
182,192,248158,1,0,0:0:0:0:
402,192,248271,128,0,248328:0:0:0:0:
256,192,248271,128,0,248328:0:0:0:0:
182,192,248271,128,0,248553:0:0:0:0:
36,192,248271,128,0,248328:0:0:0:0:
109,192,248384,1,0,0:0:0:0:
256,192,248497,128,0,248553:0:0:0:0:
109,192,248497,128,0,248553:0:0:0:0:
329,192,248497,128,0,248553:0:0:0:0:
475,192,248497,128,0,248779:0:0:0:0:
402,192,248610,1,0,0:0:0:0:
402,192,248722,128,0,248779:0:0:0:0:
256,192,248722,128,0,248779:0:0:0:0:
109,192,248722,128,0,248779:0:0:0:0:
36,192,248722,128,0,249004:0:0:0:0:
329,192,248835,1,0,0:0:0:0:
109,192,248948,128,0,249004:0:0:0:0:
182,192,248948,128,0,249004:0:0:0:0:
329,192,248948,128,0,249230:0:0:0:0:
402,192,248948,128,0,249004:0:0:0:0:
256,192,249061,1,0,0:0:0:0:
475,192,249173,128,0,249230:0:0:0:0:
256,192,249173,128,0,249230:0:0:0:0:
182,192,249173,128,0,249230:0:0:0:0:
36,192,249173,128,0,249230:0:0:0:0:
182,192,249399,128,0,249568:0:0:0:0:
36,192,249399,128,0,249794:0:0:0:0:
475,192,249399,1,0,0:0:0:0:
402,192,249399,1,0,0:0:0:0:
109,192,249512,128,0,249568:0:0:0:0:
256,192,249625,128,0,249794:0:0:0:0:
475,192,249625,128,0,250019:0:0:0:0:
182,192,249625,128,0,249681:0:0:0:0:
402,192,249625,128,0,249681:0:0:0:0:
329,192,249737,128,0,249794:0:0:0:0:
402,192,249850,128,0,250019:0:0:0:0:
182,192,249850,128,0,250245:0:0:0:0:
256,192,249850,128,0,249907:0:0:0:0:
109,192,249850,128,0,249907:0:0:0:0:
36,192,249963,128,0,250019:0:0:0:0:
109,192,250076,128,0,250245:0:0:0:0:
329,192,250076,128,0,250470:0:0:0:0:
256,192,250076,128,0,250132:0:0:0:0:
475,192,250076,128,0,250132:0:0:0:0:
402,192,250189,128,0,250245:0:0:0:0:
256,192,250301,128,0,250470:0:0:0:0:
475,192,250301,128,0,250696:0:0:0:0:
109,192,250301,128,0,250358:0:0:0:0:
36,192,250301,128,0,250358:0:0:0:0:
182,192,250414,128,0,250470:0:0:0:0:
109,192,250527,128,0,250922:0:0:0:0:
402,192,250527,128,0,250696:0:0:0:0:
36,192,250527,128,0,250583:0:0:0:0:
329,192,250527,128,0,250583:0:0:0:0:
182,192,250640,128,0,250696:0:0:0:0:
256,192,250752,128,0,250922:0:0:0:0:
329,192,250752,128,0,251147:0:0:0:0:
475,192,250752,128,0,250809:0:0:0:0:
36,192,250752,128,0,250809:0:0:0:0:
182,192,250865,128,0,250922:0:0:0:0:
402,192,250978,128,0,251147:0:0:0:0:
109,192,250978,128,0,251034:0:0:0:0:
256,192,250978,128,0,251034:0:0:0:0:
475,192,250978,128,0,251034:0:0:0:0:
182,192,251091,128,0,251147:0:0:0:0:
256,192,251204,128,0,251542:0:0:0:0:
329,192,251204,128,0,251316:0:0:0:0:
475,192,251204,128,0,251542:0:0:0:0:
36,192,251204,128,0,251316:0:0:0:0:
109,192,251204,128,0,251316:0:0:0:0:
109,192,251429,128,0,251767:0:0:0:0:
182,192,251429,128,0,251542:0:0:0:0:
329,192,251429,128,0,251542:0:0:0:0:
402,192,251429,128,0,251542:0:0:0:0:
36,192,251655,128,0,251767:0:0:0:0:
182,192,251655,128,0,251993:0:0:0:0:
256,192,251655,128,0,251767:0:0:0:0:
402,192,251655,128,0,251993:0:0:0:0:
109,192,251880,128,0,252219:0:0:0:0:
256,192,251880,128,0,251993:0:0:0:0:
329,192,251880,128,0,252219:0:0:0:0:
475,192,251880,128,0,251993:0:0:0:0:
256,192,252106,128,0,252219:0:0:0:0:
402,192,252106,128,0,252219:0:0:0:0:
182,192,252106,128,0,252444:0:0:0:0:
36,192,252106,128,0,252444:0:0:0:0:
109,192,252331,128,0,252444:0:0:0:0:
256,192,252331,128,0,252613:0:0:0:0:
402,192,252331,128,0,252444:0:0:0:0:
475,192,252331,128,0,252613:0:0:0:0:
402,192,252557,128,0,252613:0:0:0:0:
329,192,252557,128,0,252613:0:0:0:0:
182,192,252557,128,0,252895:0:0:0:0:
109,192,252557,128,0,252613:0:0:0:0:
329,192,252670,128,0,252726:0:0:0:0:
402,192,252670,128,0,252726:0:0:0:0:
109,192,252783,128,0,252895:0:0:0:0:
36,192,252783,128,0,252895:0:0:0:0:
256,192,252783,128,0,252895:0:0:0:0:
475,192,252783,128,0,252895:0:0:0:0:
36,192,253008,128,0,253403:0:0:0:0:
182,192,253008,128,0,253403:0:0:0:0:
402,192,253008,1,0,0:0:0:0:
475,192,253008,1,0,0:0:0:0:
475,192,253121,1,0,0:0:0:0:
256,192,253234,128,0,253628:0:0:0:0:
109,192,253234,128,0,253628:0:0:0:0:
402,192,253234,1,0,0:0:0:0:
402,192,253346,1,0,0:0:0:0:
182,192,253459,128,0,253854:0:0:0:0:
329,192,253459,128,0,253854:0:0:0:0:
36,192,253459,1,0,0:0:0:0:
475,192,253459,1,0,0:0:0:0:
475,192,253572,1,0,0:0:0:0:
256,192,253685,128,0,254080:0:0:0:0:
402,192,253685,128,0,254080:0:0:0:0:
109,192,253685,1,0,0:0:0:0:
109,192,253798,1,0,0:0:0:0:
329,192,253910,128,0,254305:0:0:0:0:
475,192,253910,128,0,254305:0:0:0:0:
182,192,253910,1,0,0:0:0:0:
36,192,253910,1,0,0:0:0:0:
36,192,254023,1,0,0:0:0:0:
256,192,254136,128,0,254531:0:0:0:0:
402,192,254136,128,0,254531:0:0:0:0:
109,192,254136,1,0,0:0:0:0:
109,192,254249,1,0,0:0:0:0:
329,192,254361,128,0,254756:0:0:0:0:
182,192,254361,128,0,254756:0:0:0:0:
36,192,254361,1,0,0:0:0:0:
475,192,254361,1,0,0:0:0:0:
36,192,254474,1,0,0:0:0:0:
402,192,254587,1,0,0:0:0:0:
256,192,254587,128,0,254813:0:0:0:0:
109,192,254587,128,0,254813:0:0:0:0:
402,192,254700,1,0,0:0:0:0:
36,192,254813,128,0,254982:0:0:0:0:
182,192,254813,128,0,254982:0:0:0:0:
329,192,254813,1,0,0:0:0:0:
475,192,254813,128,0,255207:0:0:0:0:
109,192,254925,128,0,255095:0:0:0:0:
256,192,254925,128,0,255095:0:0:0:0:
182,192,255038,128,0,255207:0:0:0:0:
329,192,255038,128,0,255207:0:0:0:0:
36,192,255038,128,0,255602:0:0:0:0:
256,192,255151,128,0,255320:0:0:0:0:
402,192,255151,128,0,255320:0:0:0:0:
329,192,255264,128,0,255433:0:0:0:0:
475,192,255264,128,0,255433:0:0:0:0:
109,192,255264,128,0,255489:0:0:0:0:
402,192,255376,128,0,255546:0:0:0:0:
256,192,255376,128,0,255546:0:0:0:0:
329,192,255489,128,0,255658:0:0:0:0:
182,192,255489,128,0,255658:0:0:0:0:
475,192,255489,128,0,256053:0:0:0:0:
256,192,255602,128,0,255771:0:0:0:0:
109,192,255602,128,0,255771:0:0:0:0:
182,192,255715,128,0,255884:0:0:0:0:
36,192,255715,128,0,255884:0:0:0:0:
402,192,255715,128,0,255940:0:0:0:0:
109,192,255828,128,0,255997:0:0:0:0:
256,192,255828,128,0,255997:0:0:0:0:
182,192,255940,128,0,256110:0:0:0:0:
329,192,255940,128,0,256110:0:0:0:0:
36,192,255940,128,0,256504:0:0:0:0:
256,192,256053,128,0,256222:0:0:0:0:
402,192,256053,128,0,256222:0:0:0:0:
329,192,256166,128,0,256335:0:0:0:0:
475,192,256166,128,0,256335:0:0:0:0:
109,192,256166,128,0,256392:0:0:0:0:
402,192,256279,128,0,256448:0:0:0:0:
256,192,256279,128,0,256448:0:0:0:0:
329,192,256392,128,0,256561:0:0:0:0:
182,192,256392,128,0,256561:0:0:0:0:
475,192,256392,128,0,256617:0:0:0:0:
256,192,256504,128,0,256617:0:0:0:0:
109,192,256504,128,0,256617:0:0:0:0:
182,192,256617,1,0,0:0:0:0:
36,192,256617,1,0,0:0:0:0:
329,192,256617,1,0,0:0:0:0:
402,192,256730,1,0,0:0:0:0:
475,192,256730,1,0,0:0:0:0:
329,192,256843,1,0,0:0:0:0:
256,192,256843,1,0,0:0:0:0:
182,192,256843,1,0,0:0:0:0:
109,192,256843,1,0,0:0:0:0:
36,192,256843,1,0,0:0:0:0:
402,192,256955,1,0,0:0:0:0:
475,192,256955,1,0,0:0:0:0:
329,192,257068,1,0,0:0:0:0:
182,192,257068,1,0,0:0:0:0:
256,192,257068,1,0,0:0:0:0:
109,192,257181,1,0,0:0:0:0:
36,192,257181,1,0,0:0:0:0:
256,192,257294,1,0,0:0:0:0:
402,192,257294,1,0,0:0:0:0:
329,192,257294,1,0,0:0:0:0:
182,192,257294,1,0,0:0:0:0:
475,192,257294,1,0,0:0:0:0:
36,192,257407,1,0,0:0:0:0:
109,192,257407,1,0,0:0:0:0:
256,192,257519,1,0,0:0:0:0:
329,192,257519,1,0,0:0:0:0:
182,192,257519,1,0,0:0:0:0:
402,192,257632,1,0,0:0:0:0:
475,192,257632,1,0,0:0:0:0:
182,192,257745,1,0,0:0:0:0:
256,192,257745,1,0,0:0:0:0:
329,192,257745,1,0,0:0:0:0:
109,192,257745,1,0,0:0:0:0:
36,192,257745,1,0,0:0:0:0:
402,192,257858,1,0,0:0:0:0:
475,192,257858,1,0,0:0:0:0:
329,192,257970,1,0,0:0:0:0:
182,192,257970,1,0,0:0:0:0:
256,192,257970,1,0,0:0:0:0:
36,192,258083,1,0,0:0:0:0:
109,192,258083,1,0,0:0:0:0:
256,192,258196,1,0,0:0:0:0:
182,192,258196,1,0,0:0:0:0:
329,192,258196,1,0,0:0:0:0:
402,192,258196,1,0,0:0:0:0:
475,192,258196,1,0,0:0:0:0:
109,192,258309,1,0,0:0:0:0:
36,192,258309,1,0,0:0:0:0:
256,192,258422,1,0,0:0:0:0:
182,192,258534,1,0,0:0:0:0:
329,192,258534,1,0,0:0:0:0:
256,192,258534,128,0,259098:0:0:0:0:
109,192,258647,1,0,0:0:0:0:
402,192,258647,1,0,0:0:0:0:
182,192,258647,128,0,258986:0:0:0:0:
329,192,258647,128,0,258986:0:0:0:0:
36,192,258760,1,0,0:0:0:0:
475,192,258760,1,0,0:0:0:0:
109,192,258760,128,0,258873:0:0:0:0:
402,192,258760,128,0,258873:0:0:0:0:
475,192,258873,1,0,0:0:0:0:
36,192,258873,1,0,0:0:0:0:
402,192,258986,1,0,0:0:0:0:
109,192,258986,1,0,0:0:0:0:
36,192,258986,128,0,259211:0:0:0:0:
475,192,258986,128,0,259211:0:0:0:0:
329,192,259098,1,0,0:0:0:0:
182,192,259098,1,0,0:0:0:0:
109,192,259098,128,0,259324:0:0:0:0:
402,192,259098,128,0,259324:0:0:0:0:
256,192,259211,1,0,0:0:0:0:
182,192,259211,128,0,259437:0:0:0:0:
329,192,259211,128,0,259437:0:0:0:0:
256,192,259324,128,0,259549:0:0:0:0:
36,192,259324,1,0,0:0:0:0:
475,192,259324,1,0,0:0:0:0:
109,192,259437,1,0,0:0:0:0:
402,192,259437,1,0,0:0:0:0:
36,192,259437,128,0,259662:0:0:0:0:
475,192,259437,128,0,259662:0:0:0:0:
182,192,259549,1,0,0:0:0:0:
329,192,259549,1,0,0:0:0:0:
109,192,259549,128,0,259775:0:0:0:0:
402,192,259549,128,0,259775:0:0:0:0:
256,192,259662,1,0,0:0:0:0:
182,192,259662,128,0,259888:0:0:0:0:
329,192,259662,128,0,259888:0:0:0:0:
256,192,259775,128,0,260001:0:0:0:0:
36,192,259775,1,0,0:0:0:0:
475,192,259775,1,0,0:0:0:0:
109,192,259888,1,0,0:0:0:0:
402,192,259888,1,0,0:0:0:0:
182,192,260001,1,0,0:0:0:0:
329,192,260001,1,0,0:0:0:0:
256,192,260113,1,0,0:0:0:0:
182,192,260226,1,0,0:0:0:0:
109,192,260226,1,0,0:0:0:0:
36,192,260226,1,0,0:0:0:0:
402,192,260226,1,0,0:0:0:0:
329,192,260226,1,0,0:0:0:0:
475,192,260226,1,0,0:0:0:0:
