osu file format v14

[General]
AudioFilename: audio.mp3
AudioLeadIn: 0
PreviewTime: 23858
Countdown: 0
SampleSet: Soft
StackLeniency: 0.4
Mode: 0
LetterboxInBreaks: 0
WidescreenStoryboard: 1

[Editor]
Bookmarks: 590,9956,19322,28687,38053,56785,66151,73175,75517,77566,84883,87224,96590,105956,115322,124687
DistanceSpacing: 0.75
BeatDivisor: 4
GridSize: 32
TimelineZoom: 1.7

[Metadata]
Title:Cookie Bouquets
TitleUnicode:Cookie Bouquets
Artist:Dormir
ArtistUnicode:Dormir
Creator:dsco
Version:sammish's Extra
Source:beatmania IIDX 15 DJ TROOPERS
Tags:tomosuke crimm petit march konami L.E.D. breakcore fanzhen0019 finshie sammish su1fu7 fanzhen sulfur bemani cs reflec beat limelight Vincent Bui Naoya Miyadai Ryousuke Takeuchi D.B.D
BeatmapID:1487055
BeatmapSetID:675125

[Difficulty]
HPDrainRate:6
CircleSize:4.5
OverallDifficulty:8
ApproachRate:9.3
SliderMultiplier:1.9
SliderTickRate:1

[Events]
//Background and Video events
0,0,"fuck.jpg",0,0
//Break Periods
2,87424,103060
//Storyboard Layer 0 (Background)
//Storyboard Layer 1 (Fail)
//Storyboard Layer 2 (Pass)
//Storyboard Layer 3 (Foreground)
//Storyboard Sound Samples

[TimingPoints]
590,292.682926829268,4,2,0,60,1,0
37175,-133.333333333333,4,2,0,60,0,0
56785,-117.647058823529,4,2,0,60,0,0
74931,-133.333333333333,4,2,0,60,0,0
75224,-153.846153846154,4,2,0,60,0,0
75517,-181.818181818182,4,2,0,60,0,0
103614,-181.818181818182,4,2,0,30,0,0
105516,-181.818181818182,4,2,0,60,0,0
105663,-100,4,2,0,60,0,0
105955,-100,4,2,0,60,0,1
123370,-133.333333333333,4,2,0,60,0,1
124394,-200,4,2,0,60,0,0
124687,-200,4,2,0,60,0,0

[Colours]
Combo1 : 97,170,194
Combo2 : 253,215,239
Combo3 : 220,71,98
Combo4 : 210,234,242

[HitObjects]
98,124,19029,5,8,0:3:0:0:
100,135,19102,1,8,0:3:0:0:
101,147,19175,1,10,0:3:0:0:
102,159,19248,1,2,0:3:0:0:
104,171,19322,6,0,L|212:161,1,95,4|0,0:0|0:0,0:0:0:0:
152,43,19614,1,8,0:0:0:0:
26,144,19761,2,0,L|32:192,1,47.5,0|0,0:0|0:0,0:0:0:0:
125,326,19907,1,2,3:0:0:0:
159,237,20053,1,0,3:0:0:0:
42,269,20200,1,8,0:0:0:0:
130,338,20346,6,0,P|186:357|249:328,1,95,6|0,0:0|0:0,0:0:0:0:
275,215,20639,1,0,3:0:0:0:
165,237,20785,1,0,0:0:0:0:
298,367,20932,1,2,3:0:0:0:
304,343,21005,1,0,0:0:0:0:
310,320,21078,1,2,0:0:0:0:
209,171,21224,1,0,0:0:0:0:
237,292,21370,1,8,0:0:0:0:
359,202,21517,2,0,L|363:130,1,47.5,0|0,0:0|0:0,0:0:0:0:
419,76,21663,6,0,P|372:108|316:87,1,95,4|0,0:0|0:0,0:0:0:0:
239,48,21956,2,0,P|224:101|239:150,1,95,8|0,0:0|0:0,0:0:0:0:
251,161,22175,1,0,0:0:0:0:
279,175,22248,1,2,3:0:0:0:
437,125,22395,1,2,3:0:0:0:
336,102,22541,1,8,0:0:0:0:
363,288,22687,6,0,L|377:177,1,95,4|0,0:0|0:0,0:0:0:0:
232,138,22980,1,0,3:0:0:0:
269,242,23127,1,8,0:0:0:0:
374,193,23273,1,2,3:0:0:0:
171,193,23419,2,0,L|159:287,1,95,2|0,0:0|3:0,0:0:0:0:
46,87,23712,1,8,0:0:0:0:
89,70,23785,1,8,0:0:0:0:
135,80,23858,1,10,0:0:0:0:
166,115,23931,1,2,0:3:0:0:
171,193,24005,6,0,P|230:189|266:151,1,95,4|0,0:0|0:0,0:0:0:0:
311,42,24297,1,8,0:0:0:0:
383,200,24444,1,2,0:0:0:0:
388,177,24517,1,0,0:0:0:0:
395,154,24590,1,0,3:0:0:0:
317,27,24736,1,0,3:0:0:0:
265,158,24883,1,8,0:0:0:0:
456,111,25029,6,0,P|385:84|346:102,1,95,4|0,0:0|0:0,0:0:0:0:
365,279,25322,1,2,3:0:0:0:
395,154,25468,1,0,0:0:0:0:
256,165,25614,1,2,3:0:0:0:
277,174,25687,1,2,0:0:0:0:
299,183,25760,1,2,0:0:0:0:
470,243,25907,1,0,0:0:0:0:
394,147,26053,1,8,0:0:0:0:
364,285,26200,2,0,L|355:339,1,47.5,2|0,0:0|0:0,0:0:0:0:
220,384,26346,6,0,L|201:274,1,95,4|0,0:0|0:0,0:0:0:0:
54,211,26639,1,8,0:0:0:0:
120,323,26785,2,0,L|127:276,1,47.5,2|0,0:0|0:0,0:0:0:0:
196,147,26931,2,0,P|127:146|84:116,1,95,2|0,3:0|3:0,0:0:0:0:
166,33,27224,1,8,0:0:0:0:
264,123,27370,1,6,0:0:0:0:
267,169,27443,1,8,0:2:0:0:
240,207,27516,5,10,0:3:0:0:
395,156,27663,1,0,3:0:0:0:
348,258,27809,1,8,0:0:0:0:
364,67,27956,1,2,3:0:0:0:
503,181,28102,1,6,0:0:0:0:
412,336,28248,1,10,0:0:0:0:
341,348,28322,1,8,0:0:0:0:
275,327,28394,1,8,0:0:0:0:
248,300,28468,1,0,3:0:0:0:
220,285,28541,1,2,3:0:0:0:
188,285,28614,1,2,3:3:0:0:
165,300,28687,5,6,0:0:0:0:
70,233,28834,1,2,0:0:0:0:
165,300,28980,1,10,0:0:0:0:
57,172,29127,2,0,L|39:275,1,95,2|0,3:0|0:0,0:0:0:0:
165,166,29419,1,2,3:3:0:0:
70,233,29565,1,8,0:0:0:0:
178,105,29712,2,0,L|196:208,1,95,6|0,0:0|0:0,0:0:0:0:
70,99,30005,1,2,3:3:0:0:
165,166,30151,1,10,0:0:0:0:
57,38,30298,2,0,L|39:141,1,95,2|0,3:0|0:0,0:0:0:0:
174,183,30590,5,2,3:3:0:0:
197,178,30663,1,0,0:0:0:0:
220,173,30736,1,10,0:0:0:0:
260,24,30883,1,0,0:0:0:0:
374,112,31029,5,6,0:0:0:0:
241,167,31175,1,2,0:0:0:0:
374,112,31321,1,10,0:0:0:0:
242,103,31468,2,0,P|252:146|313:204,1,95,2|0,3:0|0:0,0:0:0:0:
374,222,31761,1,2,3:3:0:0:
241,167,31907,1,8,0:0:0:0:
373,158,32054,2,0,P|362:201|301:259,1,95,6|0,0:0|0:0,0:0:0:0:
241,277,32346,1,2,3:3:0:0:
374,222,32492,1,10,0:0:0:0:
242,213,32639,2,0,P|252:256|313:314,1,95,2|0,3:0|0:0,0:0:0:0:
360,384,32931,5,2,3:3:0:0:
375,366,33004,1,0,0:0:0:0:
380,344,33078,2,0,L|364:281,1,47.5,10|0,0:0|0:0,0:0:0:0:
253,166,33224,2,0,L|237:228,1,47.5,0|0,0:0|0:0,0:0:0:0:
196,345,33370,5,6,0:0:0:0:
110,243,33517,1,2,0:0:0:0:
196,345,33663,1,10,0:0:0:0:
227,233,33809,2,0,P|161:258|112:237,1,95,2|0,3:0|0:0,0:0:0:0:
50,143,34102,1,2,3:3:0:0:
168,172,34248,1,8,0:0:0:0:
0,249,34395,2,0,P|11:179|54:147,1,95,6|0,0:0|0:0,0:0:0:0:
167,141,34687,1,2,3:3:0:0:
82,228,34834,1,10,0:0:0:0:
100,44,34980,2,0,P|154:88|160:141,1,95,2|0,3:0|0:0,0:0:0:0:
88,210,35273,5,2,3:3:0:0:
95,186,35346,1,0,0:0:0:0:
102,163,35419,1,10,0:0:0:0:
105,32,35566,1,0,0:0:0:0:
296,49,35712,6,0,L|295:117,1,47.5,4|0,0:0|0:0,0:0:0:0:
350,277,35858,2,0,L|351:209,1,47.5,4|0,0:0|0:0,0:0:0:0:
421,55,36005,1,8,0:3:0:0:
448,153,36151,2,0,P|399:138|319:152,1,95,6|8,0:0|0:3,0:0:0:0:
198,173,36443,2,0,P|247:188|327:174,1,95,2|0,0:3|0:0,0:0:0:0:
174,36,36736,6,0,B|178:109|178:109|156:149|156:149|156:247,1,190,6|2,0:0|3:0,0:0:0:0:
156,237,37102,1,0,0:0:0:0:
156,253,37175,1,8,0:0:0:0:
231,349,37322,1,2,3:0:0:0:
229,331,37395,1,2,0:0:0:0:
228,313,37468,1,8,0:0:0:0:
72,267,37614,1,2,3:3:0:0:
74,285,37687,1,2,3:3:0:0:
75,303,37761,2,0,L|79:352,1,35.625001358986,8|8,0:0|0:0,0:0:0:0:
235,204,37907,2,0,L|239:155,1,35.625001358986,10|0,0:3|3:3,0:0:0:0:
264,73,38053,6,0,P|301:92|346:86,1,71.2500027179719,4|0,0:0|0:0,0:0:0:0:
453,139,38346,2,0,P|417:140|387:157,1,71.2500027179719,0|0,0:0|3:0,0:0:0:0:
264,263,38639,2,0,L|254:170,1,71.2500027179719,8|2,0:3|0:0,0:0:0:0:
343,310,38858,1,0,0:0:0:0:
343,310,38931,2,0,L|353:217,1,71.2500027179719,2|2,0:0|3:3,0:0:0:0:
495,327,39224,6,0,P|439:313|408:329,1,71.2500027179719,0|2,3:0|0:0,0:0:0:0:
341,384,39517,1,8,0:3:0:0:
267,356,39663,2,0,P|232:359|199:345,1,71.2500027179719,8|2,0:3|0:0,0:0:0:0:
193,339,39883,1,2,0:0:0:0:
192,338,39956,1,2,0:3:0:0:
70,236,40102,2,0,L|83:311,1,71.2500027179719,8|2,0:3|3:0,0:0:0:0:
164,242,40322,1,0,0:0:0:0:
164,242,40395,6,0,L|176:171,1,71.2500027179719,0|0,3:0|0:0,0:0:0:0:
35,103,40687,2,0,P|105:108|130:91,1,71.2500027179719,8|0,0:3|0:0,0:0:0:0:
269,71,40980,1,2,0:0:0:0:
193,29,41127,2,0,P|187:69|190:120,1,71.2500027179719,8|2,0:3|0:0,0:0:0:0:
395,86,41419,6,0,P|295:56|263:78,1,142.500005435944,2|0,0:3|3:0,0:0:0:0:
320,206,41858,2,0,L|324:133,1,71.2500027179719,0|0,3:0|3:0,0:0:0:0:
481,60,42151,2,0,L|477:133,1,71.2500027179719,8|2,0:3|0:0,0:0:0:0:
477,131,42370,1,2,0:0:0:0:
477,131,42444,2,0,L|478:177,2,35.625001358986,8|0|2,0:3|0:0|3:0,0:0:0:0:
403,196,42736,6,0,P|407:239|420:286,1,71.2500027179719,8|0,0:3|0:0,0:0:0:0:
332,273,43029,2,0,P|346:313|371:355,1,71.2500027179719,8|0,0:3|3:0,0:0:0:0:
468,344,43322,1,2,0:0:0:0:
468,344,43395,1,2,0:0:0:0:
468,344,43468,1,8,0:3:0:0:
413,266,43614,1,2,0:0:0:0:
360,338,43761,6,0,B|322:350|322:350|271:341,1,71.2500027179719,2|0,3:0|3:0,0:0:0:0:
207,247,44053,1,2,0:0:0:0:
207,247,44200,2,0,B|237:241|237:241|275:253,1,71.2500027179719,8|8,0:3|0:3,0:0:0:0:
221,339,44492,1,2,0:0:0:0:
221,339,44566,1,2,0:0:0:0:
221,339,44639,1,2,0:3:0:0:
109,296,44785,2,0,L|101:216,1,71.2500027179719,8|2,0:3|3:0,0:0:0:0:
195,102,45078,6,0,P|196:143|186:196,1,71.2500027179719,0|2,3:0|0:0,0:0:0:0:
143,31,45370,1,8,0:3:0:0:
261,49,45517,2,0,P|272:88|276:142,1,71.2500027179719,2|2,0:0|3:0,0:0:0:0:
270,228,45736,1,2,0:0:0:0:
270,228,45809,2,0,L|354:215,1,71.2500027179719,0|2,0:0|0:0,0:0:0:0:
495,147,46102,6,0,L|411:134,1,71.2500027179719,2|8,0:3|0:3,0:0:0:0:
334,17,46395,1,0,3:0:0:0:
345,114,46541,1,8,0:3:0:0:
357,212,46687,1,0,3:0:0:0:
478,308,46834,2,0,L|379:296,1,71.2500027179719,8|2,0:3|0:0,0:0:0:0:
298,288,47127,1,8,0:3:0:0:
303,319,47200,1,0,0:0:0:0:
282,346,47273,1,8,0:3:0:0:
248,347,47346,1,8,0:3:0:0:
196,303,47419,6,0,L|181:208,1,71.2500027179719,4|0,0:0|0:0,0:0:0:0:
125,167,47712,1,8,0:3:0:0:
118,322,47858,2,0,L|103:227,1,71.2500027179719,0|2,3:0|0:0,0:0:0:0:
34,171,48078,1,2,0:0:0:0:
27,175,48151,2,0,L|42:270,1,71.2500027179719,8|2,0:3|0:0,0:0:0:0:
202,160,48444,6,0,P|141:90|82:107,1,142.500005435944,2|2,0:0|0:0,0:0:0:0:
118,207,48883,1,8,0:3:0:0:
202,160,49029,2,0,B|267:127|267:127,1,71.2500027179719,8|2,0:3|0:0,0:0:0:0:
299,137,49248,1,2,0:0:0:0:
333,147,49322,1,8,0:3:0:0:
281,280,49468,2,0,L|274:209,1,71.2500027179719,8|2,0:3|0:0,0:0:0:0:
412,102,49761,6,0,L|405:172,1,71.2500027179719,2|0,3:0|0:0,0:0:0:0:
341,41,50053,1,8,0:3:0:0:
485,145,50200,2,0,B|473:209|473:209|438:247,1,106.875004076958,0|0,3:0|0:0,0:0:0:0:
426,250,50492,2,0,L|418:337,1,71.2500027179719,8|2,0:3|0:0,0:0:0:0:
274,209,50785,6,0,B|286:273|286:273|321:311,1,106.875004076958,2|0,0:3|0:0,0:0:0:0:
332,313,51078,1,0,3:0:0:0:
360,237,51224,1,0,3:0:0:0:
208,297,51370,2,0,B|148:281|136:329|56:293,1,142.500005435944,0|2,3:0|0:0,0:0:0:0:
48,205,51809,1,8,0:3:0:0:
83,202,51882,1,0,0:0:0:0:
114,218,51955,1,2,3:0:0:0:
68,298,52102,5,0,3:0:0:0:
48,205,52248,2,0,L|40:121,1,71.2500027179719,2|8,0:0|0:3,0:0:0:0:
112,29,52541,2,0,L|120:113,1,71.2500027179719,0|0,3:0|0:0,0:0:0:0:
206,192,52761,1,0,0:0:0:0:
212,197,52834,2,0,L|204:113,1,71.2500027179719,8|2,3:3|0:0,0:0:0:0:
280,249,53127,1,2,0:3:0:0:
356,298,53273,5,0,3:0:0:0:
384,205,53419,2,0,L|392:121,1,71.2500027179719,2|8,3:0|0:3,0:0:0:0:
312,29,53712,2,0,L|304:113,1,71.2500027179719,8|2,0:3|0:0,0:0:0:0:
212,197,54005,1,2,3:0:0:0:
188,77,54151,1,8,0:3:0:0:
304,117,54297,1,2,0:3:0:0:
203,198,54444,6,0,B|143:206|143:206|107:194|107:194|43:202,1,142.500005435944,0|8,3:0|0:3,0:0:0:0:
41,55,54883,1,0,0:0:0:0:
213,88,55029,1,2,0:0:0:0:
220,104,55102,1,2,0:0:0:0:
228,121,55175,2,0,L|156:129,1,71.2500027179719,8|8,0:3|0:3,0:0:0:0:
272,41,55468,6,0,B|220:113|284:181,1,142.500005435944,2|2,0:3|0:3,0:0:0:0:
352,229,55907,1,8,0:3:0:0:
414,124,56053,2,0,B|466:116|466:116|406:76|330:112,1,178.12500679493,2|2,3:0|0:3,0:0:0:0:
335,111,56492,2,0,L|345:163,3,35.625001358986,8|0|0|0,0:0|0:0|0:0|3:0,0:0:0:0:
422,222,56785,6,0,P|427:261|407:295,2,80.750001540184,12|2|8,0:0|3:0|0:3,0:0:0:0:
322,120,57224,2,0,L|337:202,1,80.750001540184,2|0,3:0|0:0,0:0:0:0:
263,316,57517,2,0,L|247:233,1,80.750001540184,2|8,3:0|0:3,0:0:0:0:
179,138,57809,6,0,P|158:172|164:211,2,80.750001540184,4|8|2,3:2|0:3|0:3,0:0:0:0:
293,138,58248,1,8,0:3:0:0:
158,101,58395,2,0,P|120:170|143:245,1,161.500003080368,2|2,3:0|0:0,0:0:0:0:
304,250,58834,2,0,P|230:235|215:241,1,80.750001540184,2|8,3:0|0:3,0:0:0:0:
143,368,59127,6,0,P|192:311|195:295,2,80.750001540184,12|2|8,0:2|3:0|0:3,0:0:0:0:
63,233,59566,2,0,P|80:268|113:291,1,80.750001540184,2|0,3:0|0:0,0:0:0:0:
193,156,59858,2,0,P|175:191|142:214,1,80.750001540184,2|0,3:0|0:0,0:0:0:0:
56,97,60151,6,0,P|102:32|119:82,1,161.500003080368,4|2,3:2|0:3,0:0:0:0:
115,139,60590,1,8,0:3:0:0:
173,1,60736,2,0,P|193:51|190:88,1,80.750001540184,2|8,3:0|0:3,0:0:0:0:
190,95,60956,1,8,0:3:0:0:
190,95,61029,1,2,0:3:0:0:
104,152,61175,1,2,3:0:0:0:
196,225,61322,1,8,0:3:0:0:
272,56,61468,6,0,B|279:88|279:88|267:135,2,80.750001540184,12|2|8,0:0|3:0|0:3,0:0:0:0:
300,218,61907,2,0,B|334:251|334:251|365:262,1,80.750001540184,2|0,3:0|0:0,0:0:0:0:
211,205,62200,2,0,B|164:218|164:218|140:239,1,80.750001540184,2|8,3:0|0:3,0:0:0:0:
263,327,62492,6,0,B|226:309|181:315|189:334|134:346|97:316,1,161.500003080368,4|2,3:2|0:3,0:0:0:0:
31,234,62931,1,8,0:3:0:0:
143,158,63078,2,0,L|139:251,1,80.750001540184,2|8,3:0|0:3,0:0:0:0:
249,120,63370,2,0,L|225:210,1,80.750001540184,2|2,0:0|3:0,0:0:0:0:
360,104,63663,2,0,L|330:162,1,40.375000770092,8|0,0:3|0:0,0:0:0:0:
447,202,63809,6,0,P|392:201|350:238,2,80.750001540184,12|2|2,0:3|3:0|3:0,0:0:0:0:
419,272,64248,2,0,P|415:312|391:344,1,80.750001540184,8|8,0:3|0:3,0:0:0:0:
343,284,64541,2,0,P|311:260|296:224,1,80.750001540184,8|8,0:0|0:0,0:0:0:0:
339,6,64834,6,0,B|365:88|365:88|317:160,1,161.500003080368,12|2,0:0|0:3,0:0:0:0:
227,64,65273,1,8,0:3:0:0:
246,68,65346,1,0,0:0:0:0:
266,73,65419,1,2,0:3:0:0:
257,216,65566,2,0,B|234:174|234:174|232:130,1,80.750001540184,8|2,0:3|3:0,0:0:0:0:
170,227,65785,1,2,0:0:0:0:
168,236,65858,2,0,B|145:194|145:194|143:150,1,80.750001540184,8|4,0:3|0:0,0:0:0:0:
58,74,66151,6,0,L|154:87,1,80.750001540184,12|2,0:3|3:0,0:0:0:0:
312,130,66444,2,0,L|216:143,1,80.750001540184,8|2,0:3|3:0,0:0:0:0:
154,168,66736,1,0,3:0:0:0:
213,65,66883,1,8,0:3:0:0:
263,220,67029,1,2,0:0:0:0:
141,164,67175,6,0,B|97:142|97:142|118:280,1,161.500003080368,4|0,0:0|0:0,0:0:0:0:
62,340,67614,1,8,0:3:0:0:
116,261,67761,1,8,0:3:0:0:
65,348,67907,2,0,B|99:363|99:363|166:360,1,80.750001540184,8|2,0:3|0:0,0:0:0:0:
250,350,68127,1,2,0:0:0:0:
250,350,68200,2,0,L|341:342,1,80.750001540184,2|8,3:0|0:3,0:0:0:0:
396,220,68492,6,0,P|386:276|419:336,1,121.125002310276,4|0,0:0|0:0,0:0:0:0:
430,342,68785,2,0,L|473:353,2,40.375000770092,4|0|8,3:2|3:0|0:3,0:0:0:0:
474,171,69078,2,0,L|484:279,1,80.750001540184,8|8,0:3|0:0,0:0:0:0:
481,251,69297,1,8,0:0:0:0:
481,251,69370,1,8,0:0:0:0:
396,220,69517,6,0,B|352:193|352:193|260:188,1,121.125002310276,8|0,0:0|0:0,0:0:0:0:
272,188,69809,1,2,0:3:0:0:
182,258,69956,2,0,L|276:270,1,80.750001540184,8|2,0:3|0:3,0:0:0:0:
272,188,70248,1,8,0:3:0:0:
192,178,70395,1,2,3:0:0:0:
182,258,70541,1,8,0:3:0:0:
262,268,70687,1,2,3:0:0:0:
184,163,70834,6,0,P|177:114|198:74,1,80.750001540184,4|8,0:0|0:3,0:0:0:0:
289,34,71127,2,0,P|296:83|275:123,1,80.750001540184,2|2,3:0|3:0,0:0:0:0:
197,75,71419,1,2,0:3:0:0:
304,30,71566,2,0,L|391:33,1,80.750001540184,8|2,0:3|0:0,0:0:0:0:
448,169,71858,6,0,P|433:81|484:34,1,161.500003080368,2|2,3:0|0:3,0:0:0:0:
480,35,72224,1,0,0:0:0:0:
480,35,72297,1,8,0:3:0:0:
506,113,72444,1,0,3:0:0:0:
448,169,72590,2,0,L|355:180,1,80.750001540184,8|2,0:3|0:3,0:0:0:0:
432,289,72883,2,0,L|525:300,1,80.750001540184,2|8,3:0|0:3,0:0:0:0:
367,178,73175,6,0,B|371:253|371:253|303:328,1,161.500003080368,4|4,0:0|3:2,0:0:0:0:
292,319,73541,1,0,3:0:0:0:
272,322,73614,1,8,0:3:0:0:
130,277,73761,1,8,0:3:0:0:
171,367,73907,1,8,0:0:0:0:
190,369,73980,1,8,0:0:0:0:
210,372,74053,1,8,0:0:0:0:
223,243,74200,6,0,P|196:185|112:174,1,121.125002310276,8|0,0:0|0:0,0:0:0:0:
121,167,74492,1,2,0:3:0:0:
53,283,74639,2,0,L|27:185,1,80.750001540184,8|2,0:3|0:3,0:0:0:0:
121,167,74931,2,0,L|121:65,1,71.2500027179719,8|2,0:3|3:0,0:0:0:0:
216,72,75224,2,0,L|236:-2,1,61.7499971733095,8|2,0:3|3:0,0:0:0:0:
350,25,75517,6,0,B|366:71|366:71|354:127,1,104.500003189087,12|8,0:0|0:3,0:0:0:0:
319,203,75956,1,0,3:0:0:0:
229,76,76102,2,0,L|306:81,1,52.2500015945435,2|0,3:0|3:0,0:0:0:0:
281,79,76322,1,0,0:0:0:0:
281,79,76395,1,8,0:3:0:0:
266,151,76541,1,2,3:3:0:0:
389,190,76687,6,0,L|410:197,6,13.0625003986359,0|0|0|0|0|0|0,3:0|0:0|3:0|0:0|3:0|0:0|3:0,0:0:0:0:
473,171,76980,2,0,L|463:238,1,52.2500015945435,8|8,0:3|0:3,0:0:0:0:
455,325,77273,2,0,P|410:303|372:308,1,78.3750023918153,8|0,0:0|0:0,0:0:0:0:
382,304,77566,2,0,P|427:326|465:321,1,78.3750023918153,2|0,3:0|0:0,0:0:0:0:
313,358,77858,6,0,B|297:312|297:312|309:256,1,104.500003189087,4|2,0:0|3:0,0:0:0:0:
344,180,78224,1,0,0:0:0:0:
344,180,78297,1,2,0:0:0:0:
434,307,78443,2,0,L|357:302,1,52.2500015945435,8|2,0:3|0:0,0:0:0:0:
382,304,78663,1,2,0:0:0:0:
382,304,78736,1,8,0:3:0:0:
397,232,78882,1,8,0:3:0:0:
274,193,79029,6,0,P|227:194|180:185,1,78.3750023918153,2|0,0:3|0:0,0:0:0:0:
175,175,79322,2,0,B|183:222|183:222|166:258,1,78.3750023918153,8|0,0:3|0:0,0:0:0:0:
81,317,79614,2,0,B|73:270|73:270|90:234,1,78.3750023918153,8|0,0:0|0:0,0:0:0:0:
86,242,79907,2,0,B|94:289|94:289|77:325,1,78.3750023918153,0|0,3:0|0:0,0:0:0:0:
38,130,80200,6,0,B|83:153|83:153|122:117,1,104.500003189087,12|8,0:0|0:3,0:0:0:0:
66,21,80639,1,10,0:3:0:0:
21,121,80785,1,0,3:0:0:0:
131,109,80931,1,8,0:3:0:0:
67,8,81078,2,0,P|66:54|75:74,1,52.2500015945435,2|0,0:0|0:0,0:0:0:0:
113,180,81370,6,0,P|159:181|192:154,1,78.3750023918153,2|0,3:0|0:0,0:0:0:0:
196,151,81663,1,8,0:3:0:0:
209,149,81736,1,8,0:3:0:0:
222,148,81809,1,2,3:0:0:0:
235,147,81882,1,0,3:0:0:0:
248,146,81956,2,0,L|243:201,1,52.2500015945435,8|2,0:3|0:0,0:0:0:0:
357,261,82248,2,0,L|352:208,1,52.2500015945435,2|0,3:0|0:0,0:0:0:0:
330,57,82541,5,0,3:0:0:0:
338,133,82687,1,0,3:0:0:0:
424,127,82834,1,2,0:0:0:0:
437,125,82907,1,2,0:0:0:0:
450,124,82980,1,8,0:3:0:0:
355,45,83127,2,0,P|339:88|350:133,1,78.3750023918153,8|0,0:3|0:0,0:0:0:0:
343,119,83419,2,0,P|300:103|255:114,1,78.3750023918153,2|0,3:0|0:0,0:0:0:0:
253,114,83712,5,2,3:0:0:0:
243,131,83785,1,0,0:0:0:0:
238,150,83858,1,2,0:0:0:0:
237,169,83931,1,2,0:0:0:0:
242,188,84005,2,0,L|251:220,1,26.1250007972718,8|0,0:3|0:0,0:0:0:0:
324,274,84151,1,0,3:0:0:0:
393,215,84297,2,0,B|431:192|431:192|476:211,1,78.3750023918153,8|2,0:0|0:0,0:0:0:0:
475,211,84590,2,0,L|495:222,6,13.0625003986359,8|0|8|0|8|0|8,0:3|0:0|0:3|0:0|0:3|0:0|0:3,0:0:0:0:
417,68,84883,6,0,L|423:125,1,52.2500015945435,8|2,0:0|3:0,0:0:0:0:
437,280,85175,1,8,0:3:0:0:
304,62,85322,2,0,L|310:119,1,52.2500015945435,8|2,0:0|3:0,0:0:0:0:
324,274,85614,1,8,0:3:0:0:
395,193,85761,1,8,0:0:0:0:
297,171,85907,1,2,3:0:0:0:
324,274,86053,1,2,3:0:0:0:
356,125,86200,5,2,0:3:0:0:
208,92,86346,1,8,0:3:0:0:
175,241,86492,1,8,0:3:0:0:
266,183,86639,1,8,0:3:0:0:
69,238,86785,1,2,0:3:0:0:
262,309,86931,1,2,3:0:0:0:
148,139,87078,1,8,0:3:0:0:
140,342,87224,5,4,0:0:0:0:
256,192,103614,12,8,105370,0:3:0:0:
288,52,105663,5,8,0:3:0:0:
311,47,105736,1,8,0:3:0:0:
334,49,105809,1,10,0:3:0:0:
357,56,105882,1,2,3:3:0:0:
376,70,105956,6,0,L|364:166,1,95,4|0,0:0|0:0,0:0:0:0:
396,288,106248,1,8,0:0:0:0:
487,190,106395,2,0,L|441:198,1,47.5,0|0,0:0|0:0,0:0:0:0:
282,255,106541,1,2,3:0:0:0:
408,298,106687,1,0,3:0:0:0:
364,164,106834,1,8,0:0:0:0:
309,351,106980,6,0,P|341:341|378:267,1,95,6|0,0:0|0:0,0:0:0:0:
187,218,107273,1,0,3:0:0:0:
304,264,107419,1,0,0:0:0:0:
272,118,107566,1,0,0:0:0:0:
268,141,107639,1,0,0:0:0:0:
264,164,107712,1,2,0:0:0:0:
235,312,107858,1,0,0:0:0:0:
346,204,108005,1,8,0:0:0:0:
190,211,108151,2,0,L|141:200,1,47.5,0|0,0:0|0:0,0:0:0:0:
97,94,108297,6,0,B|120:137|120:137|106:232,1,142.5,4|0,0:0|0:0,0:0:0:0:
17,310,108590,2,0,L|33:204,1,95,8|0,0:0|0:0,0:0:0:0:
34,192,108809,1,0,0:0:0:0:
38,169,108882,1,2,3:0:0:0:
172,292,109029,1,2,3:0:0:0:
50,255,109175,1,8,0:0:0:0:
148,112,109322,6,0,L|134:207,1,95,4|0,0:0|0:0,0:0:0:0:
250,312,109614,1,0,3:0:0:0:
236,218,109761,1,8,0:0:0:0:
155,296,109907,1,2,3:0:0:0:
306,212,110053,2,0,P|284:162|218:149,1,95,2|0,0:0|3:0,0:0:0:0:
84,114,110346,1,8,0:0:0:0:
127,132,110419,1,8,0:0:0:0:
172,122,110492,1,10,0:0:0:0:
204,88,110565,1,2,0:3:0:0:
137,30,110639,6,0,P|119:77|137:149,1,95,4|0,0:0|0:0,0:0:0:0:
227,201,110931,1,8,0:0:0:0:
281,77,111078,1,2,0:0:0:0:
257,80,111151,1,0,0:0:0:0:
233,83,111224,1,0,3:0:0:0:
85,142,111370,1,0,3:0:0:0:
231,190,111517,1,8,0:0:0:0:
146,96,111663,6,0,B|155:145|155:145|133:225,1,95,4|0,0:0|0:0,0:0:0:0:
68,285,111956,1,2,3:0:0:0:
78,142,112102,1,0,0:0:0:0:
203,280,112248,1,2,3:0:0:0:
180,270,112321,1,2,0:0:0:0:
158,261,112394,1,2,0:0:0:0:
8,200,112541,1,0,0:0:0:0:
146,184,112687,1,8,0:0:0:0:
73,295,112834,2,0,L|73:349,1,47.5,2|0,0:0|0:0,0:0:0:0:
240,341,112980,6,0,P|232:281|256:236,1,95,4|0,0:0|0:0,0:0:0:0:
358,181,113273,1,8,0:0:0:0:
371,313,113419,2,0,L|323:302,1,47.5,2|0,0:0|0:0,0:0:0:0:
311,137,113566,2,0,P|325:181|315:227,1,95,2|0,3:0|3:0,0:0:0:0:
189,149,113858,1,8,0:0:0:0:
318,54,114005,1,6,0:0:0:0:
361,70,114078,1,8,0:2:0:0:
393,105,114151,5,10,0:3:0:0:
375,271,114297,1,0,3:0:0:0:
458,151,114444,1,8,0:0:0:0:
307,222,114590,1,2,3:0:0:0:
454,235,114736,1,6,0:0:0:0:
311,137,114883,1,10,0:0:0:0:
269,193,114956,1,8,0:0:0:0:
271,263,115029,1,8,0:0:0:0:
291,297,115102,1,0,3:0:0:0:
326,316,115175,1,2,3:0:0:0:
365,316,115248,1,2,3:3:0:0:
402,301,115322,5,6,0:0:0:0:
366,197,115468,1,2,0:0:0:0:
402,301,115614,1,10,0:0:0:0:
439,182,115761,2,0,L|321:168,1,95,2|0,3:0|0:0,0:0:0:0:
330,301,116053,1,2,3:3:0:0:
366,197,116199,1,8,0:0:0:0:
403,316,116346,2,0,L|285:330,1,95,6|0,0:0|0:0,0:0:0:0:
294,197,116639,1,2,3:3:0:0:
330,301,116785,1,10,0:0:0:0:
367,182,116932,2,0,L|249:168,1,95,2|0,3:0|0:0,0:0:0:0:
136,106,117224,5,2,3:3:0:0:
133,129,117297,1,0,0:0:0:0:
139,152,117370,1,10,0:0:0:0:
214,248,117517,1,0,0:0:0:0:
204,123,117663,5,6,0:0:0:0:
93,215,117809,1,2,0:0:0:0:
204,123,117956,1,10,0:0:0:0:
196,252,118102,2,0,P|148:257|83:234,1,95,2|0,3:0|0:0,0:0:0:0:
204,123,118395,1,2,3:3:0:0:
315,215,118542,1,8,0:0:0:0:
307,86,118688,2,0,P|259:81|194:104,1,95,6|0,0:0|0:0,0:0:0:0:
315,215,118980,1,2,3:3:0:0:
426,123,119127,1,10,0:0:0:0:
418,252,119273,2,0,P|370:257|305:234,1,95,2|0,3:0|0:0,0:0:0:0:
366,64,119566,5,2,3:3:0:0:
368,87,119639,1,0,0:0:0:0:
371,111,119712,2,0,L|378:185,1,47.5,10|0,0:0|0:0,0:0:0:0:
240,266,119858,2,0,L|247:192,1,47.5,0|0,0:0|0:0,0:0:0:0:
256,101,120005,5,6,0:0:0:0:
329,199,120151,1,2,0:0:0:0:
167,182,120297,1,10,0:0:0:0:
262,39,120444,2,0,L|255:162,1,95,2|0,3:0|0:0,0:0:0:0:
305,266,120736,1,2,3:3:0:0:
143,249,120882,1,8,0:0:0:0:
238,106,121029,2,0,L|231:229,1,95,6|0,0:0|0:0,0:0:0:0:
281,333,121321,1,2,3:3:0:0:
119,316,121467,1,10,0:0:0:0:
214,173,121614,2,0,L|207:296,1,95,2|0,3:0|0:0,0:0:0:0:
95,352,121907,5,2,3:3:0:0:
92,328,121980,1,0,0:0:0:0:
89,304,122053,2,0,L|81:234,1,47.5,10|0,0:0|0:0,0:0:0:0:
232,53,122200,2,0,L|226:100,1,47.5,0|0,0:0|0:0,0:0:0:0:
208,267,122346,5,14,0:0:0:0:
32,128,122492,2,0,P|76:127|128:106,1,95,12|8,0:0|3:3,0:0:0:0:
480,224,122785,2,0,P|436:223|384:202,1,95,2|2,3:0|0:0,0:0:0:0:
32,320,123078,2,0,P|76:319|128:298,1,95,10|8,0:3|0:3,0:0:0:0:
255,88,123370,6,0,B|249:150|249:150|260:172|260:172|248:245,1,142.500005435944,12|2,0:0|0:3,0:0:0:0:
256,238,123736,1,2,0:0:0:0:
256,238,123809,1,8,0:3:0:0:
359,299,123956,1,2,0:3:0:0:
359,299,124029,1,2,0:0:0:0:
359,299,124102,1,8,0:0:0:0:
462,359,124248,1,2,3:0:0:0:
462,359,124321,1,8,0:3:0:0:
462,359,124394,1,8,0:3:0:0:
463,119,124541,6,0,L|462:71,1,47.5,6|0,0:0|0:0,0:0:0:0:
