osu file format v14

[General]
AudioFilename: audio.mp3
AudioLeadIn: 0
PreviewTime: 23858
Countdown: 0
SampleSet: Soft
StackLeniency: 0.3
Mode: 0
LetterboxInBreaks: 0
WidescreenStoryboard: 1

[Editor]
Bookmarks: 590,9956,19322,28687,38053,55614,56785,66151,73175,75517,84883,87224,96590,105956,115322,124687
DistanceSpacing: 2
BeatDivisor: 4
GridSize: 4
TimelineZoom: 1.4

[Metadata]
Title:Cookie Bouquets
TitleUnicode:Cookie Bouquets
Artist:Dormir
ArtistUnicode:Dormir
Creator:dsco
Version:Ultra
Source:beatmania IIDX 15 DJ TROOPERS
Tags:tomosuke crimm petit march konami L.E.D. breakcore fanzhen0019 finshie sammish su1fu7 fanzhen sulfur bemani cs reflec beat limelight Vincent Bui Naoya Miyadai Ryousuke Takeuchi D.B.D
BeatmapID:1453420
BeatmapSetID:675125

[Difficulty]
HPDrainRate:5.9
CircleSize:4.1
OverallDifficulty:8.9
ApproachRate:9.1
SliderMultiplier:1.8
SliderTickRate:1

[Events]
//Background and Video events
0,0,"fuck.jpg",0,0
//Break Periods
2,87424,103030
//Storyboard Layer 0 (Background)
//Storyboard Layer 1 (Fail)
//Storyboard Layer 2 (Pass)
//Storyboard Layer 3 (Foreground)
//Storyboard Sound Samples

[TimingPoints]
590.427184466019,292.682926829268,4,2,0,60,1,0
103614,-100,4,2,0,30,0,0
105517,-100,4,2,0,60,0,0
105956,-100,4,2,0,60,0,1
124395,-100,4,2,0,60,0,0

[Colours]
Combo1 : 97,170,194
Combo2 : 253,215,239
Combo3 : 220,71,98
Combo4 : 210,234,242

[HitObjects]
400,188,19029,5,8,0:3:0:0:
400,188,19102,1,8,0:3:0:0:
400,188,19175,1,10,0:3:0:0:
400,188,19248,1,2,0:3:0:0:
489,194,19322,6,0,L|373:187,1,90,4|0,0:0|0:0,0:0:0:0:
240,263,19614,2,0,L|330:269,1,90,8|0,0:0|0:0,0:0:0:0:
489,194,19907,2,0,P|503:149|483:86,1,90,2|0,3:0|3:0,0:0:0:0:
431,50,20200,1,8,0:0:0:0:
165,213,20346,6,0,P|151:258|171:321,1,90,6|0,0:0|0:0,0:0:0:0:
405,319,20639,2,0,P|419:274|399:211,1,90,0|0,3:0|0:0,0:0:0:0:
222,356,20931,1,2,3:0:0:0:
348,176,21078,2,0,L|342:86,1,90,2|0,0:0|0:0,0:0:0:0:
285,267,21370,1,8,0:0:0:0:
342,86,21517,1,0,0:0:0:0:
157,128,21663,6,0,P|112:137|59:124,1,90,4|0,0:0|0:0,0:0:0:0:
189,27,21956,2,0,P|234:18|287:31,1,90,8|0,0:0|0:0,0:0:0:0:
125,229,22248,1,2,3:0:0:0:
4,69,22395,1,2,3:0:0:0:
93,330,22541,1,8,0:0:0:0:
275,123,22687,6,0,L|381:113,1,90,4|0,0:0|0:0,0:0:0:0:
182,338,22980,2,0,L|76:328,1,90,0|8,3:0|0:0,0:0:0:0:
275,123,23273,2,0,L|475:104,1,180,2|0,3:0|3:0,0:0:0:0:
182,338,23712,5,8,0:0:0:0:
182,338,23785,1,8,0:0:0:0:
182,338,23858,1,10,0:0:0:0:
182,338,23931,1,2,0:3:0:0:
93,330,24005,6,0,L|182:338,1,90,4|0,0:0|0:0,0:0:0:0:
317,222,24297,1,8,0:0:0:0:
229,231,24444,1,2,0:0:0:0:
396,268,24590,1,0,3:0:0:0:
283,140,24736,1,0,3:0:0:0:
299,309,24883,1,8,0:0:0:0:
386,163,25029,6,0,P|400:118|380:55,1,90,4|0,0:0|0:0,0:0:0:0:
146,57,25322,2,0,P|132:102|152:165,1,90,2|0,3:0|0:0,0:0:0:0:
329,20,25614,1,2,3:0:0:0:
203,200,25761,2,0,L|209:290,1,90,2|0,0:0|0:0,0:0:0:0:
266,110,26053,1,8,0:0:0:0:
208,289,26200,1,2,0:0:0:0:
393,250,26346,5,4,0:0:0:0:
82,150,26492,2,0,L|76:60,1,90,0|8,0:0|0:0,0:0:0:0:
290,216,26785,2,0,L|296:306,1,90,2|2,0:0|3:0,0:0:0:0:
186,183,27078,2,0,L|180:93,1,90,0|8,3:0|0:0,0:0:0:0:
393,250,27370,1,6,0:0:0:0:
395,294,27443,1,8,0:2:0:0:
398,339,27516,1,10,0:3:0:0:
180,93,27663,6,0,P|225:79|288:99,1,90,0|8,3:0|0:0,0:0:0:0:
191,272,27956,1,2,3:0:0:0:
298,10,28102,1,6,0:0:0:0:
145,197,28248,1,10,0:0:0:0:
102,210,28321,1,2,0:3:0:0:
57,202,28394,5,8,0:0:0:0:
99,188,28468,1,8,0:0:0:0:
145,197,28541,1,10,0:0:0:0:
178,227,28614,1,2,0:3:0:0:
191,272,28687,5,6,0:0:0:0:
384,155,28834,1,2,0:0:0:0:
346,310,28980,1,10,0:0:0:0:
229,117,29127,2,0,P|216:64|228:24,1,90,2|0,3:0|0:0,0:0:0:0:
288,214,29419,1,2,3:3:0:0:
224,30,29566,1,8,0:0:0:0:
129,245,29712,6,0,P|80:259|35:252,1,90,6|0,0:0|0:0,0:0:0:0:
75,138,30005,1,2,3:3:0:0:
183,352,30151,1,10,0:0:0:0:
224,30,30297,2,0,P|273:16|318:23,1,90,2|0,3:0|0:0,0:0:0:0:
204,191,30590,1,2,3:3:0:0:
21,31,30736,2,0,L|120:38,1,90,10|0,0:0|0:0,0:0:0:0:
254,319,31029,5,6,0:0:0:0:
171,106,31175,1,2,0:0:0:0:
106,254,31322,1,10,0:0:0:0:
319,171,31468,2,0,P|329:131|316:78,1,90,2|0,3:0|0:0,0:0:0:0:
213,213,31761,1,2,3:3:0:0:
319,84,31907,1,8,0:0:0:0:
33,207,32053,6,0,P|22:260|33:309,1,90,6|0,0:0|0:0,0:0:0:0:
207,66,32346,1,2,3:3:0:0:
41,107,32492,1,10,0:0:0:0:
278,335,32639,2,0,P|292:291|286:232,1,90,2|0,3:0|0:0,0:0:0:0:
111,347,32931,1,2,3:3:0:0:
327,173,33078,2,0,L|316:63,1,90,10|0,0:0|0:0,0:0:0:0:
422,313,33370,5,6,0:0:0:0:
241,154,33517,1,2,0:0:0:0:
411,143,33663,1,10,0:0:0:0:
252,324,33809,2,0,P|208:333|152:323,1,90,2|0,3:0|0:0,0:0:0:0:
332,234,34102,1,2,3:3:0:0:
163,327,34249,1,8,0:0:0:0:
325,96,34395,6,0,P|331:50|318:3,1,90,6|0,0:0|0:0,0:0:0:0:
219,58,34687,1,2,3:3:0:0:
431,133,34834,1,10,0:0:0:0:
125,184,34980,2,0,P|114:140|120:96,1,90,2|0,3:0|0:0,0:0:0:0:
187,259,35273,1,2,3:3:0:0:
0,30,35419,2,0,L|109:22,1,90,10|0,0:0|0:0,0:0:0:0:
279,159,35712,5,4,0:0:0:0:
95,359,35858,1,4,0:0:0:0:
5,347,36004,1,8,0:3:0:0:
187,259,36151,2,0,L|276:270,1,90,6|8,0:0|0:3,0:0:0:0:
460,70,36444,2,0,L|370:58,1,90,2|0,0:3|0:0,0:0:0:0:
100,136,36736,6,0,L|278:158,1,180,6|2,0:0|3:0,0:0:0:0:
367,169,37175,1,8,0:0:0:0:
312,240,37321,1,2,3:0:0:0:
316,244,37395,1,2,0:0:0:0:
320,248,37468,1,8,0:0:0:0:
346,324,37614,1,2,3:3:0:0:
350,328,37688,1,2,3:3:0:0:
354,332,37761,5,8,0:0:0:0:
393,301,37834,1,8,0:0:0:0:
410,254,37907,1,10,0:3:0:0:
400,205,37980,1,0,3:3:0:0:
367,169,38053,5,4,0:0:0:0:
448,23,38200,2,0,L|435:138,1,90,0|0,0:0|0:0,0:0:0:0:
277,158,38492,1,0,3:0:0:0:
216,61,38639,2,0,L|272:65,3,45,2|0|8|0,0:0|0:0|0:3|0:0,0:0:0:0:
340,72,38931,1,2,0:0:0:0:
118,108,39078,6,0,P|109:63|117:4,1,90,2|0,3:3|3:0,0:0:0:0:
185,164,39370,1,2,0:0:0:0:
8,136,39517,1,8,0:3:0:0:
8,136,39663,1,8,0:3:0:0:
228,80,39809,2,0,L|284:76,3,45,2|2|2|0,0:0|0:0|0:3|0:0,0:0:0:0:
325,20,40102,1,8,0:3:0:0:
440,196,40248,2,0,L|446:140,1,45,2|0,3:0|0:0,0:0:0:0:
355,170,40395,6,0,L|362:271,1,90,0|0,3:0|0:0,0:0:0:0:
114,292,40687,1,8,0:3:0:0:
217,340,40834,2,0,L|224:239,1,90,0|2,0:0|0:0,0:0:0:0:
215,229,41053,1,0,0:0:0:0:
216,206,41127,2,0,L|219:155,1,45,8|0,0:3|0:0,0:0:0:0:
173,96,41273,1,2,0:0:0:0:
173,96,41346,1,0,0:0:0:0:
173,96,41419,1,2,0:3:0:0:
335,21,41566,5,0,3:0:0:0:
408,81,41712,2,0,L|506:72,2,90,0|0|0,3:0|3:0|3:0,0:0:0:0:
353,222,42151,1,8,0:3:0:0:
274,146,42297,2,0,L|324:150,1,45,2|2,0:0|0:0,0:0:0:0:
388,302,42444,1,8,0:3:0:0:
388,302,42517,1,8,0:3:0:0:
388,302,42590,2,0,L|343:306,1,45,2|0,3:0|0:0,0:0:0:0:
166,351,42736,6,0,P|160:290|167:249,1,90,8|0,0:3|0:0,0:0:0:0:
75,59,43029,2,0,P|68:103|72:148,1,90,8|0,0:3|3:0,0:0:0:0:
243,236,43322,2,0,L|287:228,3,45,2|0|0|0,0:0|0:0|0:0|0:0,0:0:0:0:
360,272,43614,2,0,L|367:227,1,45,2|2,0:0|0:0,0:0:0:0:
329,160,43761,1,2,3:0:0:0:
391,384,43907,5,0,3:0:0:0:
512,143,44053,1,2,0:0:0:0:
440,87,44200,1,8,0:3:0:0:
440,87,44346,2,0,P|423:128|427:173,1,90,8|2,0:3|0:0,0:0:0:0:
437,193,44566,1,2,0:0:0:0:
453,210,44639,2,0,L|448:263,1,45,2|0,0:3|0:0,0:0:0:0:
472,341,44785,1,8,0:3:0:0:
302,294,44931,1,2,3:0:0:0:
132,339,45078,6,0,P|191:343|238:326,1,90,0|2,3:0|0:0,0:0:0:0:
369,356,45370,1,8,0:3:0:0:
344,136,45517,2,0,P|285:132|238:149,1,90,2|2,0:0|3:0,0:0:0:0:
235,150,45736,1,2,0:0:0:0:
218,165,45809,2,0,P|229:135|229:102,1,45,0|0,0:0|0:0,0:0:0:0:
186,62,45956,1,2,0:0:0:0:
186,62,46029,1,2,0:0:0:0:
186,62,46102,1,2,0:3:0:0:
142,242,46248,5,8,0:3:0:0:
112,138,46395,1,0,3:0:0:0:
40,325,46541,1,8,0:3:0:0:
37,216,46688,1,0,3:0:0:0:
163,372,46834,5,8,0:3:0:0:
334,286,46980,2,0,L|330:238,1,45,2|2,0:0|0:0,0:0:0:0:
249,330,47127,2,0,L|252:374,1,45,8|0,0:3|0:0,0:0:0:0:
420,244,47273,1,8,0:3:0:0:
424,248,47346,1,8,0:3:0:0:
428,252,47419,5,4,0:0:0:0:
326,92,47566,2,0,P|313:50|329:-5,1,90,0|8,0:0|0:3,0:0:0:0:
405,137,47858,2,0,P|375:169|319:182,1,90,0|2,3:0|0:0,0:0:0:0:
187,130,48151,2,0,L|178:74,1,45,8|0,0:3|0:0,0:0:0:0:
102,41,48297,2,0,L|93:97,3,45,2|0|2|2,0:0|0:0|0:0|0:0,0:0:0:0:
22,131,48590,5,0,3:0:0:0:
101,269,48736,2,0,P|114:227|98:172,1,90,2|8,0:0|0:3,0:0:0:0:
22,314,49028,2,0,P|51:346|107:359,1,90,8|2,0:3|0:0,0:0:0:0:
118,358,49248,1,2,0:0:0:0:
140,351,49322,2,0,P|171:338|197:336,1,45,8|0,0:3|0:0,0:0:0:0:
258,363,49468,1,8,0:3:0:0:
340,153,49614,2,0,L|284:144,1,45,2|0,0:0|0:0,0:0:0:0:
215,185,49761,6,0,L|204:55,1,90,2|0,3:0|0:0,0:0:0:0:
42,254,50053,1,8,0:3:0:0:
24,37,50200,2,0,L|31:126,1,90,0|0,3:0|0:0,0:0:0:0:
24,148,50419,1,0,0:0:0:0:
27,170,50492,1,8,0:3:0:0:
141,274,50639,2,0,L|145:220,1,45,2|2,0:0|0:0,0:0:0:0:
62,351,50785,1,2,0:3:0:0:
62,351,50858,1,0,0:0:0:0:
62,351,50931,5,0,3:0:0:0:
269,278,51078,1,0,3:0:0:0:
177,354,51224,1,0,3:0:0:0:
104,164,51370,1,0,3:0:0:0:
308,125,51517,6,0,L|302:178,1,45,8|0,0:3|0:0,0:0:0:0:
209,103,51663,1,2,0:0:0:0:
206,80,51736,1,2,0:0:0:0:
203,58,51809,1,8,0:3:0:0:
200,35,51883,1,0,0:0:0:0:
197,13,51956,1,2,3:0:0:0:
413,64,52102,5,0,3:0:0:0:
362,328,52248,2,0,L|351:238,1,90,2|8,0:0|0:3,0:0:0:0:
437,168,52541,1,0,3:0:0:0:
246,264,52687,2,0,L|192:257,3,45,0|0|8|0,0:0|0:0|3:3|0:0,0:0:0:0:
128,293,52980,1,2,0:0:0:0:
128,293,53053,1,2,0:0:0:0:
128,293,53127,2,0,L|121:239,1,45,2|0,0:3|0:0,0:0:0:0:
49,238,53273,5,0,3:0:0:0:
99,84,53419,1,2,3:0:0:0:
26,145,53566,1,8,0:3:0:0:
249,117,53712,2,0,L|311:109,1,45,8|0,0:3|0:0,0:0:0:0:
361,20,53858,1,2,0:0:0:0:
361,20,53931,1,2,0:0:0:0:
361,20,54005,2,0,L|353:82,1,45,2|0,3:0|0:0,0:0:0:0:
345,180,54151,1,8,0:3:0:0:
456,317,54297,1,2,0:3:0:0:
455,317,54444,6,0,P|465:265|450:222,1,90,0|0,3:0|0:0,0:0:0:0:
244,340,54736,1,8,0:3:0:0:
370,275,54883,2,0,L|255:263,1,90,0|2,0:0|0:0,0:0:0:0:
265,245,55102,1,2,0:0:0:0:
242,242,55175,2,0,L|184:236,1,45,8|2,0:3|0:3,0:0:0:0:
101,316,55322,2,0,P|117:291|123:255,1,45,8|2,0:3|0:0,0:0:0:0:
118,139,55468,2,0,P|128:166|126:203,1,45,2|0,0:3|0:0,0:0:0:0:
20,216,55614,6,0,L|-24:211,3,45,2|0|2|0,3:0|0:0|0:3|0:0,0:0:0:0:
118,139,55907,2,0,L|74:134,1,45,8|0,0:3|0:0,0:0:0:0:
216,61,56053,2,0,L|172:56,1,45,2|0,3:0|0:0,0:0:0:0:
251,308,56200,5,8,0:3:0:0:
234,185,56346,1,0,3:0:0:0:
350,232,56492,2,0,P|410:251|482:222,1,135,8|0,0:0|3:0,0:0:0:0:
490,211,56785,5,12,0:0:0:0:
350,232,56931,1,2,3:0:0:0:
329,91,57078,1,8,0:3:0:0:
469,69,57223,2,0,P|479:25|469:-17,1,90,2|0,3:0|0:0,0:0:0:0:
189,113,57517,2,0,P|179:157|189:199,1,90,2|8,3:0|0:3,0:0:0:0:
248,32,57809,6,0,L|141:22,1,90,4|8,3:2|0:3,0:0:0:0:
247,279,58102,1,2,0:3:0:0:
337,271,58248,1,8,0:3:0:0:
95,94,58395,2,0,P|75:144|87:194,1,90,2|8,3:0|0:3,0:0:0:0:
405,328,58687,2,0,P|425:278|413:228,1,90,2|2,0:0|3:0,0:0:0:0:
355,185,58980,1,8,0:3:0:0:
124,164,59127,5,12,0:2:0:0:
110,306,59273,1,2,3:0:0:0:
252,320,59419,1,8,0:3:0:0:
266,178,59566,2,0,L|275:77,1,90,2|0,3:0|0:0,0:0:0:0:
421,265,59858,2,0,L|320:256,1,90,2|0,3:0|0:0,0:0:0:0:
119,2,60151,6,0,L|220:11,1,90,4|8,3:2|0:3,0:0:0:0:
353,23,60444,1,2,0:3:0:0:
274,89,60590,1,8,0:3:0:0:
332,258,60736,2,0,P|343:284|335:334,1,45,2|0,3:0|3:0,0:0:0:0:
294,352,60883,1,8,0:3:0:0:
294,352,60956,1,8,0:3:0:0:
294,352,61029,1,2,0:3:0:0:
370,164,61175,2,0,P|417:151|467:159,1,90,2|8,3:0|0:3,0:0:0:0:
212,281,61468,5,12,0:0:0:0:
68,259,61614,1,2,3:0:0:0:
90,115,61761,1,8,0:3:0:0:
234,137,61907,2,0,P|249:84|237:45,1,90,2|0,3:0|0:0,0:0:0:0:
68,259,62200,2,0,P|52:311|64:350,1,90,2|8,3:0|0:3,0:0:0:0:
295,220,62492,6,0,L|222:208,2,45,4|0|8,3:2|3:0|0:3,0:0:0:0:
439,242,62785,1,2,0:3:0:0:
357,304,62931,1,8,0:3:0:0:
172,54,63078,2,0,L|60:35,1,90,2|8,3:0|0:3,0:0:0:0:
180,333,63370,2,0,L|291:314,1,90,2|2,0:0|3:0,0:0:0:0:
357,304,63663,1,8,0:3:0:0:
110,121,63809,5,12,0:3:0:0:
134,262,63956,1,2,3:0:0:0:
278,237,64102,2,0,L|268:183,1,45,2|2,3:0|0:0,0:0:0:0:
251,92,64248,1,8,0:3:0:0:
193,177,64395,1,8,0:3:0:0:
334,153,64541,1,8,0:0:0:0:
338,157,64614,1,8,0:0:0:0:
342,161,64687,1,8,0:0:0:0:
75,347,64834,6,0,P|61:310|66:249,1,90,12|0,0:0|3:0,0:0:0:0:
72,239,65053,1,0,0:0:0:0:
83,220,65127,2,0,P|88:197|86:171,1,45,2|0,0:3|0:0,0:0:0:0:
8,84,65273,2,0,P|25:99|48:111,1,45,8|0,0:3|0:0,0:0:0:0:
163,87,65419,2,0,P|140:94|119:108,1,45,2|0,0:3|3:0,0:0:0:0:
83,220,65566,1,8,0:3:0:0:
253,105,65712,1,2,3:0:0:0:
249,82,65785,1,2,0:0:0:0:
246,60,65858,1,8,0:3:0:0:
273,239,66005,1,4,0:0:0:0:
330,162,66151,5,12,0:3:0:0:
216,316,66297,1,2,3:0:0:0:
196,182,66444,1,8,0:3:0:0:
350,296,66590,2,0,P|397:301|441:280,2,90,2|0|8,3:0|3:0|0:3,0:0:0:0:
273,239,67029,1,2,0:0:0:0:
374,0,67175,2,0,P|391:46|377:102,1,90,4|0,0:0|3:0,0:0:0:0:
196,182,67468,5,0,0:0:0:0:
330,162,67614,1,8,0:3:0:0:
253,105,67761,1,8,0:3:0:0:
273,239,67907,1,8,0:3:0:0:
418,147,68053,2,0,L|463:141,2,45,2|2|2,0:0|0:0|3:0,0:0:0:0:
293,373,68346,2,0,L|248:366,1,45,8|0,0:3|0:0,0:0:0:0:
171,384,68492,6,0,L|158:271,1,90,4|2,0:0|0:3,0:0:0:0:
253,105,68785,1,4,3:2:0:0:
250,127,68858,1,0,3:0:0:0:
247,149,68931,1,8,0:3:0:0:
50,256,69078,1,8,0:3:0:0:
171,384,69224,1,8,0:0:0:0:
171,384,69297,1,8,0:0:0:0:
171,384,69370,1,8,0:0:0:0:
143,178,69517,1,8,0:0:0:0:
143,178,69663,6,0,L|41:164,1,90,2|2,3:0|0:3,0:0:0:0:
342,92,69956,2,0,L|240:106,1,90,8|2,0:3|0:3,0:0:0:0:
354,225,70248,1,8,0:3:0:0:
143,178,70395,1,2,3:0:0:0:
342,92,70541,1,8,0:3:0:0:
232,278,70687,1,2,3:0:0:0:
211,62,70833,5,4,0:0:0:0:
257,169,70980,1,8,0:3:0:0:
117,289,71127,1,2,3:0:0:0:
53,165,71273,2,0,L|142:177,1,90,2|2,3:0|0:3,0:0:0:0:
232,278,71566,1,8,0:3:0:0:
211,62,71712,2,0,L|200:136,1,45,0|2,0:0|0:0,0:0:0:0:
257,169,71858,1,2,3:0:0:0:
257,169,72005,6,0,L|346:156,1,90,0|2,3:0|0:3,0:0:0:0:
411,303,72297,1,8,0:3:0:0:
321,290,72443,1,0,3:0:0:0:
458,205,72590,1,8,0:3:0:0:
332,22,72736,1,2,0:3:0:0:
334,44,72809,1,2,0:0:0:0:
337,67,72883,2,0,L|343:111,1,45,2|0,3:0|0:0,0:0:0:0:
257,169,73029,2,0,L|263:124,1,45,8|0,0:3|0:0,0:0:0:0:
190,67,73175,6,0,P|152:56|76:73,1,90,4|2,0:0|0:3,0:0:0:0:
9,186,73468,1,4,3:2:0:0:
30,190,73541,1,0,3:0:0:0:
53,191,73614,1,8,0:3:0:0:
18,11,73761,1,8,0:3:0:0:
137,153,73907,1,8,0:0:0:0:
137,153,73980,1,8,0:0:0:0:
137,153,74053,1,8,0:0:0:0:
36,101,74200,1,8,0:0:0:0:
71,281,74346,6,0,P|103:288|146:278,1,45,2|0,3:0|0:0,0:0:0:0:
70,292,74492,2,0,P|102:290|141:269,1,45,2|0,0:3|0:0,0:0:0:0:
231,249,74639,2,0,P|199:242|156:252,1,45,8|0,0:3|0:0,0:0:0:0:
231,237,74785,2,0,P|198:238|159:259,1,45,2|0,0:3|0:0,0:0:0:0:
270,378,74931,1,8,0:3:0:0:
365,166,75078,1,2,3:0:0:0:
342,164,75151,1,8,0:3:0:0:
320,163,75224,1,8,0:3:0:0:
394,336,75370,2,0,L|438:333,1,45,2|0,3:0|0:0,0:0:0:0:
488,244,75517,6,0,B|443:226|391:240|405:247|353:261|309:244,1,180,12|8,0:0|0:3,0:0:0:0:
286,258,75883,1,0,0:0:0:0:
261,255,75956,1,0,3:0:0:0:
148,368,76102,1,2,3:0:0:0:
148,368,76248,2,0,P|182:327|191:278,1,90,0|8,3:0|0:3,0:0:0:0:
172,120,76541,6,0,P|196:159|200:203,1,90,2|0,3:3|0:0,0:0:0:0:
35,55,76834,2,0,L|127:46,1,90,0|8,3:0|0:3,0:0:0:0:
200,203,77127,1,8,0:3:0:0:
128,50,77273,2,0,L|39:59,1,90,8|0,0:0|0:0,0:0:0:0:
172,120,77566,2,0,P|195:103|185:-12,1,135,2|0,3:0|0:0,0:0:0:0:
177,125,77858,5,4,0:0:0:0:
177,125,78005,2,0,L|376:136,1,180,0|2,0:0|0:0,0:0:0:0:
374,121,78370,1,0,0:0:0:0:
396,122,78443,1,8,0:3:0:0:
370,313,78590,2,0,L|362:216,1,90,2|8,0:0|0:3,0:0:0:0:
482,37,78883,6,0,L|475:126,1,90,8|2,0:3|0:3,0:0:0:0:
362,223,79175,1,0,0:0:0:0:
479,130,79322,2,0,L|486:41,1,90,8|0,0:3|0:0,0:0:0:0:
268,176,79614,2,0,P|258:219|264:263,1,90,8|2,0:0|0:3,0:0:0:0:
496,232,79907,2,0,L|347:222,1,135,0|0,3:0|0:0,0:0:0:0:
496,232,80200,6,0,P|520:176|498:50,1,180,12|8,0:0|0:3,0:0:0:0:
432,8,80639,1,10,0:3:0:0:
230,101,80785,1,0,3:0:0:0:
230,101,80931,2,0,L|322:98,1,90,8|2,0:3|0:0,0:0:0:0:
136,54,81224,6,0,P|126:97|132:141,1,90,0|2,0:0|3:0,0:0:0:0:
370,255,81517,2,0,P|380:212|374:168,1,90,0|8,0:0|0:3,0:0:0:0:
132,141,81809,1,2,3:0:0:0:
377,171,81956,2,0,P|383:215|373:258,1,90,8|2,0:3|0:0,0:0:0:0:
254,155,82248,2,0,P|238:90|259:27,1,135,2|0,3:0|0:0,0:0:0:0:
254,155,82541,6,0,P|260:199|250:242,1,90,0|0,3:0|3:0,0:0:0:0:
138,307,82834,2,0,L|91:301,2,45,2|2|8,0:0|0:0|0:3,0:0:0:0:
317,361,83127,2,0,P|389:369|462:348,1,135,8|0,0:3|0:0,0:0:0:0:
317,361,83419,2,0,P|245:353|172:374,1,135,2|0,3:0|0:0,0:0:0:0:
317,361,83712,6,0,L|324:304,3,45,2|2|2|2,3:0|0:0|0:0|0:0,0:0:0:0:
393,266,84005,1,8,0:3:0:0:
266,250,84151,1,0,3:0:0:0:
463,215,84297,2,0,P|481:173|469:117,1,90,8|2,0:0|0:3,0:0:0:0:
209,182,84590,2,0,L|180:177,6,22.5,8|0|8|0|8|0|8,0:3|0:0|0:3|0:0|0:3|0:0|0:3,0:0:0:0:
213,187,84883,5,8,0:0:0:0:
484,138,85029,1,2,3:0:0:0:
488,142,85175,1,8,0:3:0:0:
277,64,85322,5,8,0:0:0:0:
484,138,85468,1,2,3:0:0:0:
488,142,85614,1,8,0:3:0:0:
371,4,85761,5,8,0:0:0:0:
382,23,85907,1,2,3:0:0:0:
397,65,86053,1,2,3:0:0:0:
395,155,86200,1,2,0:3:0:0:
316,263,86346,1,8,0:3:0:0:
136,276,86492,1,8,0:3:0:0:
49,20,86639,5,8,0:3:0:0:
136,276,86785,1,2,0:3:0:0:
216,18,86931,1,2,3:0:0:0:
0,180,87077,1,8,0:3:0:0:
270,176,87224,1,4,0:0:0:0:
256,192,103614,12,8,105370,0:3:0:0:
181,220,105663,5,8,0:3:0:0:
181,220,105736,1,8,0:3:0:0:
181,220,105809,1,10,0:3:0:0:
181,220,105883,1,2,3:3:0:0:
177,131,105956,6,0,L|182:234,1,90,4|0,0:0|0:0,0:0:0:0:
339,305,106248,2,0,L|334:215,1,90,8|0,0:0|0:0,0:0:0:0:
177,131,106541,2,0,P|124:122|81:140,1,90,2|0,3:0|3:0,0:0:0:0:
259,265,106834,1,8,0:0:0:0:
409,165,106980,6,0,P|418:112|400:69,1,90,6|0,0:0|0:0,0:0:0:0:
174,44,107273,2,0,P|164:87|176:130,1,90,0|0,3:0|0:0,0:0:0:0:
291,62,107566,1,0,0:0:0:0:
61,198,107712,6,0,L|71:322,1,90,2|0,0:0|0:0,0:0:0:0:
176,130,108005,1,8,0:0:0:0:
69,287,108151,1,0,0:0:0:0:
248,223,108297,6,0,P|290:210|334:220,1,90,4|0,0:0|0:0,0:0:0:0:
434,360,108590,2,0,P|391:372|347:362,1,90,8|0,0:0|0:0,0:0:0:0:
370,147,108883,1,2,3:0:0:0:
298,293,109029,1,2,3:0:0:0:
254,34,109175,1,8,0:0:0:0:
333,219,109322,6,0,L|446:227,1,90,4|0,0:0|0:0,0:0:0:0:
254,34,109614,2,0,L|164:40,1,90,0|8,3:0|0:0,0:0:0:0:
333,219,109907,2,0,L|535:233,1,180,2|0,3:0|3:0,0:0:0:0:
254,34,110346,1,8,0:0:0:0:
254,34,110419,1,8,0:0:0:0:
254,34,110492,1,10,0:0:0:0:
254,34,110566,1,2,0:3:0:0:
164,40,110639,6,0,L|254:34,1,90,4|0,0:0|0:0,0:0:0:0:
277,123,110931,1,8,0:0:0:0:
243,212,111078,1,2,0:0:0:0:
357,75,111224,1,0,3:0:0:0:
185,119,111370,1,0,3:0:0:0:
350,185,111517,1,8,0:0:0:0:
254,34,111663,6,0,L|164:40,1,90,4|0,0:0|0:0,0:0:0:0:
64,223,111956,2,0,L|154:217,1,90,2|0,3:0|0:0,0:0:0:0:
76,46,112248,1,2,3:0:0:0:
192,302,112395,2,0,P|235:310|278:297,1,90,2|0,0:0|0:0,0:0:0:0:
115,132,112687,1,8,0:0:0:0:
278,297,112834,1,2,0:0:0:0:
244,68,112980,5,4,0:0:0:0:
102,307,113127,2,0,P|49:316|6:298,1,90,0|0,0:0|0:0,0:0:0:0:
157,65,113419,2,0,P|210:56|253:74,1,90,2|2,0:0|3:0,0:0:0:0:
62,227,113712,2,0,P|53:174|71:131,1,90,0|8,3:0|0:0,0:0:0:0:
322,26,114005,1,6,0:0:0:0:
332,70,114078,1,8,0:2:0:0:
320,112,114151,5,10,0:3:0:0:
0,18,114297,1,0,3:0:0:0:
204,282,114444,1,8,0:0:0:0:
157,65,114590,1,2,3:0:0:0:
102,151,114736,1,6,0:0:0:0:
320,112,114883,1,10,0:0:0:0:
332,70,114956,1,8,0:3:0:0:
322,26,115029,5,8,0:0:0:0:
310,68,115102,1,8,0:0:0:0:
320,112,115175,1,10,0:0:0:0:
350,143,115249,1,2,3:3:0:0:
393,156,115322,5,6,0:0:0:0:
263,227,115468,1,2,0:0:0:0:
322,26,115614,1,10,0:0:0:0:
192,97,115761,2,0,P|176:55|188:-4,1,90,2|0,3:0|0:0,0:0:0:0:
293,127,116053,1,2,3:3:0:0:
180,11,116200,1,8,0:0:0:0:
86,224,116346,6,0,P|46:232|-10:214,1,90,6|0,0:0|0:0,0:0:0:0:
47,127,116639,1,2,3:3:0:0:
125,321,116785,1,10,0:0:0:0:
180,11,116931,2,0,L|82:5,1,90,2|0,3:0|0:0,0:0:0:0:
153,163,117224,1,2,3:3:0:0:
416,106,117370,2,0,P|425:63|412:14,1,90,10|0,0:0|0:0,0:0:0:0:
285,135,117663,5,6,0:0:0:0:
181,295,117809,1,2,0:0:0:0:
153,163,117956,1,10,0:0:0:0:
313,267,118102,2,0,P|332:309|325:364,1,90,2|0,3:0|0:0,0:0:0:0:
233,215,118395,1,2,3:3:0:0:
329,351,118541,1,8,0:0:0:0:
416,106,118687,6,0,P|425:63|412:14,1,90,6|0,0:0|0:0,0:0:0:0:
325,161,118980,1,2,3:3:0:0:
507,51,119127,1,10,0:0:0:0:
415,256,119273,2,0,P|407:307|425:361,1,90,2|0,3:0|0:0,0:0:0:0:
507,138,119566,1,2,3:3:0:0:
270,260,119712,2,0,L|165:251,1,90,10|0,0:0|0:0,0:0:0:0:
70,82,120005,5,6,0:0:0:0:
180,252,120151,1,2,0:0:0:0:
39,220,120297,1,10,0:0:0:0:
209,111,120444,2,0,P|227:63|219:21,1,90,2|0,3:0|0:0,0:0:0:0:
125,168,120736,1,2,3:3:0:0:
221,26,120882,1,8,0:0:0:0:
318,267,121029,6,0,L|307:364,1,90,6|0,0:0|0:0,0:0:0:0:
270,147,121322,1,2,3:3:0:0:
432,212,121468,1,10,0:0:0:0:
186,193,121614,2,0,P|172:138|198:78,1,90,2|0,3:0|0:0,0:0:0:0:
318,267,121907,1,2,3:3:0:0:
97,12,122053,2,0,L|213:2,1,90,10|0,0:0|0:0,0:0:0:0:
352,181,122346,5,14,0:0:0:0:
29,128,122492,2,0,P|13:82|18:19,1,90,12|8,0:0|3:3,0:0:0:0:
335,94,122785,2,0,P|351:140|346:203,1,90,2|2,3:0|0:0,0:0:0:0:
99,259,123078,1,10,0:3:0:0:
76,256,123151,1,2,0:3:0:0:
54,254,123224,1,8,0:3:0:0:
244,13,123370,6,0,L|427:8,1,180,12|2,0:0|0:3,0:0:0:0:
441,24,123736,1,2,0:0:0:0:
463,23,123809,1,8,0:3:0:0:
380,100,123956,1,2,0:3:0:0:
357,99,124029,1,2,0:0:0:0:
335,98,124102,1,8,0:0:0:0:
418,175,124248,1,2,3:0:0:0:
441,174,124321,1,8,0:3:0:0:
463,173,124394,1,8,0:3:0:0:
380,250,124541,6,0,L|288:247,1,90,6|0,0:0|0:0,0:0:0:0:
