osu file format v14

[General]
AudioFilename: audio.mp3
AudioLeadIn: 0
PreviewTime: 23858
Countdown: 0
SampleSet: Soft
StackLeniency: 0.4
Mode: 0
LetterboxInBreaks: 0
WidescreenStoryboard: 1

[Editor]
Bookmarks: 590,9956,19322,28687,38053,56785,66151,73175,75517,84883,87224,96590,105956,115322,124687
DistanceSpacing: 0.75
BeatDivisor: 4
GridSize: 4
TimelineZoom: 1.4

[Metadata]
Title:Cookie Bouquets
TitleUnicode:Cookie Bouquets
Artist:Dormir
ArtistUnicode:Dormir
Creator:dsco
Version:Finshie's Insane
Source:beatmania IIDX 15 DJ TROOPERS
Tags:tomosuke crimm petit march konami L.E.D. breakcore fanzhen0019 finshie sammish su1fu7 fanzhen sulfur bemani cs reflec beat limelight Vincent Bui Naoya Miyadai Ryousuke Takeuchi D.B.D
BeatmapID:1453417
BeatmapSetID:675125

[Difficulty]
HPDrainRate:6.2
CircleSize:4.2
OverallDifficulty:8.2
ApproachRate:9.2
SliderMultiplier:1.7
SliderTickRate:1

[Events]
//Background and Video events
0,0,"fuck.jpg",0,0
//Break Periods
2,87424,103044
//Storyboard Layer 0 (Background)
//Storyboard Layer 1 (Fail)
//Storyboard Layer 2 (Pass)
//Storyboard Layer 3 (Foreground)
//Storyboard Sound Samples

[TimingPoints]
590.427184466019,292.682926829268,4,2,0,60,1,0
38053,-125,4,2,0,60,0,0
47419,-111.111111111111,4,2,0,60,0,0
56785,-100,4,2,0,60,0,0
80200,-111.111111111111,4,2,0,60,0,0
84590,-66.6666666666667,4,2,0,60,0,0
84883,-100,4,2,0,60,0,0
103614,-100,4,2,0,30,0,0
105517,-100,4,2,0,60,0,0
105956,-100,4,2,0,60,0,1
124395,-100,4,2,0,60,0,0

[Colours]
Combo1 : 97,170,194
Combo2 : 253,215,239
Combo3 : 220,71,98
Combo4 : 210,234,242

[HitObjects]
28,120,19029,5,8,0:3:0:0:
69,122,19102,1,8,0:3:0:0:
108,106,19175,1,10,0:3:0:0:
134,73,19248,1,2,0:3:0:0:
145,31,19322,6,0,L|172:138,1,85,4|0,0:0|0:0,0:0:0:0:
294,223,19614,1,8,0:0:0:0:
191,215,19761,1,0,0:0:0:0:
319,121,19907,2,0,L|340:39,1,85,2|0,3:0|3:0,0:0:0:0:
165,113,20200,1,8,0:0:0:0:
301,230,20346,1,6,0:0:0:0:
301,230,20419,1,0,0:0:0:0:
301,230,20492,6,0,P|352:240|400:233,1,85,0|0,0:0|3:0,0:0:0:0:
185,321,20785,2,0,P|142:318|101:328,1,85,8|0,0:0|0:0,0:0:0:0:
72,348,21005,1,0,0:0:0:0:
72,348,21078,2,0,L|66:253,1,85,2|0,0:0|0:0,0:0:0:0:
46,59,21370,1,8,0:0:0:0:
56,161,21517,1,0,0:0:0:0:
223,110,21663,6,0,P|181:100|139:102,1,85,4|0,0:0|0:0,0:0:0:0:
318,143,21956,1,8,0:0:0:0:
318,143,22102,2,0,P|360:145|401:135,1,85,0|2,0:0|3:0,0:0:0:0:
490,86,22395,1,2,3:0:0:0:
401,238,22541,1,8,0:0:0:0:
490,86,22687,6,0,L|480:1,1,85,4|0,0:0|0:0,0:0:0:0:
401,238,22980,2,0,L|391:323,1,85,0|8,3:0|0:0,0:0:0:0:
490,86,23273,5,2,3:0:0:0:
318,143,23419,1,2,0:0:0:0:
490,86,23566,1,0,3:0:0:0:
318,143,23712,1,8,0:0:0:0:
275,141,23785,1,8,0:0:0:0:
233,139,23858,1,10,0:0:0:0:
190,138,23931,1,2,0:3:0:0:
148,136,24005,6,0,P|136:99|142:47,1,85,4|0,0:0|0:0,0:0:0:0:
210,220,24297,1,8,0:0:0:0:
210,220,24444,2,0,P|214:262|201:302,1,85,2|0,0:0|3:0,0:0:0:0:
116,358,24736,1,0,3:0:0:0:
311,271,24883,1,8,0:0:0:0:
148,136,25029,6,0,L|52:130,1,85,4|0,0:0|0:0,0:0:0:0:
238,51,25322,2,0,L|334:45,1,85,2|0,3:0|0:0,0:0:0:0:
468,123,25614,1,2,3:0:0:0:
468,123,25687,1,2,0:0:0:0:
468,123,25761,1,2,0:0:0:0:
322,45,25907,1,0,0:0:0:0:
396,195,26053,1,8,0:0:0:0:
423,30,26200,1,2,0:0:0:0:
304,145,26346,6,0,P|299:209|309:250,1,85,4|0,0:0|0:0,0:0:0:0:
449,342,26639,1,8,0:0:0:0:
449,342,26785,2,0,P|415:316|377:299,1,85,2|2,0:0|3:0,0:0:0:0:
205,369,27078,2,0,P|244:352|278:327,1,85,0|8,3:0|0:0,0:0:0:0:
304,145,27370,5,6,0:0:0:0:
297,186,27443,1,8,0:2:0:0:
302,229,27516,1,10,0:3:0:0:
377,299,27662,1,0,3:0:0:0:
203,257,27809,1,8,0:0:0:0:
377,299,27956,2,0,L|479:291,1,85,2|6,3:0|0:0,0:0:0:0:
203,257,28248,5,10,0:0:0:0:
160,253,28321,1,2,0:3:0:0:
118,250,28394,1,8,0:0:0:0:
75,247,28467,1,8,0:0:0:0:
33,243,28540,1,10,0:0:0:0:
193,51,28687,5,6,0:0:0:0:
198,154,28834,1,2,0:0:0:0:
203,257,28980,1,10,0:0:0:0:
110,106,29127,2,0,P|43:86|2:89,1,85,2|0,3:0|0:0,0:0:0:0:
286,202,29419,2,0,P|328:197|367:181,1,85,2|8,3:3|0:0,0:0:0:0:
468,68,29712,6,0,L|453:262,1,170,6|2,0:0|3:3,0:0:0:0:
449,342,30151,1,10,0:0:0:0:
374,96,30297,2,0,L|359:290,1,170,2|2,3:0|3:3,0:0:0:0:
355,370,30663,1,0,0:3:0:0:
355,370,30736,1,10,0:0:0:0:
31,233,31029,5,6,0:0:0:0:
130,211,31175,1,2,0:0:0:0:
229,189,31322,1,10,0:0:0:0:
62,137,31468,2,0,L|44:16,1,85,2|0,3:0|0:0,0:0:0:0:
198,284,31761,2,0,L|185:368,1,85,2|8,3:3|0:0,0:0:0:0:
130,211,32053,6,0,P|235:191|294:255,1,170,6|2,0:0|3:3,0:0:0:0:
343,305,32492,1,10,0:0:0:0:
130,211,32639,2,0,P|190:122|277:126,1,170,2|2,3:0|3:3,0:0:0:0:
347,126,33078,1,10,0:0:0:0:
504,326,33370,5,6,0:0:0:0:
403,314,33517,1,2,0:0:0:0:
302,302,33663,1,10,0:0:0:0:
465,234,33809,2,0,P|480:160|474:136,1,85,2|0,3:0|0:0,0:0:0:0:
302,302,34102,2,0,P|301:344|315:383,1,85,2|8,3:3|0:0,0:0:0:0:
360,211,34395,6,0,L|160:193,1,170,6|2,0:0|3:3,0:0:0:0:
89,186,34834,1,10,0:0:0:0:
317,120,34980,2,0,L|117:102,1,170,2|2,3:0|3:3,0:0:0:0:
46,95,35346,1,0,0:3:0:0:
46,95,35419,2,0,P|43:34|53:-4,1,85,10|0,0:0|0:0,0:0:0:0:
190,195,35712,6,0,L|188:259,1,42.5,4|0,0:0|0:0,0:0:0:0:
0,250,35858,2,0,P|37:232|80:231,1,85,4|8,0:0|0:3,0:0:0:0:
210,337,36151,2,0,P|168:336|130:319,1,85,6|8,0:0|0:3,0:0:0:0:
286,184,36444,2,0,L|284:269,1,85,2|0,0:3|0:0,0:0:0:0:
203,99,36736,6,0,P|300:74|387:118,1,170,6|2,0:0|3:0,0:0:0:0:
450,150,37175,1,8,0:0:0:0:
287,226,37322,2,0,L|286:184,2,42.5,2|0|8,3:0|0:0|0:0,0:0:0:0:
450,252,37614,2,0,L|448:294,1,42.5,2|2,3:3|3:3,0:0:0:0:
210,269,37761,5,8,0:0:0:0:
208,226,37834,1,8,0:0:0:0:
206,184,37907,1,10,0:3:0:0:
205,141,37980,1,0,3:3:0:0:
203,99,38053,1,4,0:0:0:0:
128,226,38200,6,0,L|41:219,1,68,0|0,0:0|0:0,0:0:0:0:
287,226,38492,1,0,3:0:0:0:
132,311,38639,2,0,L|93:308,2,34,2|0|8,0:0|0:0|0:3,0:0:0:0:
287,226,38931,2,0,L|323:222,2,34,2|2|2,0:0|0:0|3:3,0:0:0:0:
406,215,39224,5,0,3:0:0:0:
210,268,39370,2,0,P|201:218|215:176,1,68,2|8,0:0|0:3,0:0:0:0:
425,298,39663,2,0,P|427:331|418:364,1,68,8|2,0:3|0:0,0:0:0:0:
291,333,39956,2,0,P|307:327|324:324,2,34,2|0|8,0:3|0:0|0:3,0:0:0:0:
418,364,40248,1,2,3:0:0:0:
210,268,40395,6,0,L|120:258,1,68,0|0,3:0|0:0,0:0:0:0:
18,187,40687,1,8,0:3:0:0:
18,187,40834,2,0,L|108:177,1,68,0|2,0:0|0:0,0:0:0:0:
210,106,41127,2,0,L|120:96,1,68,8|2,0:3|0:0,0:0:0:0:
119,83,41346,1,0,0:0:0:0:
95,67,41419,2,0,L|27:74,1,68,2|0,0:3|3:0,0:0:0:0:
85,179,41712,5,0,3:0:0:0:
142,260,41858,1,0,3:0:0:0:
85,179,42005,1,0,3:0:0:0:
142,260,42151,2,0,P|180:269|209:267,1,68,8|2,0:3|0:0,0:0:0:0:
315,334,42370,1,2,0:0:0:0:
315,334,42444,2,0,P|284:333|254:340,2,34,8|8|2,0:3|0:3|3:0,0:0:0:0:
435,361,42736,6,0,P|422:317|429:273,1,68,8|0,0:3|0:0,0:0:0:0:
499,165,43029,2,0,P|467:198|425:214,1,68,8|0,0:3|3:0,0:0:0:0:
296,207,43322,2,0,P|326:212|353:227,2,34,2|0|0,0:0|0:0|0:0,0:0:0:0:
195,198,43614,1,2,0:0:0:0:
313,109,43761,6,0,L|306:27,1,68,2|0,3:0|3:0,0:0:0:0:
195,198,44053,2,0,L|189:265,1,68,2|8,0:0|0:3,0:0:0:0:
282,373,44346,2,0,P|204:339|135:368,1,136,8|2,0:3|0:3,0:0:0:0:
134,365,44712,1,0,0:0:0:0:
115,384,44785,2,0,L|32:373,1,68,8|2,0:3|3:0,0:0:0:0:
195,198,45078,6,0,L|262:189,1,68,0|2,3:0|0:0,0:0:0:0:
390,112,45370,1,8,0:3:0:0:
323,104,45517,2,0,L|390:112,1,68,2|2,0:0|3:0,0:0:0:0:
221,94,45809,2,0,P|211:52|214:20,1,68,0|2,0:0|0:0,0:0:0:0:
417,212,46102,2,0,P|417:245|408:278,1,68,2|8,0:3|0:3,0:0:0:0:
248,236,46395,5,0,3:0:0:0:
248,236,46541,2,0,L|316:231,1,68,8|0,0:3|3:0,0:0:0:0:
156,145,46834,2,0,L|224:151,1,68,8|2,0:3|0:0,0:0:0:0:
205,63,47053,1,2,0:0:0:0:
205,63,47127,2,0,L|137:57,1,68,8|8,0:3|0:3,0:0:0:0:
114,42,47346,1,8,0:3:0:0:
90,26,47419,6,0,L|8:32,1,76.4999976654053,4|0,0:0|0:0,0:0:0:0:
295,70,47712,1,8,0:3:0:0:
295,70,47858,2,0,L|377:76,1,76.4999976654053,0|2,3:0|0:0,0:0:0:0:
471,39,48151,1,8,0:3:0:0:
471,39,48224,1,2,0:3:0:0:
471,39,48297,1,2,0:0:0:0:
329,157,48444,6,0,P|324:204|336:236,1,76.4999976654053,2|0,0:0|3:0,0:0:0:0:
392,305,48736,1,2,0:0:0:0:
235,203,48883,1,8,0:3:0:0:
392,305,49029,2,0,L|487:297,1,76.4999976654053,8|2,0:3|0:0,0:0:0:0:
322,371,49322,2,0,L|265:366,2,38.2499988327027,8|0|8,0:3|0:0|0:3,0:0:0:0:
138,305,49614,1,2,0:0:0:0:
138,305,49687,1,0,0:0:0:0:
138,305,49761,6,0,P|175:295|213:301,1,76.4999976654053,2|0,3:0|0:0,0:0:0:0:
75,226,50053,1,8,0:3:0:0:
75,226,50200,2,0,P|38:235|0:230,1,76.4999976654053,0|0,3:0|0:0,0:0:0:0:
37,62,50492,2,0,L|33:139,1,76.4999976654053,8|2,0:3|0:0,0:0:0:0:
139,44,50785,1,2,0:3:0:0:
139,44,50858,1,0,0:0:0:0:
139,44,50931,6,0,L|216:40,1,76.4999976654053,0|0,3:0|3:0,0:0:0:0:
330,34,51224,1,0,3:0:0:0:
330,34,51370,1,0,3:0:0:0:
190,142,51517,1,8,0:3:0:0:
385,124,51663,5,2,0:0:0:0:
389,140,51736,1,2,0:0:0:0:
391,157,51809,1,8,0:3:0:0:
391,174,51882,1,0,0:0:0:0:
389,191,51955,1,2,3:0:0:0:
330,34,52102,6,0,L|407:30,1,76.4999976654053,0|2,3:0|0:0,0:0:0:0:
266,145,52395,1,8,0:3:0:0:
266,145,52541,2,0,L|189:141,1,76.4999976654053,0|0,3:0|0:0,0:0:0:0:
330,34,52834,2,0,L|407:30,1,76.4999976654053,8|2,3:3|0:0,0:0:0:0:
436,33,53053,1,2,0:0:0:0:
436,33,53126,1,2,0:3:0:0:
389,191,53273,6,0,P|376:154|375:116,1,76.4999976654053,0|2,3:0|3:0,0:0:0:0:
432,272,53566,1,8,0:3:0:0:
432,272,53712,2,0,P|431:310|418:346,1,76.4999976654053,8|2,0:3|0:0,0:0:0:0:
254,298,54005,1,2,3:0:0:0:
254,298,54151,2,0,L|330:291,1,76.4999976654053,8|2,0:3|0:3,0:0:0:0:
300,206,54370,1,0,0:0:0:0:
300,206,54444,6,0,L|223:212,1,76.4999976654053,0|0,3:0|0:0,0:0:0:0:
81,269,54736,1,8,0:3:0:0:
81,269,54883,2,0,L|157:275,1,76.4999976654053,0|2,0:0|0:0,0:0:0:0:
4,203,55175,1,8,0:3:0:0:
113,369,55322,1,8,0:3:0:0:
113,369,55395,1,2,0:0:0:0:
113,369,55468,1,2,0:3:0:0:
3,203,55614,6,0,P|0:160|6:126,1,76.4999976654053,2|2,3:0|0:3,0:0:0:0:
21,100,55834,1,0,0:0:0:0:
21,100,55907,1,8,0:3:0:0:
128,0,56053,2,0,P|133:37|130:75,1,76.4999976654053,2|8,3:0|0:3,0:0:0:0:
3,203,56346,1,0,3:0:0:0:
130,75,56492,2,0,P|216:67|258:82,1,114.749996498108,8|0,0:0|3:0,0:0:0:0:
271,92,56785,5,12,0:0:0:0:
367,125,56931,1,2,3:0:0:0:
457,81,57078,1,8,0:3:0:0:
508,216,57224,2,0,P|507:259|491:298,1,85,2|0,3:0|0:0,0:0:0:0:
331,369,57517,2,0,P|365:343|387:307,1,85,2|8,3:0|0:3,0:0:0:0:
238,325,57809,2,0,P|201:345|159:351,1,85,4|8,3:2|0:3,0:0:0:0:
57,339,58102,5,2,0:3:0:0:
57,339,58248,1,8,0:3:0:0:
132,215,58395,2,0,P|137:168|122:102,1,85,2|8,3:0|0:3,0:0:0:0:
206,0,58687,1,2,0:0:0:0:
206,0,58834,2,0,P|201:47|216:113,1,85,2|8,3:0|0:3,0:0:0:0:
472,133,59127,5,12,0:2:0:0:
381,92,59273,1,2,3:0:0:0:
286,126,59419,1,8,0:3:0:0:
278,311,59566,2,0,P|320:312|361:301,1,85,2|0,3:0|0:0,0:0:0:0:
244,216,59858,2,0,P|203:205|160:206,1,85,2|0,3:0|0:0,0:0:0:0:
286,126,60151,2,0,P|328:126|369:115,1,85,4|8,3:2|0:3,0:0:0:0:
455,60,60444,5,2,0:3:0:0:
455,60,60590,1,8,0:3:0:0:
451,210,60736,2,0,L|448:308,1,85,2|8,3:0|0:3,0:0:0:0:
450,329,60956,1,8,0:3:0:0:
450,329,61029,1,2,0:3:0:0:
277,302,61175,2,0,P|350:298|384:311,1,85,2|8,3:0|0:3,0:0:0:0:
194,366,61468,5,12,0:0:0:0:
180,262,61614,1,2,3:0:0:0:
166,158,61761,1,8,0:3:0:0:
84,272,61907,2,0,L|0:275,1,85,2|0,3:0|0:0,0:0:0:0:
81,155,62200,2,0,L|165:158,1,85,2|8,3:0|0:3,0:0:0:0:
84,36,62492,2,0,L|0:39,1,85,4|8,3:2|0:3,0:0:0:0:
85,157,62785,5,2,0:3:0:0:
85,157,62931,1,8,0:3:0:0:
240,84,63078,2,0,P|247:18|241:-23,1,85,2|8,3:0|0:3,0:0:0:0:
311,161,63370,1,2,0:0:0:0:
311,161,63517,2,0,P|309:203|316:245,1,85,2|8,3:0|0:3,0:0:0:0:
485,384,63809,5,12,0:3:0:0:
398,328,63956,1,2,3:0:0:0:
296,349,64102,1,2,3:0:0:0:
209,293,64248,1,8,0:3:0:0:
209,293,64322,1,0,0:0:0:0:
209,293,64395,2,0,P|144:286|115:295,1,85,8|8,0:3|0:0,0:0:0:0:
95,306,64614,1,8,0:0:0:0:
95,306,64687,1,8,0:0:0:0:
200,188,64834,6,0,L|193:90,1,85,12|0,0:0|3:0,0:0:0:0:
185,1,65127,1,2,0:3:0:0:
185,1,65273,1,8,0:3:0:0:
285,149,65419,2,0,L|369:143,1,85,2|8,0:3|0:3,0:0:0:0:
100,58,65712,1,2,3:0:0:0:
100,58,65785,1,2,0:0:0:0:
100,58,65858,1,8,0:3:0:0:
285,149,66005,6,0,P|298:213|289:250,1,85,4|12,0:0|0:3,0:0:0:0:
350,379,66297,2,0,P|347:336|360:296,1,85,2|8,3:0|0:3,0:0:0:0:
495,208,66590,1,2,3:0:0:0:
371,67,66736,1,0,3:0:0:0:
393,199,66883,1,8,0:3:0:0:
473,76,67029,1,2,0:0:0:0:
285,149,67175,2,0,L|200:140,1,85,4|0,0:0|3:0,0:0:0:0:
98,127,67468,5,0,0:0:0:0:
205,245,67614,1,8,0:3:0:0:
195,35,67760,1,8,0:3:0:0:
205,245,67907,2,0,L|207:329,1,85,8|2,0:3|0:0,0:0:0:0:
105,316,68127,1,2,0:0:0:0:
105,316,68200,2,0,L|103:232,1,85,2|8,3:0|0:3,0:0:0:0:
12,98,68492,6,0,P|91:128|175:120,1,170,4|4,0:0|3:2,0:0:0:0:
175,120,68858,1,0,3:0:0:0:
175,120,68931,1,8,0:3:0:0:
364,32,69078,1,8,0:3:0:0:
372,219,69224,1,8,0:0:0:0:
372,219,69297,1,8,0:0:0:0:
372,219,69370,1,8,0:0:0:0:
364,32,69517,2,0,L|364:117,1,85,8|2,0:0|3:0,0:0:0:0:
458,76,69809,5,2,0:3:0:0:
270,73,69956,2,0,L|270:158,1,85,8|2,0:3|0:3,0:0:0:0:
92,230,70248,1,8,0:3:0:0:
183,180,70395,1,2,3:0:0:0:
259,250,70541,1,8,0:3:0:0:
214,344,70687,1,2,3:0:0:0:
111,331,70834,6,0,P|67:323|15:333,1,85,4|8,0:0|0:3,0:0:0:0:
214,344,71127,1,2,3:0:0:0:
92,230,71273,1,2,3:0:0:0:
183,180,71419,1,2,0:3:0:0:
111,331,71566,2,0,P|69:336|27:328,1,85,8|2,0:3|0:0,0:0:0:0:
259,250,71858,2,0,P|300:242|342:247,1,85,2|0,3:0|3:0,0:0:0:0:
438,283,72151,5,2,0:3:0:0:
436,113,72297,2,0,L|435:22,1,85,8|0,0:3|3:0,0:0:0:0:
437,198,72590,2,0,L|437:282,1,85,8|2,0:3|0:3,0:0:0:0:
441,316,72809,1,2,0:0:0:0:
441,316,72883,1,2,3:0:0:0:
436,113,73029,1,8,0:3:0:0:
342,247,73175,6,0,P|254:256|173:227,1,170,4|4,0:0|3:2,0:0:0:0:
178,230,73541,1,0,3:0:0:0:
178,230,73614,1,8,0:3:0:0:
33,126,73761,1,8,0:3:0:0:
51,316,73907,1,8,0:0:0:0:
51,316,73981,1,0,0:0:0:0:
51,316,74054,1,8,0:0:0:0:
33,126,74200,2,0,L|40:211,1,85,8|0,0:0|0:0,0:0:0:0:
51,316,74492,5,2,0:3:0:0:
171,145,74639,2,0,L|178:230,1,85,8|2,0:3|0:3,0:0:0:0:
51,316,74931,2,0,P|112:308|165:330,1,85,8|2,0:3|3:0,0:0:0:0:
182,233,75151,1,8,0:3:0:0:
182,233,75224,2,0,P|223:242|265:235,1,85,8|2,0:3|3:0,0:0:0:0:
433,146,75517,6,0,L|422:340,1,170,12|8,0:0|0:3,0:0:0:0:
349,191,75955,2,0,L|342:305,1,85,0|2,3:0|3:0,0:0:0:0:
264,235,76248,2,0,L|257:349,1,85,0|8,3:0|0:3,0:0:0:0:
179,279,76541,1,2,3:3:0:0:
423,315,76834,1,0,3:0:0:0:
179,279,77127,1,8,0:3:0:0:
179,279,77273,2,0,L|82:265,1,85,8|0,0:0|0:0,0:0:0:0:
0,122,77566,2,0,L|84:134,1,85,2|8,3:0|0:3,0:0:0:0:
200,31,77858,5,4,0:0:0:0:
200,30,78005,2,0,P|182:69|180:111,1,85,0|2,0:0|3:0,0:0:0:0:
342,150,78297,1,2,0:0:0:0:
342,150,78444,2,0,P|317:115|282:92,1,85,8|2,0:3|0:0,0:0:0:0:
246,189,78736,1,8,0:3:0:0:
254,274,78883,6,0,L|244:165,1,85,8|2,0:3|0:3,0:0:0:0:
365,325,79175,2,0,L|357:240,1,85,0|8,0:0|0:3,0:0:0:0:
476,376,79468,2,0,L|458:181,1,170,0|2,0:0|0:3,0:0:0:0:
448,104,79907,1,0,3:0:0:0:
448,104,80200,6,0,P|378:125|283:104,1,152.999995330811,12|8,0:0|0:3,0:0:0:0:
134,210,80639,2,0,P|182:196|232:204,1,76.4999976654053,10|0,0:3|3:0,0:0:0:0:
312,264,80931,2,0,L|298:80,1,152.999995330811,8|0,0:3|0:0,0:0:0:0:
196,45,81370,5,2,3:0:0:0:
196,45,81517,2,0,L|207:197,1,152.999995330811,0|2,0:0|3:0,0:0:0:0:
116,280,81956,2,0,L|101:96,1,152.999995330811,8|2,0:3|3:0,0:0:0:0:
53,359,82541,6,0,P|148:369|214:319,1,152.999995330811,0|2,3:0|0:0,0:0:0:0:
277,382,82980,2,0,P|345:350|419:364,1,152.999995330811,8|0,0:3|0:0,0:0:0:0:
511,384,83419,6,0,L|503:197,1,152.999995330811,2|2,3:0|3:0,0:0:0:0:
419,364,83858,2,0,L|411:177,1,152.999995330811,2|0,0:0|3:0,0:0:0:0:
316,114,84297,2,0,L|320:191,1,76.4999976654053,8|2,0:0|0:3,0:0:0:0:
325,304,84590,6,0,L|322:248,6,31.8750012159348,8|0|8|0|8|0|8,0:3|0:0|0:3|0:0|0:3|0:0|0:3,0:0:0:0:
320,191,84883,5,8,0:0:0:0:
223,223,85029,1,2,3:0:0:0:
124,199,85175,1,8,0:3:0:0:
316,114,85322,5,8,0:0:0:0:
413,82,85468,1,2,3:0:0:0:
512,106,85614,1,8,0:3:0:0:
223,223,85761,6,0,L|224:30,1,170,8|2,0:0|3:0,0:0:0:0:
316,114,86200,1,2,0:3:0:0:
124,199,86346,1,8,0:3:0:0:
316,114,86492,1,8,0:3:0:0:
124,199,86639,5,8,0:3:0:0:
288,240,86785,1,2,0:3:0:0:
141,282,86931,1,2,3:0:0:0:
271,323,87078,1,8,0:3:0:0:
158,365,87224,1,4,0:0:0:0:
256,192,103614,12,8,105370,0:3:0:0:
139,208,105663,5,8,0:3:0:0:
122,168,105736,1,8,0:3:0:0:
119,126,105809,1,10,0:3:0:0:
127,85,105882,1,2,3:3:0:0:
149,49,105956,6,0,L|255:53,1,85,4|0,0:0|0:0,0:0:0:0:
380,137,106248,1,8,0:0:0:0:
277,137,106395,1,0,0:0:0:0:
423,52,106541,2,0,L|507:48,1,85,2|0,3:0|3:0,0:0:0:0:
329,8,106834,1,8,0:0:0:0:
480,139,106980,1,6,0:0:0:0:
480,139,107053,1,0,0:0:0:0:
480,139,107127,6,0,P|488:198|470:252,1,85,0|0,0:0|0:0,0:0:0:0:
282,291,107419,2,0,P|276:249|285:207,1,85,8|0,0:0|0:0,0:0:0:0:
309,183,107639,1,0,0:0:0:0:
309,183,107712,2,0,L|393:183,1,85,2|0,0:0|0:0,0:0:0:0:
181,181,108005,1,8,0:0:0:0:
78,179,108151,1,0,0:0:0:0:
122,345,108297,6,0,P|132:304|128:261,1,85,4|0,0:0|0:0,0:0:0:0:
188,99,108590,1,8,0:0:0:0:
188,99,108736,2,0,P|177:139|181:182,1,85,0|2,0:0|3:0,0:0:0:0:
232,272,109029,1,2,3:0:0:0:
78,179,109175,1,8,0:0:0:0:
232,272,109322,6,0,L|348:260,1,85,4|0,0:0|0:0,0:0:0:0:
78,179,109614,2,0,L|-16:169,1,85,0|8,3:0|0:0,0:0:0:0:
188,99,109907,5,2,3:0:0:0:
232,272,110053,1,2,0:0:0:0:
188,99,110200,1,0,3:0:0:0:
232,272,110346,1,8,0:0:0:0:
274,267,110419,1,8,0:0:0:0:
316,263,110492,1,10,0:0:0:0:
358,258,110565,1,2,0:3:0:0:
401,254,110639,6,0,P|410:304|401:358,1,85,4|0,0:0|0:0,0:0:0:0:
370,155,110931,1,8,0:0:0:0:
370,155,111078,2,0,P|367:112|375:71,1,85,2|0,0:0|3:0,0:0:0:0:
447,0,111370,1,0,3:0:0:0:
278,107,111517,1,8,0:0:0:0:
401,254,111663,6,0,L|518:242,1,85,4|0,0:0|0:0,0:0:0:0:
313,309,111956,2,0,L|196:297,1,85,2|0,3:0|0:0,0:0:0:0:
68,338,112248,1,2,3:0:0:0:
68,338,112322,1,0,0:0:0:0:
68,338,112395,1,2,0:0:0:0:
228,300,112541,1,0,0:0:0:0:
76,236,112687,1,8,0:0:0:0:
162,378,112834,1,2,0:0:0:0:
177,213,112980,6,0,P|175:139|156:100,1,85,4|0,0:0|0:0,0:0:0:0:
41,4,113273,1,8,0:0:0:0:
41,4,113419,2,0,P|76:29|117:42,1,85,2|2,0:0|3:0,0:0:0:0:
303,0,113712,2,0,P|265:17|234:46,1,85,0|8,3:0|0:0,0:0:0:0:
177,213,114005,5,6,0:0:0:0:
180,170,114078,1,8,0:2:0:0:
171,129,114151,1,10,0:3:0:0:
117,42,114297,1,0,3:0:0:0:
276,142,114444,1,8,0:0:0:0:
117,42,114590,2,0,L|8:35,1,85,2|6,3:0|0:0,0:0:0:0:
276,142,114883,1,10,0:0:0:0:
318,139,114956,1,8,0:3:0:0:
360,136,115029,1,8,0:0:0:0:
403,133,115102,1,8,0:0:0:0:
445,131,115175,1,10,0:0:0:0:
223,325,115322,5,6,0:0:0:0:
197,227,115468,1,2,0:0:0:0:
171,129,115614,1,10,0:0:0:0:
122,300,115761,2,0,P|65:308|30:299,1,85,2|0,3:0|0:0,0:0:0:0:
276,142,116053,2,0,P|333:134|368:143,1,85,2|8,3:3|0:0,0:0:0:0:
452,313,116346,6,0,L|457:139,1,170,6|2,0:0|3:3,0:0:0:0:
460,41,116785,1,10,0:0:0:0:
356,272,116931,2,0,L|361:98,1,170,2|2,3:0|3:3,0:0:0:0:
364,0,117297,1,0,0:3:0:0:
364,0,117370,1,10,0:0:0:0:
25,154,117663,5,6,0:0:0:0:
124,176,117809,1,2,0:0:0:0:
223,198,117956,1,10,0:0:0:0:
56,250,118102,2,0,L|38:371,1,85,2|0,3:0|0:0,0:0:0:0:
192,103,118395,2,0,L|179:19,1,85,2|8,3:3|0:0,0:0:0:0:
124,176,118687,6,0,P|229:196|288:132,1,170,6|2,0:0|3:3,0:0:0:0:
337,82,119126,1,10,0:0:0:0:
124,176,119273,2,0,P|184:265|271:261,1,170,2|2,3:0|3:3,0:0:0:0:
341,261,119712,1,10,0:0:0:0:
512,35,120005,5,6,0:0:0:0:
413,42,120151,1,2,0:0:0:0:
314,49,120297,1,10,0:0:0:0:
469,131,120444,2,0,P|472:175|456:229,1,85,2|0,3:0|0:0,0:0:0:0:
221,99,120736,2,0,P|211:57|215:15,1,85,2|8,3:3|0:0,0:0:0:0:
469,131,121029,6,0,L|280:139,1,170,6|2,0:0|3:3,0:0:0:0:
204,228,121468,1,10,0:0:0:0:
463,214,121614,2,0,L|274:222,1,170,2|2,3:0|3:3,0:0:0:0:
198,311,122053,2,0,L|299:306,1,85,10|0,0:0|0:0,0:0:0:0:
463,214,122346,5,14,0:0:0:0:
197,145,122492,2,0,P|192:187|203:227,1,85,12|8,0:0|3:3,0:0:0:0:
366,384,122785,2,0,P|377:343|372:301,1,85,2|2,3:0|0:0,0:0:0:0:
203,227,123078,2,0,L|131:223,2,42.5,10|2|8,0:3|0:3|0:3,0:0:0:0:
372,301,123370,2,0,L|474:296,1,85,12|2,0:0|3:0,0:0:0:0:
494,125,123663,5,2,0:3:0:0:
494,125,123736,1,2,0:0:0:0:
494,125,123809,2,0,L|409:129,1,85,8|2,0:3|0:3,0:0:0:0:
337,176,124029,1,2,0:0:0:0:
337,176,124102,2,0,L|252:171,1,85,8|2,0:0|3:0,0:0:0:0:
170,122,124322,1,8,0:3:0:0:
170,122,124395,2,0,L|173:199,1,42.5,8|0,0:3|0:0,0:0:0:0:
179,376,124541,6,0,L|175:264,1,85,6|0,0:0|0:0,0:0:0:0:
