osu file format v14

[General]
AudioFilename: audio.mp3
AudioLeadIn: 0
PreviewTime: 23858
Countdown: 0
SampleSet: Soft
StackLeniency: 0
Mode: 0
LetterboxInBreaks: 0
WidescreenStoryboard: 1

[Editor]
DistanceSpacing: 0.2
BeatDivisor: 4
GridSize: 4
TimelineZoom: 1.9

[Metadata]
Title:Cookie Bouquets
TitleUnicode:Cookie Bouquets
Artist:Dormir
ArtistUnicode:Dormir
Creator:dsco
Version:Fanzhen's Extra
Source:beatmania IIDX 15 DJ TROOPERS
Tags:tomosuke crimm petit march konami L.E.D. breakcore fanzhen0019 finshie sammish su1fu7 fanzhen sulfur bemani cs reflec beat limelight Vincent Bui Naoya Miyadai Ryousuke Takeuchi D.B.D
BeatmapID:1453416
BeatmapSetID:675125

[Difficulty]
HPDrainRate:5
CircleSize:5
OverallDifficulty:8.9
ApproachRate:9.3
SliderMultiplier:1.6
SliderTickRate:1

[Events]
//Background and Video events
0,0,"fuck.jpg",0,0
//Break Periods
//Storyboard Layer 0 (Background)
//Storyboard Layer 1 (Fail)
//Storyboard Layer 2 (Pass)
//Storyboard Layer 3 (Foreground)
//Storyboard Sound Samples

[TimingPoints]
590.427184466019,292.682926829268,4,2,0,60,1,0
56785,-100,4,2,0,60,0,0
105956,-100,4,2,0,60,0,1
124395,-100,4,2,0,60,0,0

[Colours]
Combo1 : 97,170,194
Combo2 : 253,215,239
Combo3 : 220,71,98
Combo4 : 210,234,242

[HitObjects]
32,244,444,5,2,0:0:0:0:
148,312,590,2,0,B|100:376|100:376|76:292,1,160,2|0,0:0|0:0,0:0:0:0:
212,272,1029,1,2,0:0:0:0:
256,336,1175,1,2,0:0:0:0:
256,64,1468,5,2,0:0:0:0:
180,36,1614,1,2,0:0:0:0:
328,92,1907,1,2,0:0:0:0:
216,212,2200,1,2,0:0:0:0:
256,364,2492,1,0,0:0:0:0:
256,364,2931,5,2,0:0:0:0:
296,212,3223,1,0,0:0:0:0:
184,92,3516,1,2,0:0:0:0:
332,36,3809,1,2,0:0:0:0:
256,64,3955,5,2,0:0:0:0:
256,336,4248,1,2,0:0:0:0:
300,272,4394,1,2,0:0:0:0:
433,299,4541,2,0,B|412:376|412:376|364:312,1,160,2|2,0:0|0:0,0:0:0:0:
480,244,4979,1,0,0:0:0:0:
480,244,5273,6,0,P|456:188|344:188,1,160,2|2,0:0|0:0,0:0:0:0:
400,244,5712,1,0,0:0:0:0:
256,300,5858,2,0,L|348:292,1,80,2|0,0:0|0:0,0:0:0:0:
196,180,6151,1,2,0:0:0:0:
116,192,6297,6,0,L|28:204,1,80,2|0,0:0|0:0,0:0:0:0:
0,140,6590,1,2,0:0:0:0:
132,88,6883,1,2,0:0:0:0:
256,40,7175,1,0,0:0:0:0:
256,40,7614,5,2,0:0:0:0:
380,88,7906,1,2,0:0:0:0:
512,140,8199,1,0,0:0:0:0:
475,202,8346,2,0,L|396:192,1,80,0|2,0:0|0:0,0:0:0:0:
316,180,8638,5,2,0:0:0:0:
176,293,8785,2,0,L|256:300,1,80,0|2,0:0|0:0,0:0:0:0:
112,244,9077,1,2,0:0:0:0:
146,172,9224,2,0,P|69:177|32:244,1,160,2|2,0:0|0:0,0:0:0:0:
76,384,9663,2,0,L|72:300,1,80,2|8,0:3|0:3,0:0:0:0:
149,178,9956,5,6,0:0:0:0:
68,164,10102,1,2,0:0:0:0:
120,104,10248,2,0,L|116:20,1,80,0|2,3:0|3:0,0:0:0:0:
312,40,10541,2,0,P|275:108|199:124,1,160,8|2,0:3|0:3,0:0:0:0:
328,192,10980,2,0,L|424:208,1,80,2|0,0:0|0:0,0:0:0:0:
488,220,11273,1,2,0:0:0:0:
396,352,11566,1,0,0:0:0:0:
256,272,11858,2,0,L|256:184,1,80,0|2,0:0|0:3,0:0:0:0:
256,192,12297,6,0,L|256:272,1,80,2|2,3:0|3:3,0:0:0:0:
116,352,12589,1,2,0:0:0:0:
24,220,12882,1,8,0:3:0:0:
105,205,13029,2,0,L|184:192,1,80,0|2,0:0|0:0,0:0:0:0:
312,124,13322,2,0,P|236:108|200:40,1,160,10|10,0:3|0:3,0:0:0:0:
395,24,13761,2,0,L|392:104,1,80,2|0,0:0|0:0,0:0:0:0:
444,164,14053,1,8,0:3:0:0:
363,178,14199,1,2,3:0:0:0:
439,304,14346,2,0,L|436:384,1,80,0|8,0:0|0:3,0:0:0:0:
480,236,14639,5,6,0:0:0:0:
284,296,14785,1,0,0:0:0:0:
439,304,14931,2,0,L|359:300,1,80,2|2,3:0|3:0,0:0:0:0:
192,156,15224,5,8,0:3:0:0:
112,168,15370,1,2,0:0:0:0:
40,132,15517,1,0,0:0:0:0:
112,168,15663,1,10,0:3:0:0:
192,156,15809,6,0,L|184:72,1,80,0|2,0:0|0:0,0:0:0:0:
256,36,16102,1,0,3:0:0:0:
327,76,16248,2,0,L|320:156,1,80,2|8,0:0|0:3,0:0:0:0:
196,232,16541,1,0,0:0:0:0:
292,296,16687,1,0,0:0:0:0:
256,368,16834,1,2,0:0:0:0:
256,368,16980,5,6,0:0:0:0:
220,296,17127,1,2,0:0:0:0:
316,232,17273,1,0,0:0:0:0:
192,156,17420,6,0,L|184:76,1,80,0|8,0:0|0:3,0:0:0:0:
256,36,17712,1,2,0:0:0:0:
327,76,17859,2,0,L|320:156,1,80,0|0,0:0|0:0,0:0:0:0:
400,168,18151,1,0,0:0:0:0:
472,132,18297,5,2,0:0:0:0:
400,168,18444,1,2,3:0:0:0:
320,156,18590,1,2,3:0:0:0:
152,300,18737,2,0,L|72:304,1,80,0|0,0:0|0:0,0:0:0:0:
228,296,19029,2,0,L|232:252,1,40,8|8,0:3|0:3,0:0:0:0:
32,236,19175,2,0,L|36:192,1,40,10|2,0:3|0:3,0:0:0:0:
44,96,19322,6,0,P|93:67|180:128,1,160,4|8,0:0|0:0,0:0:0:0:
104,144,19761,1,0,0:0:0:0:
256,124,19907,2,0,L|256:44,2,80,2|0|8,3:0|3:0|0:0,0:0:0:0:
312,180,20346,6,0,P|352:208|400:208,1,80,6|0,0:0|0:0,0:0:0:0:
456,180,20639,1,0,3:0:0:0:
512,272,20785,1,8,0:0:0:0:
440,308,20931,2,0,P|392:272|288:280,1,160,2|0,3:0|3:0,0:0:0:0:
256,344,21370,1,8,0:0:0:0:
256,344,21516,5,0,0:0:0:0:
216,275,21663,2,0,P|138:266|72:308,1,160,4|8,0:0|0:0,0:0:0:0:
0,272,22101,1,0,3:2:0:0:
56,180,22247,1,2,3:0:0:0:
129,211,22394,2,0,P|168:204|200:180,1,80,0|8,0:0|0:0,0:0:0:0:
256,44,22687,2,0,L|256:124,2,80,4|0|0,0:0|3:0|0:0,0:0:0:0:
408,144,23127,1,10,3:2:0:0:
336,113,23273,2,0,P|397:66|468:96,1,160,2|8,0:0|0:0,0:0:0:0:
467,94,23712,5,8,0:0:0:0:
476,124,23785,1,8,0:0:0:0:
476,152,23858,1,10,0:0:0:0:
468,180,23931,1,2,0:3:0:0:
452,204,24005,2,0,L|360:216,1,80,4|0,0:0|0:0,0:0:0:0:
256,232,24297,1,8,0:0:0:0:
304,292,24444,2,0,L|392:296,2,80,2|0|0,0:0|3:0|3:0,0:0:0:0:
256,352,24883,1,8,0:0:0:0:
208,292,25029,2,0,L|48:300,1,160,4|2,0:0|3:0,0:0:0:0:
176,152,25468,1,8,0:0:0:0:
240,184,25614,6,0,P|280:188|320:172,1,80,2|2,3:0|0:0,0:0:0:0:
368,124,25907,1,0,0:0:0:0:
256,28,26053,1,8,0:0:0:0:
256,28,26346,5,4,0:0:0:0:
144,124,26492,1,0,0:0:0:0:
195,174,26639,2,0,P|232:188|272:184,1,80,8|0,0:0|0:0,0:0:0:0:
336,152,26931,5,2,3:0:0:0:
464,300,27078,2,0,L|304:292,1,160,0|6,3:0|0:0,0:0:0:0:
256,352,27516,1,10,0:3:0:0:
128,295,27663,2,0,L|208:292,2,80,0|8|2,3:0|0:0|3:0,0:0:0:0:
256,232,28102,1,6,0:0:0:0:
139,214,28248,2,0,L|87:209,1,40,10|2,0:0|0:3,0:0:0:0:
60,204,28395,5,8,0:0:0:0:
44,180,28468,1,8,0:0:0:0:
36,152,28541,1,10,0:0:0:0:
36,124,28614,1,2,0:3:0:0:
44,95,28687,5,6,0:0:0:0:
156,104,28834,1,2,0:0:0:0:
232,24,28980,1,10,0:0:0:0:
144,92,29127,6,0,L|164:192,1,80,2|0,3:0|0:0,0:0:0:0:
344,280,29419,2,0,L|265:262,1,80,2|8,3:3|0:0,0:0:0:0:
128,304,29712,5,6,0:0:0:0:
128,304,29858,2,0,L|56:372,1,80,0|2,0:0|3:3,0:0:0:0:
0,196,30151,2,0,L|88:216,1,80,10|2,0:0|3:0,0:0:0:0:
256,220,30444,1,0,0:0:0:0:
308,144,30590,1,2,3:3:0:0:
256,72,30736,1,10,0:0:0:0:
256,72,31029,5,6,0:0:0:0:
204,144,31175,1,2,3:3:0:0:
256,220,31321,1,8,0:0:0:0:
433,213,31468,2,0,L|512:196,1,80,2|2,3:0|0:0,0:0:0:0:
442,358,31761,2,0,L|384:304,1,80,2|10,3:0|3:2,0:0:0:0:
384,304,32053,1,6,0:0:0:0:
246,262,32200,2,0,L|168:280,1,80,0|2,3:3|0:3,0:0:0:0:
352,170,32492,2,0,L|368:92,1,80,10|6,3:2|0:2,0:0:0:0:
280,24,32785,1,2,0:0:0:0:
356,104,32931,1,2,3:3:0:0:
467,95,33078,1,10,0:0:0:0:
467,95,33370,5,6,0:0:0:0:
404,212,33517,1,2,0:0:0:0:
284,140,33663,1,10,0:0:0:0:
116,232,33809,6,0,L|120:340,1,80,2|0,3:0|0:0,0:0:0:0:
340,304,34102,2,0,L|336:392,1,80,2|8,3:3|0:0,0:0:0:0:
256,288,34395,1,6,0:0:0:0:
256,288,34541,5,0,0:0:0:0:
175,383,34688,2,0,L|172:304,1,80,2|0,3:3|0:0,0:0:0:0:
393,311,34981,2,0,L|396:232,1,80,2|0,3:0|0:0,0:0:0:0:
228,140,35273,5,2,3:3:0:0:
108,212,35419,1,10,0:0:0:0:
45,95,35566,1,0,0:0:0:0:
168,32,35712,5,4,0:0:0:0:
344,32,35858,1,4,0:0:0:0:
12,184,36151,5,6,0:0:0:0:
256,332,36444,1,2,0:3:0:0:
500,184,36736,1,6,0:0:0:0:
500,184,37029,6,0,L|488:132,2,40,2|0|8,3:0|0:0|0:0,0:0:0:0:
256,332,37322,2,0,L|256:284,2,40,2|0|8,3:0|0:0|0:0,0:0:0:0:
12,184,37614,2,0,L|24:132,1,40,2|2,3:3|3:3,0:0:0:0:
68,248,37761,5,8,0:0:0:0:
68,248,37834,1,8,0:0:0:0:
68,248,37907,1,10,0:3:0:0:
68,248,37980,1,0,3:3:0:0:
68,248,38053,2,0,P|116:244|140:220,1,80,4|0,0:0|0:0,0:0:0:0:
184,168,38346,1,8,0:3:0:0:
0,112,38492,1,0,3:0:0:0:
60,72,38639,2,0,L|144:80,1,80,2|8,0:0|0:3,0:0:0:0:
352,188,38931,1,2,0:0:0:0:
292,228,39078,6,0,L|208:236,1,80,2|0,3:3|3:0,0:0:0:0:
16,320,39370,2,0,L|100:328,1,80,2|8,0:0|0:3,0:0:0:0:
296,356,39663,1,8,0:3:0:0:
216,356,39809,5,2,0:0:0:0:
256,284,39956,1,2,0:3:0:0:
296,356,40102,1,8,0:3:0:0:
336,284,40248,1,2,3:0:0:0:
176,284,40395,1,2,3:0:0:0:
216,356,40541,5,8,0:3:0:0:
256,284,40687,1,0,0:3:0:0:
296,356,40834,1,2,0:0:0:0:
216,356,40980,1,2,0:3:0:0:
416,327,41127,2,0,L|496:320,1,80,8|2,0:3|0:0,0:0:0:0:
299,235,41419,2,0,L|220:228,1,80,2|0,0:3|3:0,0:0:0:0:
160,188,41712,1,0,3:0:0:0:
372,79,41858,2,0,L|452:72,1,80,0|0,3:0|3:0,0:0:0:0:
512,112,42151,5,8,0:3:0:0:
328,168,42297,1,2,0:0:0:0:
373,223,42444,2,0,P|404:247|444:248,1,80,8|2,0:3|3:0,0:0:0:0:
444,248,42663,1,0,0:0:0:0:
443,248,42736,6,0,L|436:336,1,80,8|0,0:3|0:0,0:0:0:0:
264,360,43029,2,0,L|256:280,1,80,8|0,0:3|3:0,0:0:0:0:
72,240,43322,1,2,0:0:0:0:
36,304,43468,1,8,0:3:0:0:
36,304,43541,1,0,0:0:0:0:
36,304,43614,2,0,P|84:312|124:288,1,80,2|2,0:0|3:0,0:0:0:0:
188,176,43907,5,0,3:0:0:0:
120,148,44053,2,0,L|28:156,1,80,2|8,0:0|0:3,0:0:0:0:
308,80,44346,1,8,0:3:0:0:
204,80,44492,1,2,0:0:0:0:
256,172,44639,1,2,0:3:0:0:
256,172,44712,1,0,0:0:0:0:
256,172,44785,2,0,L|256:256,1,80,8|2,0:3|3:0,0:0:0:0:
256,252,45078,6,0,L|256:172,1,80,0|2,3:0|0:0,0:0:0:0:
256,172,45297,1,0,0:0:0:0:
256,172,45370,1,8,0:3:0:0:
308,80,45517,1,2,0:0:0:0:
204,80,45663,1,2,3:0:0:0:
471,154,45810,2,0,L|392:148,1,80,0|2,0:0|0:0,0:0:0:0:
324,176,46102,5,2,0:3:0:0:
400,299,46249,2,0,P|437:313|476:304,1,80,8|0,0:3|3:0,0:0:0:0:
476,304,46468,1,0,0:0:0:0:
476,304,46541,1,8,0:3:0:0:
440,240,46687,1,0,3:0:0:0:
255,280,46834,2,0,L|248:360,1,80,8|2,0:3|0:0,0:0:0:0:
75,327,47127,2,0,L|68:248,1,80,8|8,0:3|0:3,0:0:0:0:
67,247,47346,1,8,0:3:0:0:
67,247,47419,5,4,0:0:0:0:
156,196,47566,1,0,0:0:0:0:
8,120,47712,2,0,L|96:128,1,80,8|0,0:3|3:0,0:0:0:0:
252,52,48005,1,2,0:0:0:0:
328,76,48151,2,0,L|420:68,1,80,8|2,0:3|0:0,0:0:0:0:
436,140,48444,1,2,0:0:0:0:
424,180,48517,1,2,0:0:0:0:
392,204,48590,5,0,3:0:0:0:
316,232,48736,1,2,0:0:0:0:
256,328,48883,1,8,0:3:0:0:
256,328,49029,1,8,0:3:0:0:
256,168,49175,1,2,0:0:0:0:
256,128,49248,1,2,0:0:0:0:
256,88,49322,1,8,0:3:0:0:
196,232,49468,2,0,L|128:280,1,80,8|2,0:3|0:0,0:0:0:0:
381,278,49761,6,0,L|316:232,1,80,2|0,3:0|0:0,0:0:0:0:
256,88,50053,1,8,0:3:0:0:
256,128,50127,1,0,0:0:0:0:
256,168,50200,1,0,3:0:0:0:
256,328,50346,1,0,0:0:0:0:
256,328,50492,1,8,0:3:0:0:
196,232,50639,1,2,0:0:0:0:
120,204,50785,5,2,0:3:0:0:
88,180,50858,1,0,0:0:0:0:
76,140,50931,1,0,3:0:0:0:
104,69,51078,2,0,L|184:76,1,80,0|0,3:0|3:0,0:0:0:0:
260,52,51370,1,0,3:0:0:0:
424,127,51517,2,0,L|504:120,1,80,8|2,0:3|0:0,0:0:0:0:
356,196,51809,1,8,0:3:0:0:
444,248,51956,1,2,3:0:0:0:
304,320,52102,5,0,3:0:0:0:
396,368,52248,2,0,P|444:368|480:336,1,80,2|8,0:0|0:3,0:0:0:0:
204,296,52541,1,0,3:0:0:0:
204,296,52614,1,0,0:0:0:0:
204,296,52687,2,0,L|108:300,1,80,0|8,0:0|3:3,0:0:0:0:
28,232,52980,1,2,0:0:0:0:
28,232,53053,1,2,0:0:0:0:
28,232,53127,1,2,0:3:0:0:
120,200,53273,5,0,3:0:0:0:
34,311,53419,2,0,L|26:219,1,80,2|8,3:0|0:3,0:0:0:0:
208,160,53712,1,8,0:3:0:0:
208,160,53785,1,0,0:0:0:0:
208,160,53858,2,0,L|216:68,1,80,2|2,0:0|3:0,0:0:0:0:
312,244,54151,1,8,0:3:0:0:
256,324,54297,1,2,0:3:0:0:
256,324,54444,5,0,3:0:0:0:
200,244,54590,1,0,0:0:0:0:
297,80,54737,2,0,L|304:160,1,80,8|0,0:3|0:0,0:0:0:0:
303,159,54956,1,0,0:0:0:0:
303,159,55029,1,2,0:0:0:0:
484,232,55176,2,0,L|478:312,1,80,8|8,0:3|0:3,0:0:0:0:
392,200,55468,1,2,0:3:0:0:
484,232,55614,1,2,3:0:0:0:
484,232,55688,5,0,0:0:0:0:
484,232,55761,1,2,0:3:0:0:
387,299,55908,2,0,L|308:296,1,80,8|2,0:3|3:0,0:0:0:0:
307,295,56127,1,0,0:0:0:0:
307,295,56200,1,8,0:3:0:0:
42,350,56347,2,0,P|76:370|116:368,1,80,0|8,3:0|0:0,0:0:0:0:
208,320,56566,1,8,0:0:0:0:
180,292,56639,1,10,3:0:0:0:
140,284,56712,1,0,3:0:0:0:
100,292,56785,6,0,L|20:288,2,80,12|2|8,0:0|3:0|0:3,0:0:0:0:
340,232,57224,2,0,L|432:236,1,80,2|0,3:0|0:0,0:0:0:0:
132,156,57517,2,0,L|40:160,1,80,2|8,3:0|0:3,0:0:0:0:
356,128,57809,6,0,P|388:104|396:48,1,80,4|8,3:2|0:3,0:0:0:0:
309,14,58102,1,2,0:3:0:0:
309,14,58175,1,0,0:0:0:0:
309,14,58248,1,8,0:3:0:0:
200,76,58395,2,0,L|292:84,1,80,2|8,3:0|0:3,0:0:0:0:
120,248,58687,1,2,0:0:0:0:
176,309,58834,2,0,L|256:316,1,80,2|8,3:0|0:3,0:0:0:0:
256,316,59127,6,0,L|335:309,1,80,12|2,0:2|3:0,0:0:0:0:
392,248,59420,1,8,0:3:0:0:
232,82,59566,2,0,L|312:76,1,80,2|0,3:0|0:0,0:0:0:0:
202,14,59859,5,2,3:0:0:0:
202,14,59932,1,0,0:0:0:0:
202,14,60005,1,0,0:0:0:0:
112,66,60152,2,0,P|124:104|156:128,1,80,4|8,3:2|0:3,0:0:0:0:
459,159,60444,2,0,L|380:156,1,80,2|8,0:3|0:3,0:0:0:0:
92,235,60737,2,0,L|172:232,1,80,2|8,3:0|0:3,0:0:0:0:
492,288,61030,2,0,L|412:292,2,80,2|2|8,0:3|3:0|0:3,0:0:0:0:
336,216,61468,5,12,0:0:0:0:
416,220,61614,1,2,3:0:0:0:
464,156,61761,1,8,0:3:0:0:
380,24,61907,2,0,P|328:20|288:44,1,80,2|0,3:0|0:0,0:0:0:0:
320,136,62200,2,0,P|372:140|412:116,1,80,2|8,3:0|0:3,0:0:0:0:
192,80,62492,6,0,L|96:76,1,80,4|8,3:2|0:3,0:0:0:0:
12,168,62785,1,2,0:3:0:0:
12,168,62858,1,0,0:0:0:0:
12,168,62931,1,8,0:3:0:0:
72,216,63078,2,0,L|168:208,1,80,2|8,3:0|0:3,0:0:0:0:
304,264,63370,1,2,0:0:0:0:
256,200,63517,1,2,3:0:0:0:
208,264,63663,1,8,0:3:0:0:
304,264,63809,5,12,0:3:0:0:
256,200,63955,1,2,3:0:0:0:
208,264,64102,1,2,3:0:0:0:
360,209,64248,2,0,L|440:216,1,80,8|8,0:3|0:3,0:0:0:0:
500,168,64541,5,8,0:0:0:0:
500,168,64614,1,8,0:0:0:0:
500,168,64687,1,8,0:0:0:0:
399,76,64834,2,0,L|320:80,1,80,12|0,0:0|3:0,0:0:0:0:
115,129,65126,2,0,P|152:142|192:136,1,80,2|8,0:3|0:3,0:0:0:0:
208,30,65419,2,0,P|171:17|132:24,1,80,2|8,0:3|0:3,0:0:0:0:
48,156,65711,1,2,3:0:0:0:
96,220,65858,1,8,0:3:0:0:
176,216,66004,1,4,0:0:0:0:
256,336,66151,5,12,0:3:0:0:
180,364,66297,2,0,P|120:368|56:292,1,160,2|2,3:0|3:0,0:0:0:0:
176,216,66736,1,0,3:0:0:0:
256,336,66883,1,8,0:3:0:0:
336,216,67029,1,2,0:0:0:0:
455,298,67175,2,0,P|409:361|332:364,1,160,4|0,0:0|0:0,0:0:0:0:
143,287,67614,6,0,P|166:254|176:216,1,80,8|8,0:3|0:3,0:0:0:0:
256,156,67907,1,8,0:3:0:0:
256,156,67980,1,0,0:0:0:0:
256,156,68053,1,2,0:0:0:0:
336,216,68200,2,0,P|345:254|368:287,1,80,2|8,3:0|0:3,0:0:0:0:
424,192,68492,6,0,L|504:184,1,80,4|2,0:0|0:3,0:0:0:0:
332,60,68785,2,0,L|412:52,1,80,4|8,3:2|0:3,0:0:0:0:
180,60,69078,1,8,0:3:0:0:
256,28,69224,1,8,0:0:0:0:
332,60,69370,1,8,0:0:0:0:
256,96,69517,1,8,0:0:0:0:
256,96,69663,5,2,3:0:0:0:
180,60,69810,1,2,0:3:0:0:
256,28,69956,1,8,0:3:0:0:
332,60,70102,1,2,0:3:0:0:
100,52,70248,2,0,L|180:60,1,80,4|8,3:2|0:3,0:0:0:0:
8,184,70541,2,0,L|88:192,1,80,4|2,0:0|0:3,0:0:0:0:
160,228,70834,6,0,P|156:308|92:360,1,160,4|2,0:0|3:0,0:0:0:0:
316,288,71273,1,2,3:0:0:0:
316,288,71346,1,0,0:0:0:0:
316,288,71419,2,0,L|212:296,1,80,2|8,0:3|0:3,0:0:0:0:
99,357,71712,2,0,L|16:352,1,80,2|2,0:0|3:0,0:0:0:0:
492,352,72151,6,0,L|413:357,1,80,2|8,0:3|0:3,0:0:0:0:
275,294,72444,2,0,L|196:288,1,80,0|8,3:0|0:3,0:0:0:0:
196,288,72663,1,0,0:0:0:0:
196,288,72736,1,2,0:3:0:0:
412,357,72883,2,0,P|354:305|352:228,1,160,2|4,3:0|0:0,0:0:0:0:
384,28,73322,5,2,0:3:0:0:
360,60,73395,1,0,0:0:0:0:
360,100,73468,1,4,3:2:0:0:
380,136,73541,1,0,3:0:0:0:
416,152,73614,1,8,0:3:0:0:
512,76,73761,6,0,L|432:80,1,80,8|0,0:3|0:0,0:0:0:0:
360,100,73980,1,8,0:0:0:0:
280,92,74053,2,0,P|256:124|256:164,1,80,8|8,0:0|0:0,0:0:0:0:
256,162,74346,6,0,P|255:123|232:92,1,80,2|2,3:0|0:3,0:0:0:0:
152,100,74565,1,0,0:0:0:0:
80,80,74638,2,0,L|0:76,1,80,8|2,0:3|0:3,0:0:0:0:
96,152,74931,1,8,0:3:0:0:
132,136,75004,1,0,0:0:0:0:
152,100,75077,1,2,3:0:0:0:
152,60,75150,1,8,0:3:0:0:
128,28,75223,1,8,0:3:0:0:
80,80,75370,1,2,3:0:0:0:
16,228,75517,5,12,0:0:0:0:
16,228,75663,2,0,L|24:320,1,80,0|2,0:0|0:0,0:0:0:0:
160,344,75956,2,0,L|148:248,1,80,0|2,0:0|0:0,0:0:0:0:
256,188,76248,1,2,3:0:0:0:
256,188,76395,5,10,0:3:0:0:
176,176,76541,2,0,L|84:168,1,80,2|0,3:3|0:0,0:0:0:0:
336,176,76834,2,0,L|428:168,1,80,0|8,3:0|0:3,0:0:0:0:
160,96,77127,2,0,P|152:64|172:24,1,80,8|8,0:3|0:0,0:0:0:0:
339,23,77419,2,0,P|359:57|352:96,1,80,0|2,0:0|3:0,0:0:0:0:
256,68,77712,1,8,0:3:0:0:
256,68,77858,5,4,0:0:0:0:
160,96,78005,2,0,P|152:64|172:24,1,80,8|8,0:3|0:0,0:0:0:0:
339,23,78297,2,0,P|359:57|352:96,1,80,2|8,0:0|0:3,0:0:0:0:
96,169,78590,2,0,L|176:176,1,80,2|8,0:0|0:3,0:0:0:0:
415,169,78883,2,0,L|336:176,1,80,8|2,0:3|0:3,0:0:0:0:
256,188,79175,5,0,0:0:0:0:
256,188,79322,1,2,3:0:0:0:
361,264,79468,2,0,L|352:344,1,80,0|2,0:0|0:0,0:0:0:0:
489,307,79761,2,0,L|496:228,1,80,0|2,0:0|0:0,0:0:0:0:
496,228,80053,1,0,0:0:0:0:
512,384,80200,5,12,0:0:0:0:
439,355,80346,2,0,L|431:267,1,80,0|8,0:0|0:3,0:0:0:0:
424,196,80639,1,10,0:3:0:0:
431,275,80785,1,0,3:0:0:0:
424,196,80931,2,0,L|416:108,1,80,8|0,0:3|0:3,0:0:0:0:
368,60,81224,6,0,L|292:32,1,80,0|2,0:0|3:0,0:0:0:0:
220,32,81517,2,0,L|144:60,1,80,0|8,0:0|0:3,0:0:0:0:
144,172,81809,2,0,L|220:200,1,80,2|8,3:0|0:3,0:0:0:0:
292,200,82102,2,0,L|368:172,1,80,2|2,0:0|3:0,0:0:0:0:
256,112,82395,1,0,0:0:0:0:
256,112,82541,5,0,3:0:0:0:
144,172,82688,2,0,L|220:200,1,80,0|2,3:0|0:0,0:0:0:0:
292,200,82981,2,0,L|368:172,1,80,8|8,0:3|0:3,0:0:0:0:
368,60,83273,2,0,L|292:32,1,80,0|2,0:0|3:0,0:0:0:0:
220,32,83566,2,0,L|144:60,1,80,0|2,0:0|3:0,0:0:0:0:
88,196,83858,5,10,0:3:0:0:
81,275,84004,1,0,3:0:0:0:
88,196,84150,2,0,L|96:108,1,80,8|0,0:3|0:3,0:0:0:0:
80,275,84444,2,0,L|73:355,1,80,2|8,0:3|0:3,0:0:0:0:
0,384,84736,1,8,0:3:0:0:
0,384,84809,1,8,0:3:0:0:
0,384,84883,6,0,P|108:344|156:364,1,160,8|8,0:0|0:3,0:0:0:0:
366,357,85322,2,0,P|444:344|512:384,1,160,8|8,0:0|0:3,0:0:0:0:
200,296,85761,1,8,0:0:0:0:
312,296,85907,1,2,3:0:0:0:
80,136,86053,5,2,3:0:0:0:
160,132,86200,1,2,0:3:0:0:
224,180,86346,1,8,0:3:0:0:
256,252,86492,1,8,0:3:0:0:
256,252,86639,5,8,0:3:0:0:
288,180,86785,1,2,0:3:0:0:
352,132,86931,1,2,3:0:0:0:
432,136,87078,1,8,0:3:0:0:
496,236,87224,5,4,0:0:0:0:
488,316,87371,1,0,0:0:0:0:
408,312,87517,1,2,0:0:0:0:
416,232,87663,1,0,0:0:0:0:
496,236,87810,1,2,0:0:0:0:
488,316,87956,1,0,0:0:0:0:
484,68,88248,6,0,L|488:148,1,80,2|0,0:0|0:0,0:0:0:0:
400,152,88541,2,0,L|396:72,1,80,2|0,0:0|0:0,0:0:0:0:
256,160,88834,5,2,0:0:0:0:
188,200,88980,1,0,0:0:0:0:
324,280,89127,1,0,0:0:0:0:
256,320,89273,1,0,0:0:0:0:
256,320,89566,5,2,0:0:0:0:
188,280,89712,1,0,0:0:0:0:
324,200,89859,1,0,0:0:0:0:
256,160,90005,1,2,0:0:0:0:
116,72,90152,6,0,L|112:152,1,80,2|0,0:0|0:0,0:0:0:0:
24,148,90443,2,0,L|28:68,1,80,2|2,0:0|0:0,0:0:0:0:
24,316,90883,5,2,0:0:0:0:
16,236,91029,1,2,0:0:0:0:
96,232,91176,1,2,0:0:0:0:
104,312,91322,1,0,0:0:0:0:
24,316,91468,1,0,0:0:0:0:
16,236,91615,1,0,0:0:0:0:
16,236,91907,5,2,0:0:0:0:
96,252,92053,2,0,L|184:232,1,80,0|2,0:0|0:0,0:0:0:0:
216,164,92346,1,0,0:0:0:0:
220,80,92492,1,2,0:0:0:0:
188,4,92639,1,0,0:0:0:0:
174,234,92931,6,0,L|96:252,1,80,2|0,0:0|0:0,0:0:0:0:
28,320,93224,2,0,L|106:337,1,80,2|0,0:0|0:0,0:0:0:0:
192,316,93517,5,2,0:0:0:0:
256,268,93663,1,0,0:0:0:0:
320,316,93809,1,0,0:0:0:0:
256,364,93956,1,0,0:0:0:0:
256,364,94248,5,2,0:0:0:0:
192,316,94395,1,0,0:0:0:0:
256,268,94541,1,2,0:0:0:0:
320,316,94687,1,2,0:0:0:0:
405,337,94834,2,0,L|484:320,1,80
416,252,95127,2,0,L|337:234,1,80,2|2,0:0|0:0,0:0:0:0:
324,4,95565,5,2,0:0:0:0:
292,80,95712,1,2,0:0:0:0:
296,164,95858,1,2,0:0:0:0:
337,234,96005,2,0,L|416:252,1,80,2|0,0:0|0:0,0:0:0:0:
496,236,96297,1,0,0:0:0:0:
496,236,96444,1,0,0:0:0:0:
452,172,96590,6,0,L|440:88,1,80,4|0,0:0|0:0,0:0:0:0:
384,184,96883,2,0,L|372:100,1,80,8|0,0:3|3:0,0:0:0:0:
332,304,97175,6,0,L|320:220,1,80,8|0,0:3|0:0,0:0:0:0:
264,316,97468,2,0,L|252:232,1,80,2|0,0:3|3:0,0:0:0:0:
256,76,97907,5,0,3:0:0:0:
256,76,98053,1,0,0:0:0:0:
256,76,98200,1,2,0:3:0:0:
256,4,98346,5,8,0:3:0:0:
184,104,98492,1,0,0:0:0:0:
328,104,98639,1,2,0:3:0:0:
184,104,98931,5,0,3:0:0:0:
328,104,99078,1,0,0:0:0:0:
256,4,99224,1,2,0:0:0:0:
256,76,99370,5,0,3:0:0:0:
256,76,99517,1,8,0:3:0:0:
256,76,99663,1,0,0:0:0:0:
259,236,99956,6,0,L|248:316,1,80,0|2,3:0|0:0,0:0:0:0:
191,224,100249,2,0,L|180:304,1,80,0|2,3:0|0:0,0:0:0:0:
139,104,100541,6,0,L|128:184,1,80,8|8,0:3|0:3,0:0:0:0:
71,92,100834,2,0,L|60:172,1,80,0|2,3:0|3:0,0:0:0:0:
132,332,101273,5,0,3:0:0:0:
52,320,101419,1,0,0:0:0:0:
112,264,101566,1,0,0:0:0:0:
192,280,101712,1,0,3:0:0:0:
132,332,101858,1,8,0:3:0:0:
112,264,102005,1,0,0:0:0:0:
140,188,102151,1,2,0:0:0:0:
212,152,102297,1,0,3:0:0:0:
256,84,102444,5,0,0:0:0:0:
296,224,102590,1,0,0:0:0:0:
256,360,102736,1,2,3:0:0:0:
216,224,102882,1,0,0:0:0:0:
212,152,103029,5,8,0:0:0:0:
296,296,103175,1,0,0:0:0:0:
216,296,103322,1,2,0:0:0:0:
300,152,103468,1,0,3:0:0:0:
212,152,103614,5,0,3:0:0:0:
296,296,103760,1,2,0:0:0:0:
216,296,103907,1,0,0:0:0:0:
300,152,104053,1,2,0:0:0:0:
296,224,104200,5,8,0:0:0:0:
256,360,104346,1,0,3:0:0:0:
216,224,104492,1,2,0:3:0:0:
256,84,104638,1,0,0:0:0:0:
300,152,104785,5,2,3:0:0:0:
372,188,104931,1,0,0:0:0:0:
400,264,105077,1,0,0:0:0:0:
380,332,105224,1,0,0:0:0:0:
320,280,105370,5,8,0:3:0:0:
400,264,105516,1,8,0:3:0:0:
460,320,105663,1,8,0:3:0:0:
460,320,105736,1,8,0:3:0:0:
460,320,105809,1,10,0:3:0:0:
460,320,105883,1,2,3:3:0:0:
460,320,105956,6,0,P|488:268|428:192,1,160,4|8,0:0|0:0,0:0:0:0:
400,40,106395,1,0,0:0:0:0:
332,160,106541,2,0,P|332:120|346:83,2,80,2|0|8,3:0|3:0|0:0,0:0:0:0:
172,124,106980,6,0,P|156:76|160:36,1,80,6|0,0:0|0:0,0:0:0:0:
8,188,107273,1,0,3:0:0:0:
132,316,107419,1,8,0:0:0:0:
204,268,107566,2,0,L|216:180,2,80
256,340,108005,1,8,0:0:0:0:
256,340,108297,5,4,0:0:0:0:
297,188,108444,2,0,L|308:268,2,80,0|8|0,0:0|0:0|0:0,0:0:0:0:
380,316,108883,1,2,3:0:0:0:
504,188,109029,5,2,3:0:0:0:
354,47,109176,2,0,P|354:86|340:124,1,80,8|0,0:0|0:0,0:0:0:0:
165,83,109468,2,0,P|179:120|180:160,2,80,0|0|8,0:0|3:0|0:0,0:0:0:0:
112,40,109907,1,2,3:0:0:0:
77,193,110054,2,0,P|25:248|52:320,1,160,2|8,0:0|0:0,0:0:0:0:
51,319,110419,1,8,0:0:0:0:
51,319,110492,1,10,0:0:0:0:
51,319,110566,1,2,0:3:0:0:
51,319,110639,6,0,L|136:328,1,80,4|0,0:0|0:0,0:0:0:0:
184,248,110931,1,8,0:0:0:0:
256,296,111078,2,0,L|256:380,2,80,2|0|0,0:0|3:0|3:0,0:0:0:0:
328,248,111517,1,8,0:0:0:0:
256,200,111663,2,0,L|256:28,1,160,4|2,0:0|3:0,0:0:0:0:
156,28,112102,6,0,P|120:56|112:104,1,80,8|0,0:0|0:0,0:0:0:0:
401,87,112395,2,0,P|388:50|356:27,1,80,2|0,0:0|0:0,0:0:0:0:
256,200,112687,1,8,0:0:0:0:
256,200,112980,5,4,0:0:0:0:
156,28,113126,2,0,P|124:50|111:87,1,80,0|8,0:0|0:0,0:0:0:0:
401,87,113419,2,0,P|388:50|356:27,1,80,2|2,0:0|3:0,0:0:0:0:
256,40,113712,2,0,L|256:200,1,160,0|6,3:0|0:0,0:0:0:0:
184,248,114150,1,10,0:3:0:0:
256,376,114297,6,0,L|256:296,2,80,0|8|2,3:0|0:0|3:0,0:0:0:0:
328,248,114736,1,6,0:0:0:0:
380,327,114883,1,10,0:0:0:0:
420,324,114956,1,8,0:3:0:0:
460,319,115029,1,8,0:0:0:0:
380,327,115175,1,10,0:0:0:0:
488,236,115322,5,6,0:0:0:0:
328,248,115468,1,2,0:0:0:0:
392,112,115614,1,10,0:0:0:0:
448,168,115761,6,0,P|408:188|364:184,1,80,2|0,3:0|0:0,0:0:0:0:
336,56,116053,2,0,P|376:36|420:40,1,80,2|8,3:3|0:0,0:0:0:0:
392,112,116346,1,6,0:0:0:0:
392,112,116492,2,0,L|312:136,1,80,0|2,0:0|3:3,0:0:0:0:
196,134,116785,2,0,L|120:112,1,80,10|2,0:0|3:0,0:0:0:0:
256,16,117078,5,0,0:0:0:0:
256,96,117224,1,2,3:3:0:0:
256,176,117370,1,10,0:0:0:0:
256,176,117663,5,6,0:0:0:0:
256,96,117809,1,2,0:0:0:0:
256,16,117955,1,10,0:0:0:0:
392,112,118102,6,0,L|315:134,1,80,2|0,3:0|0:0,0:0:0:0:
196,134,118395,2,0,L|120:112,1,80,2|8,3:3|0:0,0:0:0:0:
120,112,118687,5,6,0:0:0:0:
101,36,118834,2,0,P|141:37|176:56,1,80,0|2,0:0|3:3,0:0:0:0:
138,187,119126,2,0,P|98:186|64:168,1,80,10|2,0:0|3:0,0:0:0:0:
120,112,119419,5,0,0:0:0:0:
184,248,119565,1,2,3:3:0:0:
24,236,119711,1,10,0:0:0:0:
24,236,120005,5,6,0:0:0:0:
180,328,120151,1,2,0:0:0:0:
272,184,120297,1,10,0:0:0:0:
384,200,120444,6,0,P|420:200|460:172,1,80,2|0,3:0|0:0,0:0:0:0:
184,64,120736,2,0,P|148:64|108:92,1,80,2|8,3:3|0:0,0:0:0:0:
256,104,121029,1,6,0:0:0:0:
256,104,121175,5,0,0:0:0:0:
400,87,121322,2,0,P|367:65|328:64,1,80,2|0,3:3|0:0,0:0:0:0:
55,176,121614,2,0,P|88:198|128:200,1,80,2|0,3:0|0:0,0:0:0:0:
240,184,121907,5,2,3:3:0:0:
332,328,122053,1,10,0:0:0:0:
488,236,122199,1,0,0:0:0:0:
352,252,122346,5,14,0:0:0:0:
160,252,122492,1,12,0:0:0:0:
256,268,122639,1,8,3:3:0:0:
20,200,122785,6,0,L|32:288,1,80,2|2,3:0|0:0,0:0:0:0:
256,268,123078,2,0,L|256:352,1,80,10|8,0:3|0:3,0:0:0:0:
492,200,123370,2,0,L|480:288,1,80,12|2,0:0|3:0,0:0:0:0:
481,279,123663,5,2,0:3:0:0:
486,239,123736,1,2,0:0:0:0:
492,200,123809,1,8,0:3:0:0:
256,348,123955,1,2,0:3:0:0:
256,308,124028,1,2,0:0:0:0:
256,268,124101,1,8,0:0:0:0:
30,279,124248,1,2,3:0:0:0:
25,239,124321,1,8,0:3:0:0:
20,200,124394,1,8,0:3:0:0:
30,279,124541,1,6,0:0:0:0:
