osu file format v14

[General]
AudioFilename: audio.mp3
AudioLeadIn: 0
PreviewTime: 23858
Countdown: 0
SampleSet: Soft
StackLeniency: 0.4
Mode: 0
LetterboxInBreaks: 0
WidescreenStoryboard: 0

[Editor]
Bookmarks: 590,9956,19322,28687,38053,56785,66151,73175,75517,84883,87224,96590,105956,115322,124687
DistanceSpacing: 0.75
BeatDivisor: 1
GridSize: 4
TimelineZoom: 1.4

[Metadata]
Title:Cookie Bouquets
TitleUnicode:Cookie Bouquets
Artist:Dormir
ArtistUnicode:Dormir
Creator:dsco
Version:Wonderland
Source:beatmania IIDX 15 DJ TROOPERS
Tags:tomosuke crimm petit march konami L.E.D. breakcore fanzhen0019 finshie sammish su1fu7 fanzhen sulfur bemani cs reflec beat limelight Vincent Bui Naoya Miyadai Ryousuke Takeuchi D.B.D
BeatmapID:1428309
BeatmapSetID:675125

[Difficulty]
HPDrainRate:5.8
CircleSize:5.3
OverallDifficulty:9.2
ApproachRate:9.4
SliderMultiplier:1.9
SliderTickRate:1

[Events]
//Background and Video events
0,0,"fuck.jpg",0,0
//Break Periods
2,87424,103074
//Storyboard Layer 0 (Background)
//Storyboard Layer 1 (Fail)
//Storyboard Layer 2 (Pass)
//Storyboard Layer 3 (Foreground)
//Storyboard Sound Samples

[TimingPoints]
590.427184466019,292.682926829268,4,2,0,60,1,0
37175,-133.333333333333,4,2,0,60,0,0
56785,-100,4,2,0,60,0,0
103614,-100,4,2,0,30,0,0
105517,-100,4,2,0,60,0,0
105956,-100,4,2,0,60,0,1
124395,-100,4,2,0,60,0,0

[Colours]
Combo1 : 97,170,194
Combo2 : 253,215,239
Combo3 : 220,71,98
Combo4 : 210,234,242

[HitObjects]
449,209,19029,5,8,0:3:0:0:
447,240,19102,1,8,0:3:0:0:
446,272,19175,1,10,0:3:0:0:
445,303,19248,1,2,0:3:0:0:
461,331,19322,6,0,L|464:236,1,95,4|0,0:0|0:0,0:0:0:0:
401,57,19614,2,0,L|397:151,1,95,8|0,0:0|0:0,0:0:0:0:
302,317,19907,1,2,3:0:0:0:
368,249,20053,1,0,3:0:0:0:
90,318,20200,1,8,0:0:0:0:
175,359,20346,1,6,0:0:0:0:
184,328,20419,1,0,0:0:0:0:
182,296,20492,5,0,0:0:0:0:
117,228,20639,2,0,L|3:224,1,95,0|0,3:0|0:0,0:0:0:0:
120,62,20931,1,2,3:0:0:0:
151,61,21004,1,0,0:0:0:0:
179,77,21078,2,0,L|84:80,1,95,2|0,0:0|0:0,0:0:0:0:
264,15,21370,1,8,0:0:0:0:
264,15,21517,1,0,0:0:0:0:
370,278,21663,6,0,L|364:383,1,95,4|0,0:0|0:0,0:0:0:0:
489,228,21956,2,0,L|494:133,1,95,8|0,0:0|0:0,0:0:0:0:
317,66,22248,1,2,3:0:0:0:
405,30,22395,1,2,3:0:0:0:
216,9,22541,1,8,0:0:0:0:
39,231,22687,6,0,L|33:336,1,95,4|0,0:0|0:0,0:0:0:0:
219,368,22980,1,0,3:0:0:0:
142,312,23127,1,8,0:0:0:0:
153,123,23273,2,0,L|158:28,2,95,2|2|0,3:0|0:0|3:0,0:0:0:0:
312,304,23712,1,8,0:0:0:0:
343,302,23785,1,8,0:0:0:0:
375,300,23858,1,10,0:0:0:0:
406,299,23931,1,2,0:3:0:0:
431,320,24005,6,0,L|336:324,1,95,4|0,0:0|0:0,0:0:0:0:
408,148,24297,1,8,0:0:0:0:
502,144,24443,1,2,0:0:0:0:
341,42,24590,1,0,3:0:0:0:
246,45,24736,1,0,3:0:0:0:
133,199,24883,1,8,0:0:0:0:
43,166,25029,1,4,0:0:0:0:
45,134,25102,1,0,0:0:0:0:
46,102,25175,5,0,0:0:0:0:
130,263,25322,2,0,L|124:386,1,95,2|0,3:0|0:0,0:0:0:0:
366,321,25614,1,2,3:0:0:0:
364,289,25687,1,2,0:0:0:0:
382,263,25761,2,0,L|386:357,1,95,2|0,0:0|0:0,0:0:0:0:
448,178,26053,1,8,0:0:0:0:
448,178,26200,1,2,0:0:0:0:
342,20,26346,5,4,0:0:0:0:
503,118,26492,1,0,0:0:0:0:
447,40,26639,1,8,0:0:0:0:
258,16,26785,2,0,L|156:24,1,95,2|2,0:0|3:0,0:0:0:0:
71,190,27078,1,0,3:0:0:0:
64,95,27224,1,8,0:0:0:0:
148,290,27370,1,6,0:0:0:0:
146,321,27444,1,8,0:2:0:0:
144,352,27517,5,10,0:3:0:0:
330,325,27663,2,0,L|226:318,1,95,0|8,3:0|0:0,0:0:0:0:
417,375,27956,1,2,3:0:0:0:
498,326,28102,1,6,0:0:0:0:
445,145,28248,1,10,0:0:0:0:
442,168,28322,1,2,0:3:0:0:
441,192,28395,1,8,0:0:0:0:
488,162,28468,1,8,0:0:0:0:
476,108,28541,1,10,0:0:0:0:
419,103,28614,1,2,0:3:0:0:
397,155,28687,5,6,0:0:0:0:
408,33,28834,1,2,0:0:0:0:
119,209,28980,1,10,0:0:0:0:
130,331,29127,2,0,L|134:378,2,47.5,2|0|0,3:0|0:0|0:0,0:0:0:0:
18,279,29419,2,0,L|26:184,1,95,2|8,3:3|0:0,0:0:0:0:
408,33,29712,6,0,L|399:127,1,95,6|0,0:0|0:0,0:0:0:0:
383,316,30005,1,2,3:3:0:0:
450,227,30151,1,10,0:0:0:0:
227,55,30297,2,0,P|175:54|132:63,1,95,2|0,3:0|0:0,0:0:0:0:
84,263,30590,2,0,L|81:322,2,47.5,2|0|10,3:3|0:0|0:0,0:0:0:0:
58,154,30883,1,0,0:0:0:0:
307,345,31029,5,6,0:0:0:0:
169,360,31175,1,2,0:0:0:0:
290,18,31322,1,10,0:0:0:0:
428,33,31468,2,0,L|522:43,1,95,2|0,3:0|0:0,0:0:0:0:
448,281,31761,2,0,L|353:291,1,95,2|8,3:3|0:0,0:0:0:0:
131,44,32053,6,0,P|178:43|225:54,1,95,6|0,0:0|0:0,0:0:0:0:
28,185,32346,1,2,3:3:0:0:
61,103,32492,1,10,0:0:0:0:
163,284,32639,2,0,L|166:388,1,95,2|0,3:0|0:0,0:0:0:0:
389,232,32931,1,2,3:3:0:0:
386,137,33078,2,0,L|383:42,1,95,10|0,0:0|0:0,0:0:0:0:
287,325,33370,5,6,0:0:0:0:
406,340,33517,1,2,0:0:0:0:
225,59,33663,1,10,0:0:0:0:
105,73,33809,2,0,L|-2:59,1,95,2|0,3:0|0:0,0:0:0:0:
354,23,34102,2,0,L|448:34,1,95,2|8,3:3|0:0,0:0:0:0:
157,288,34395,6,0,P|128:240|120:181,1,95,6|0,0:0|0:0,0:0:0:0:
352,292,34687,1,2,3:3:0:0:
257,334,34834,1,10,0:0:0:0:
404,152,34980,2,0,L|413:39,1,95,2|0,3:0|0:0,0:0:0:0:
494,257,35273,2,0,L|487:176,2,47.5,2|0|10,3:3|0:0|0:0,0:0:0:0:
448,353,35566,1,0,0:0:0:0:
47,318,35712,5,4,0:0:0:0:
387,265,35858,1,4,0:0:0:0:
292,331,36005,1,8,0:3:0:0:
394,113,36151,2,0,L|402:11,1,95,6|8,0:0|0:3,0:0:0:0:
151,303,36444,1,2,0:3:0:0:
153,334,36517,1,0,0:3:0:0:
155,366,36590,1,0,0:0:0:0:
303,69,36736,6,0,P|243:54|115:82,1,190,6|2,0:0|3:0,0:0:0:0:
21,55,37175,1,8,0:0:0:0:
47,151,37322,1,2,3:0:0:0:
45,168,37395,1,2,0:0:0:0:
43,186,37468,1,8,0:0:0:0:
69,282,37614,1,2,3:3:0:0:
67,300,37687,1,2,3:3:0:0:
66,318,37761,2,0,L|62:353,1,35.625001358986,8|8,0:0|0:0,0:0:0:0:
161,328,37907,2,0,L|164:292,1,35.625001358986,10|0,0:3|3:3,0:0:0:0:
255,342,38053,5,4,0:0:0:0:
127,221,38200,2,0,P|125:188|137:134,1,71.2500027179719,0|0,0:0|0:0,0:0:0:0:
175,89,38492,1,0,3:0:0:0:
4,35,38639,1,8,0:3:0:0:
2,17,38712,1,2,0:0:0:0:
0,0,38785,1,2,0:0:0:0:
75,102,38931,1,2,0:0:0:0:
73,119,39004,1,2,0:0:0:0:
71,137,39077,1,2,3:3:0:0:
11,271,39224,5,0,3:0:0:0:
192,344,39370,1,2,0:0:0:0:
118,369,39517,1,8,0:3:0:0:
305,312,39663,2,0,L|387:307,1,71.2500027179719,8|2,0:3|0:0,0:0:0:0:
394,314,39883,1,2,0:0:0:0:
412,313,39956,1,2,0:3:0:0:
478,238,40102,2,0,L|482:175,1,35.625001358986,8|0,0:3|0:0,0:0:0:0:
445,154,40248,1,2,3:0:0:0:
446,136,40321,1,0,0:0:0:0:
447,118,40395,6,0,L|452:36,1,71.2500027179719,0|0,3:0|0:0,0:0:0:0:
297,1,40687,2,0,L|301:72,1,71.2500027179719,8|0,0:3|0:0,0:0:0:0:
184,299,40980,1,2,0:0:0:0:
183,316,41053,1,0,0:0:0:0:
182,334,41126,1,8,0:3:0:0:
99,255,41273,1,2,0:0:0:0:
100,237,41346,1,0,0:0:0:0:
101,219,41419,1,2,0:3:0:0:
102,201,41492,1,0,0:0:0:0:
103,183,41565,5,0,3:0:0:0:
136,127,41712,1,0,3:0:0:0:
81,91,41858,1,0,3:0:0:0:
114,35,42005,1,0,3:0:0:0:
350,14,42151,2,0,L|354:56,1,35.625001358986,8|0,0:3|0:0,0:0:0:0:
405,106,42297,1,2,0:0:0:0:
403,123,42370,1,2,0:0:0:0:
402,141,42443,1,8,0:3:0:0:
401,159,42516,1,8,0:3:0:0:
400,177,42590,1,2,3:0:0:0:
448,334,42736,6,0,P|445:292|418:245,1,71.2500027179719,8|0,0:3|0:0,0:0:0:0:
249,342,43029,2,0,L|320:348,1,71.2500027179719,8|0,0:3|3:0,0:0:0:0:
501,207,43322,1,2,0:0:0:0:
483,205,43395,1,2,0:0:0:0:
465,204,43468,1,8,0:3:0:0:
441,103,43614,1,2,0:0:0:0:
423,105,43687,1,2,0:0:0:0:
405,106,43761,2,0,L|360:110,1,35.625001358986,2|0,3:0|0:0,0:0:0:0:
311,70,43907,5,0,3:0:0:0:
433,265,44053,1,2,0:0:0:0:
406,339,44200,1,8,0:3:0:0:
382,182,44346,1,8,0:3:0:0:
147,366,44492,1,2,0:0:0:0:
164,365,44565,1,2,0:0:0:0:
182,364,44638,1,2,0:3:0:0:
200,363,44711,1,0,0:0:0:0:
218,361,44785,2,0,L|273:357,1,35.625001358986,8|2,0:3|0:0,0:0:0:0:
143,257,44931,2,0,L|107:254,1,35.625001358986,2|0,3:0|0:0,0:0:0:0:
46,365,45078,6,0,P|58:317|53:275,1,71.2500027179719,0|2,3:0|0:0,0:0:0:0:
37,83,45370,1,8,0:3:0:0:
3,192,45517,2,0,P|51:204|93:199,1,71.2500027179719,2|2,0:0|3:0,0:0:0:0:
89,199,45735,1,2,0:0:0:0:
106,193,45809,1,0,0:0:0:0:
171,28,45956,1,2,0:0:0:0:
164,44,46029,1,2,0:0:0:0:
160,61,46102,2,0,P|159:98|164:127,1,35.625001358986,2|0,0:3|0:0,0:0:0:0:
391,188,46248,5,8,0:3:0:0:
461,180,46394,1,0,3:0:0:0:
414,328,46541,1,8,0:3:0:0:
344,321,46687,1,0,3:0:0:0:
477,267,46834,1,8,0:3:0:0:
210,359,46980,1,2,0:0:0:0:
192,361,47053,1,2,0:0:0:0:
171,346,47127,1,8,0:3:0:0:
198,349,47199,1,0,0:0:0:0:
223,351,47273,1,8,0:3:0:0:
250,354,47345,1,8,0:3:0:0:
275,356,47419,5,4,0:0:0:0:
119,255,47566,2,0,P|111:219|111:157,1,71.2500027179719,0|8,0:0|0:3,0:0:0:0:
47,219,47858,1,0,3:0:0:0:
137,34,48005,1,2,0:0:0:0:
138,51,48078,1,2,0:0:0:0:
139,69,48151,2,0,L|71:63,1,35.625001358986,8|0,0:3|0:0,0:0:0:0:
198,9,48297,2,0,L|233:12,1,35.625001358986,2|0,0:0|0:0,0:0:0:0:
295,40,48443,1,2,0:0:0:0:
310,42,48517,1,2,0:0:0:0:
327,43,48590,5,0,3:0:0:0:
387,252,48736,2,0,L|380:340,1,71.2500027179719,2|8,0:0|0:3,0:0:0:0:
263,360,49029,1,8,0:3:0:0:
458,268,49175,1,2,0:0:0:0:
459,250,49248,1,2,0:0:0:0:
460,232,49321,1,8,0:3:0:0:
462,214,49394,1,0,0:0:0:0:
463,196,49467,1,8,0:3:0:0:
419,94,49614,2,0,L|423:149,1,35.625001358986,2|0,0:0|0:0,0:0:0:0:
491,31,49761,6,0,L|393:21,1,71.2500027179719,2|0,3:0|0:0,0:0:0:0:
349,55,50053,1,8,0:3:0:0:
139,32,50200,2,0,L|209:39,1,71.2500027179719,0|0,3:0|0:0,0:0:0:0:
222,57,50419,1,0,0:0:0:0:
240,55,50492,1,8,0:3:0:0:
35,79,50639,1,2,0:0:0:0:
33,96,50712,1,2,0:0:0:0:
32,114,50785,1,2,0:3:0:0:
30,131,50858,1,0,0:0:0:0:
29,149,50931,5,0,3:0:0:0:
66,203,51078,1,0,3:0:0:0:
37,261,51224,1,0,3:0:0:0:
74,315,51371,1,0,3:0:0:0:
254,354,51517,2,0,L|198:358,1,35.625001358986,8|0,0:3|0:0,0:0:0:0:
336,307,51663,1,2,0:0:0:0:
353,308,51736,1,2,0:0:0:0:
371,309,51809,1,8,0:3:0:0:
389,310,51882,1,0,0:0:0:0:
407,312,51955,1,2,3:0:0:0:
496,125,52102,5,0,3:0:0:0:
471,345,52248,1,2,0:0:0:0:
466,273,52394,1,8,0:3:0:0:
218,356,52541,2,0,L|254:354,1,35.625001358986,0|0,3:0|0:0,0:0:0:0:
144,305,52687,1,0,0:0:0:0:
146,322,52760,1,0,0:0:0:0:
148,340,52833,1,8,3:3:0:0:
84,229,52980,1,2,0:0:0:0:
81,246,53053,1,2,0:0:0:0:
79,264,53126,1,2,0:3:0:0:
36,162,53273,5,0,3:0:0:0:
172,12,53419,2,0,P|158:63|160:106,1,71.2500027179719,2|8,3:0|0:3,0:0:0:0:
360,117,53712,2,0,L|456:110,1,71.2500027179719,8|2,0:3|0:0,0:0:0:0:
446,122,53931,1,2,0:0:0:0:
463,120,54005,2,0,L|511:116,1,35.625001358986,2|0,3:0|0:0,0:0:0:0:
387,230,54151,1,8,0:3:0:0:
388,247,54224,1,2,0:0:0:0:
389,265,54297,1,2,0:3:0:0:
390,283,54370,1,0,0:0:0:0:
406,292,54444,6,0,L|401:220,1,71.2500027179719,0|0,3:0|0:0,0:0:0:0:
160,108,54736,1,8,0:3:0:0:
26,162,54883,1,0,0:0:0:0:
123,198,55029,1,2,0:0:0:0:
122,180,55102,1,2,0:0:0:0:
121,162,55175,1,8,0:3:0:0:
73,286,55322,1,8,0:3:0:0:
73,303,55395,1,2,0:0:0:0:
74,321,55468,2,0,L|77:378,1,35.625001358986,2|0,0:3|0:0,0:0:0:0:
286,327,55614,6,0,L|229:324,1,35.625001358986,2|0,3:0|0:0,0:0:0:0:
381,297,55761,2,0,L|324:294,3,35.625001358986,2|0|8|0,0:3|0:0|0:3|0:0,0:0:0:0:
442,369,56053,2,0,L|439:312,1,35.625001358986,2|0,3:0|0:0,0:0:0:0:
431,155,56200,1,8,0:3:0:0:
502,83,56346,2,0,L|500:118,1,35.625001358986,0|2,3:0|0:3,0:0:0:0:
273,22,56492,2,0,L|405:18,1,106.875004076958,8|0,0:0|3:0,0:0:0:0:
398,17,56785,5,12,0:0:0:0:
376,133,56931,1,2,3:0:0:0:
112,239,57078,1,8,0:3:0:0:
134,123,57224,2,0,P|139:73|119:17,1,95,2|0,3:0|0:0,0:0:0:0:
14,199,57517,2,0,P|9:249|29:305,1,95,2|8,3:0|0:3,0:0:0:0:
295,66,57809,6,0,P|245:61|189:81,1,95,4|8,3:2|0:3,0:0:0:0:
109,345,58102,1,2,0:3:0:0:
81,171,58248,1,8,0:3:0:0:
357,352,58395,2,0,L|462:343,1,95,2|8,3:0|0:3,0:0:0:0:
487,25,58687,2,0,L|392:33,1,95,2|2,0:0|3:0,0:0:0:0:
353,98,58980,1,8,0:3:0:0:
411,277,59127,5,12,0:2:0:0:
426,158,59273,1,2,3:0:0:0:
100,72,59419,1,8,0:3:0:0:
115,190,59566,2,0,L|101:304,1,95,2|0,3:0|0:0,0:0:0:0:
353,98,59858,2,0,L|341:3,1,95,2|0,3:0|0:0,0:0:0:0:
198,311,60151,6,0,P|243:323|306:314,1,95,4|8,3:2|0:3,0:0:0:0:
146,128,60444,1,2,0:3:0:0:
134,360,60590,1,8,0:3:0:0:
496,296,60736,2,0,P|450:283|387:292,1,95,2|8,3:0|0:3,0:0:0:0:
384,302,60955,1,8,0:3:0:0:
360,299,61029,1,2,0:3:0:0:
480,94,61175,2,0,L|469:213,1,95,2|8,3:0|0:3,0:0:0:0:
146,47,61468,5,12,0:0:0:0:
270,57,61614,1,2,3:0:0:0:
248,351,61761,1,8,0:3:0:0:
124,361,61907,2,0,L|22:353,1,95,2|0,3:0|0:0,0:0:0:0:
123,120,62200,2,0,L|115:222,1,95,2|8,3:0|0:3,0:0:0:0:
435,75,62492,6,0,L|333:83,1,95,4|8,3:2|0:3,0:0:0:0:
48,49,62785,1,2,0:3:0:0:
173,33,62931,1,8,0:3:0:0:
390,302,63078,2,0,L|484:294,1,95,2|8,3:0|0:3,0:0:0:0:
135,132,63370,2,0,P|120:182|124:230,1,95,2|2,0:0|3:0,0:0:0:0:
52,260,63663,1,8,0:3:0:0:
259,339,63809,5,12,0:3:0:0:
135,351,63956,1,2,3:0:0:0:
274,49,64102,2,0,L|340:55,1,47.5,2|2,3:0|0:0,0:0:0:0:
398,61,64248,1,8,0:3:0:0:
395,37,64321,1,0,0:0:0:0:
393,13,64394,1,8,0:3:0:0:
129,91,64541,1,8,0:0:0:0:
127,115,64614,1,8,0:0:0:0:
125,139,64687,1,8,0:0:0:0:
406,314,64834,6,0,L|396:219,1,95,12|0,0:0|3:0,0:0:0:0:
479,111,65127,2,0,L|486:183,1,47.5,2|0,0:3|0:0,0:0:0:0:
337,87,65273,2,0,L|409:79,3,47.5,8|0|2|0,0:3|0:0|0:3|3:0,0:0:0:0:
451,34,65566,1,8,0:3:0:0:
198,15,65712,1,2,3:0:0:0:
174,17,65785,1,2,0:0:0:0:
150,19,65858,1,8,0:3:0:0:
67,305,66005,1,4,0:0:0:0:
51,211,66151,5,12,0:3:0:0:
131,83,66297,2,0,L|115:176,1,95,2|8,3:0|0:3,0:0:0:0:
160,375,66590,2,0,P|169:328|165:279,1,95,2|0,3:0|3:0,0:0:0:0:
251,332,66883,1,8,0:3:0:0:
385,129,67029,1,2,0:0:0:0:
387,153,67102,1,2,0:0:0:0:
389,177,67175,2,0,L|393:231,1,47.5,4|0,0:0|0:0,0:0:0:0:
399,319,67322,5,0,3:0:0:0:
476,71,67468,2,0,L|343:58,1,95,0|8,0:0|0:3,0:0:0:0:
45,151,67761,1,8,0:3:0:0:
137,34,67907,2,0,L|127:128,1,95,8|2,0:3|0:0,0:0:0:0:
112,146,68127,1,2,0:0:0:0:
109,169,68200,2,0,L|102:235,1,47.5,2|2,3:0|0:0,0:0:0:0:
149,267,68346,2,0,L|144:314,1,47.5,8|0,0:3|0:0,0:0:0:0:
189,365,68492,6,0,P|239:374|289:366,1,95,4|2,0:0|0:3,0:0:0:0:
474,313,68785,1,4,3:2:0:0:
450,310,68858,1,0,3:0:0:0:
426,311,68931,1,8,0:3:0:0:
358,345,69078,1,8,0:3:0:0:
442,216,69224,1,8,0:0:0:0:
445,192,69297,1,8,0:0:0:0:
444,168,69370,1,8,0:0:0:0:
260,53,69517,6,0,L|137:46,1,95,8|2,0:0|3:0,0:0:0:0:
104,209,69809,2,0,L|97:128,2,47.5,2|0|8,0:3|0:0|0:3,0:0:0:0:
35,195,70102,1,2,0:3:0:0:
162,321,70248,1,8,0:3:0:0:
150,123,70395,1,2,3:0:0:0:
278,348,70541,1,8,0:3:0:0:
260,53,70688,1,2,3:0:0:0:
393,306,70834,5,4,0:0:0:0:
381,108,70980,2,0,L|388:227,1,95,8|2,0:3|3:0,0:0:0:0:
454,248,71273,1,2,3:0:0:0:
170,309,71419,1,2,0:3:0:0:
193,310,71492,1,0,0:0:0:0:
217,312,71565,1,8,0:3:0:0:
88,172,71712,2,0,L|92:227,1,47.5,2|2,0:0|0:0,0:0:0:0:
56,294,71858,5,2,3:0:0:0:
153,113,72005,1,0,3:0:0:0:
5,56,72151,1,2,0:3:0:0:
68,106,72297,1,8,0:3:0:0:
272,60,72444,1,0,3:0:0:0:
470,142,72590,2,0,L|416:138,1,47.5,8|0,0:3|0:0,0:0:0:0:
356,280,72736,1,2,0:3:0:0:
379,278,72809,1,2,0:0:0:0:
403,276,72882,1,2,3:0:0:0:
352,91,73029,1,8,0:3:0:0:
165,283,73175,6,0,L|159:385,1,95,4|2,0:0|0:3,0:0:0:0:
99,120,73468,1,4,3:2:0:0:
122,121,73541,1,0,3:0:0:0:
146,122,73614,1,8,0:3:0:0:
314,55,73761,1,8,0:3:0:0:
344,294,73907,1,8,0:0:0:0:
367,295,73980,1,8,0:0:0:0:
391,296,74053,1,8,0:0:0:0:
473,366,74200,1,8,0:0:0:0:
436,92,74346,5,2,3:0:0:0:
480,260,74492,2,0,L|488:137,1,95,2|8,0:3|0:3,0:0:0:0:
314,55,74785,2,0,L|319:-25,1,47.5,2|0,0:3|0:0,0:0:0:0:
396,1,74931,1,8,0:3:0:0:
148,69,75078,1,2,3:0:0:0:
146,92,75151,1,8,0:3:0:0:
144,116,75224,1,8,0:3:0:0:
33,250,75370,2,0,L|36:202,1,47.5,2|0,3:0|0:0,0:0:0:0:
229,348,75517,6,0,L|103:339,1,95,12|2,0:0|0:3,0:0:0:0:
82,99,75809,2,0,L|78:146,1,47.5,8|0,0:3|0:0,0:0:0:0:
128,194,75956,1,0,3:0:0:0:
353,103,76102,1,2,3:0:0:0:
353,103,76248,2,0,P|361:54|349:-2,1,95,0|8,3:0|0:3,0:0:0:0:
97,249,76541,2,0,L|94:304,1,47.5,2|0,3:3|0:0,0:0:0:0:
143,344,76687,6,0,L|140:388,6,23.75,0|0|0|0|0|0|0,3:0|0:0|3:0|0:0|3:0|0:0|3:0,0:0:0:0:
195,301,76980,1,8,0:3:0:0:
378,354,77127,1,8,0:3:0:0:
446,68,77273,2,0,L|434:229,1,142.5,8|0,0:0|0:0,0:0:0:0:
447,231,77566,2,0,L|450:183,1,47.5,2|0,3:0|0:0,0:0:0:0:
434,47,77712,2,0,L|430:94,1,47.5,8|0,0:3|0:0,0:0:0:0:
168,99,77858,5,4,0:0:0:0:
168,99,78005,2,0,L|55:91,1,95,0|2,0:0|3:0,0:0:0:0:
51,101,78224,1,0,0:0:0:0:
27,99,78297,2,0,L|-20:95,1,47.5,2|0,0:0|0:0,0:0:0:0:
82,192,78444,1,8,0:3:0:0:
310,42,78590,2,0,L|315:-37,1,47.5,2|2,0:0|0:0,0:0:0:0:
215,48,78736,1,8,0:3:0:0:
400,264,78883,6,0,L|396:158,1,95,8|2,0:3|0:3,0:0:0:0:
497,82,79175,2,0,L|493:176,1,95,0|8,0:0|0:3,0:0:0:0:
310,352,79468,1,0,0:0:0:0:
404,348,79614,2,0,L|510:344,2,95,8|2|0,0:0|0:3|3:0,0:0:0:0:
404,348,80200,6,0,P|391:296|397:243,1,95,12|0,0:0|0:0,0:0:0:0:
459,90,80492,1,8,0:3:0:0:
353,67,80639,1,10,0:3:0:0:
126,187,80785,1,0,3:0:0:0:
126,187,80931,2,0,L|132:296,1,95,8|2,0:3|0:0,0:0:0:0:
6,119,81224,6,0,P|58:106|111:112,1,95,0|2,0:0|3:0,0:0:0:0:
306,353,81517,2,0,P|254:366|201:360,1,95,0|8,0:0|0:3,0:0:0:0:
190,356,81735,1,8,0:3:0:0:
168,346,81809,2,0,L|107:347,1,47.5,2|0,3:0|3:0,0:0:0:0:
33,371,81956,1,8,0:3:0:0:
61,291,82102,1,2,0:0:0:0:
8,24,82248,2,0,L|4:152,1,95,2|0,3:0|0:0,0:0:0:0:
69,197,82541,5,0,3:0:0:0:
135,85,82687,1,0,3:0:0:0:
192,308,82834,2,0,L|189:361,2,47.5,2|2|8,0:0|0:0|0:3,0:0:0:0:
377,263,83127,2,0,P|392:187|374:116,1,142.5,8|0,0:3|0:0,0:0:0:0:
374,101,83419,2,0,P|397:167|391:238,1,142.5,2|0,3:0|0:0,0:0:0:0:
329,333,83712,5,2,3:0:0:0:
305,332,83785,1,0,0:0:0:0:
281,331,83858,1,2,0:0:0:0:
257,330,83931,1,2,0:0:0:0:
234,330,84004,1,8,0:3:0:0:
380,378,84151,1,0,3:0:0:0:
131,203,84297,2,0,L|121:332,1,95,8|2,0:0|0:3,0:0:0:0:
113,319,84517,1,2,0:0:0:0:
111,342,84590,2,0,L|108:377,6,23.75,8|0|8|0|8|0|8,0:3|0:0|0:3|0:0|0:3|0:0|0:3,0:0:0:0:
74,151,84883,5,8,0:0:0:0:
66,56,85029,1,2,3:0:0:0:
352,73,85175,1,8,0:3:0:0:
15,231,85322,1,8,0:0:0:0:
7,136,85468,1,2,3:0:0:0:
226,329,85614,1,8,0:3:0:0:
195,65,85761,5,8,0:0:0:0:
226,329,85907,1,2,3:0:0:0:
115,208,86053,1,2,3:0:0:0:
376,260,86200,1,2,0:3:0:0:
226,329,86346,1,8,0:3:0:0:
357,97,86492,1,8,0:3:0:0:
376,260,86638,1,8,0:3:0:0:
195,65,86785,1,2,0:3:0:0:
357,97,86931,1,2,3:0:0:0:
115,208,87078,1,8,0:3:0:0:
195,65,87224,5,4,0:0:0:0:
256,192,103614,12,8,105370,0:3:0:0:
63,175,105663,5,8,0:3:0:0:
65,144,105736,1,8,0:3:0:0:
66,112,105809,1,10,0:3:0:0:
67,81,105882,1,2,3:3:0:0:
51,53,105956,6,0,L|48:148,1,95,4|0,0:0|0:0,0:0:0:0:
111,327,106248,2,0,L|115:233,1,95,8|0,0:0|0:0,0:0:0:0:
287,369,106541,1,2,3:0:0:0:
197,336,106687,1,0,3:0:0:0:
462,276,106834,1,8,0:0:0:0:
389,324,106980,1,6,0:0:0:0:
376,296,107054,1,0,0:0:0:0:
374,264,107127,5,0,0:0:0:0:
446,184,107273,2,0,L|451:77,1,95,0|0,3:0|0:0,0:0:0:0:
311,36,107566,1,0,0:0:0:0:
313,68,107639,1,0,0:0:0:0:
332,94,107712,2,0,L|328:0,1,95,2|0,0:0|0:0,0:0:0:0:
110,135,108005,1,8,0:0:0:0:
110,135,108151,1,0,0:0:0:0:
154,365,108297,6,0,L|158:263,1,95,4|0,0:0|0:0,0:0:0:0:
19,157,108590,2,0,L|22:251,1,95,8|0,0:0|0:0,0:0:0:0:
279,316,108883,1,2,3:0:0:0:
367,288,109029,1,2,3:0:0:0:
323,50,109175,1,8,0:0:0:0:
455,260,109322,6,0,L|444:363,1,95,4|0,0:0|0:0,0:0:0:0:
362,111,109614,1,0,3:0:0:0:
456,121,109760,1,8,0:0:0:0:
232,10,109907,2,0,L|129:21,2,95,2|2|0,3:0|0:0|3:0,0:0:0:0:
122,168,110346,1,8,0:0:0:0:
90,164,110419,1,8,0:0:0:0:
59,161,110492,1,10,0:0:0:0:
27,157,110565,1,2,0:3:0:0:
2,138,110639,6,0,L|96:148,1,95,4|0,0:0|0:0,0:0:0:0:
223,317,110931,1,8,0:0:0:0:
128,327,111077,1,2,0:0:0:0:
356,376,111224,1,0,3:0:0:0:
366,282,111370,1,0,3:0:0:0:
149,116,111517,1,8,0:0:0:0:
159,22,111663,1,4,0:0:0:0:
190,25,111736,1,0,0:0:0:0:
221,28,111809,5,0,0:0:0:0:
72,231,111956,2,0,L|66:136,1,95,2|0,3:0|0:0,0:0:0:0:
187,322,112248,1,2,3:0:0:0:
184,352,112321,1,2,0:0:0:0:
166,378,112395,2,0,L|171:284,1,95,2|0,0:0|0:0,0:0:0:0:
432,238,112687,1,8,0:0:0:0:
432,238,112834,1,2,0:0:0:0:
355,347,112980,5,4,0:0:0:0:
389,110,113127,1,0,0:0:0:0:
491,156,113273,1,8,0:0:0:0:
335,32,113419,2,0,L|212:24,1,95,2|2,0:0|3:0,0:0:0:0:
33,111,113712,1,0,3:0:0:0:
69,16,113858,1,8,0:0:0:0:
150,258,114005,1,6,0:0:0:0:
148,289,114078,1,8,0:2:0:0:
146,321,114151,5,10,0:3:0:0:
2,206,114297,2,0,L|106:196,1,95,0|8,3:0|0:0,0:0:0:0:
226,355,114590,1,2,3:0:0:0:
257,351,114663,1,0,0:0:0:0:
289,348,114736,1,6,0:0:0:0:
442,243,114883,1,10,0:0:0:0:
472,240,114956,1,8,0:3:0:0:
503,236,115029,1,8,0:0:0:0:
466,299,115102,1,8,0:0:0:0:
395,286,115175,1,10,0:0:0:0:
387,213,115248,1,2,3:3:0:0:
454,183,115321,5,6,0:0:0:0:
446,57,115468,1,2,0:0:0:0:
135,128,115614,1,10,0:0:0:0:
126,253,115761,2,0,L|117:361,1,95,2|0,3:0|0:0,0:0:0:0:
29,145,116053,2,0,L|38:37,1,95,2|8,3:3|0:0,0:0:0:0:
329,315,116346,6,0,P|276:333|212:325,1,95,6|0,0:0|0:0,0:0:0:0:
370,125,116639,1,2,3:3:0:0:
472,145,116785,1,10,0:0:0:0:
302,33,116931,2,0,L|199:43,1,95,2|0,3:0|0:0,0:0:0:0:
99,58,117224,1,2,3:3:0:0:
158,367,117370,2,0,L|161:267,1,95,10|0,0:0|0:0,0:0:0:0:
59,129,117663,5,6,0:0:0:0:
65,260,117809,1,2,0:0:0:0:
407,367,117956,1,10,0:0:0:0:
413,236,118102,2,0,L|418:135,1,95,2|0,3:0|0:0,0:0:0:0:
230,322,118395,2,0,L|331:327,1,95,2|8,3:3|0:0,0:0:0:0:
484,62,118687,6,0,P|428:32|358:30,1,95,6|0,0:0|0:0,0:0:0:0:
187,82,118980,1,2,3:3:0:0:
83,60,119127,1,10,0:0:0:0:
13,266,119273,2,0,L|115:256,1,95,2|0,3:0|0:0,0:0:0:0:
190,321,119566,1,2,3:3:0:0:
476,210,119712,2,0,L|381:200,1,95,10|0,0:0|0:0,0:0:0:0:
271,349,120005,5,6,0:0:0:0:
412,335,120151,1,2,0:0:0:0:
256,62,120297,1,10,0:0:0:0:
114,77,120444,2,0,P|67:75|17:59,1,95,2|0,3:0|0:0,0:0:0:0:
382,14,120736,2,0,P|380:61|364:111,1,95,2|8,3:3|0:0,0:0:0:0:
99,273,121029,6,0,L|110:166,1,95,6|0,0:0|0:0,0:0:0:0:
33,342,121322,1,2,3:3:0:0:
13,234,121468,1,10,0:0:0:0:
248,341,121614,2,0,L|366:331,1,95,2|0,3:0|0:0,0:0:0:0:
418,322,121907,1,2,3:3:0:0:
100,83,122053,2,0,L|108:177,1,95,10|0,0:0|0:0,0:0:0:0:
457,226,122346,5,14,0:0:0:0:
120,381,122492,1,12,0:0:0:0:
144,262,122639,1,8,3:3:0:0:
402,384,122785,2,0,L|500:372,1,95,2|2,3:0|0:0,0:0:0:0:
429,153,123078,2,0,L|439:76,2,47.5,10|2|8,0:3|0:3|0:3,0:0:0:0:
273,55,123370,6,0,L|266:7,1,47.5,12|0,0:0|0:0,0:0:0:0:
154,37,123517,2,0,L|201:43,3,47.5,2|0|2|2,3:0|0:0|0:3|0:0,0:0:0:0:
344,66,123809,1,8,0:3:0:0:
131,197,123956,1,2,0:3:0:0:
132,172,124029,1,2,0:0:0:0:
134,148,124102,1,8,0:0:0:0:
16,34,124248,1,2,3:0:0:0:
17,57,124321,1,8,0:3:0:0:
19,81,124394,1,8,0:3:0:0:
177,288,124541,6,0,L|168:382,1,95,6|0,0:0|0:0,0:0:0:0:
