osu file format v14

[General]
AudioFilename: audio.mp3
AudioLeadIn: 0
PreviewTime: 23858
Countdown: 0
SampleSet: Soft
StackLeniency: 0.4
Mode: 0
LetterboxInBreaks: 0
WidescreenStoryboard: 1

[Editor]
Bookmarks: 590,9956,19322,28687,38053,56785,66151,73175,75517,84883,87224,96590,105956,115322,124687
DistanceSpacing: 1.2
BeatDivisor: 2
GridSize: 4
TimelineZoom: 1.4

[Metadata]
Title:Cookie Bouquets
TitleUnicode:Cookie Bouquets
Artist:Dormir
ArtistUnicode:Dormir
Creator:dsco
Version:Normal
Source:beatmania IIDX 15 DJ TROOPERS
Tags:tomosuke crimm petit march konami L.E.D. breakcore fanzhen0019 finshie sammish su1fu7 fanzhen sulfur bemani cs reflec beat limelight Vincent Bui Naoya Miyadai Ryousuke Takeuchi D.B.D
BeatmapID:1431285
BeatmapSetID:675125

[Difficulty]
HPDrainRate:3
CircleSize:3.3
OverallDifficulty:3
ApproachRate:3.5
SliderMultiplier:0.749999999999999
SliderTickRate:1

[Events]
//Background and Video events
0,0,"fuck.jpg",0,0
//Break Periods
2,87424,99893
//Storyboard Layer 0 (Background)
//Storyboard Layer 1 (Fail)
//Storyboard Layer 2 (Pass)
//Storyboard Layer 3 (Foreground)
//Storyboard Sound Samples

[TimingPoints]
590.427184466019,292.682926829268,4,2,0,60,1,0
101127,-100,4,2,0,30,0,0
105517,-100,4,2,0,60,0,0
105956,-100,4,2,0,60,0,1
124395,-100,4,2,0,60,0,0

[Colours]
Combo1 : 97,170,194
Combo2 : 253,215,239
Combo3 : 220,71,98
Combo4 : 210,234,242

[HitObjects]
106,351,19029,5,8,0:3:0:0:
186,309,19322,2,0,L|193:217,1,74.9999999999999,4|8,0:0|0:0,0:0:0:0:
260,176,19907,2,0,L|253:84,1,74.9999999999999,2|8,3:0|0:0,0:0:0:0:
253,56,20346,2,0,B|210:51|210:51|155:65,2,74.9999999999999,6|0|0,0:0|3:0|0:0,0:0:0:0:
384,86,21370,1,8,0:0:0:0:
467,51,21663,6,0,P|473:97|460:138,1,74.9999999999999,4|8,0:0|0:0,0:0:0:0:
395,179,22248,2,0,P|389:225|402:266,1,74.9999999999999,2|8,3:0|0:0,0:0:0:0:
423,287,22687,2,0,L|524:273,2,74.9999999999999,4|0|2,0:0|3:0|3:0,0:0:0:0:
302,348,23712,1,8,0:0:0:0:
225,300,24005,6,0,B|188:288|188:288|136:293,1,74.9999999999999,4|8,0:0|0:0,0:0:0:0:
108,277,24444,2,0,B|72:280|72:280|35:268,2,74.9999999999999,2|0|4,0:0|3:0|0:0,0:0:0:0:
137,192,25322,2,0,L|211:185,1,74.9999999999999,2|0,3:0|0:0,0:0:0:0:
345,170,26053,1,8,0:0:0:0:
405,103,26346,5,4,0:0:0:0:
405,103,26492,2,0,L|501:106,2,74.9999999999999,0|2|0,0:0|0:0|3:0,0:0:0:0:
332,50,27370,2,0,L|257:47,1,74.9999999999999,6|0,0:0|3:0,0:0:0:0:
226,80,27809,1,0,0:0:0:0:
226,80,27956,2,0,L|100:76,1,112.5,2|8,3:0|0:0,0:0:0:0:
29,106,28687,6,0,P|12:164|33:219,1,112.5,6|2,0:0|3:0,0:0:0:0:
108,252,29419,1,2,3:3:0:0:
193,281,29712,2,0,B|235:295|235:295|333:281,1,112.5,6|0,0:0|0:0,0:0:0:0:
325,246,30297,2,0,B|392:236|392:236|434:250,1,112.5,2|10,3:0|0:0,0:0:0:0:
498,186,31029,6,0,P|505:119|484:62,1,112.5,6|2,0:0|3:0,0:0:0:0:
415,29,31761,1,2,3:3:0:0:
345,85,32053,2,0,P|291:102|228:88,1,112.5,6|10,0:0|0:0,0:0:0:0:
194,76,32639,2,0,P|139:66|86:83,1,112.5,2|10,3:0|0:0,0:0:0:0:
58,168,33370,6,0,L|48:303,1,112.5,6|2,0:0|3:0,0:0:0:0:
114,342,34102,1,2,3:3:0:0:
189,292,34395,2,0,B|263:302|263:302|299:292,1,112.5,6|0,0:0|0:0,0:0:0:0:
338,268,34980,2,0,B|374:258|374:258|448:268,1,112.5,2|10,3:0|0:0,0:0:0:0:
495,191,35712,5,4,0:0:0:0:
495,191,35858,2,0,L|504:102,1,74.9999999999999,4|6,0:0|0:0,0:0:0:0:
430,62,36444,1,2,0:3:0:0:
354,110,36736,2,0,P|307:126|236:103,1,112.5,6|8,0:0|0:0,0:0:0:0:
176,166,37468,2,0,L|89:163,1,74.9999999999999,8|8,0:0|0:0,0:0:0:0:
40,230,38053,5,4,0:0:0:0:
40,230,38200,2,0,P|23:286|52:361,1,112.5,0|2,0:0|0:0,0:0:0:0:
122,357,38931,1,2,0:0:0:0:
122,357,39078,2,0,L|207:353,1,74.9999999999999,2|2,3:3|0:0,0:0:0:0:
265,294,39663,2,0,B|339:297|339:297|386:272,1,112.5,8|8,0:3|0:3,0:0:0:0:
429,208,40395,6,0,P|453:163|449:108,1,74.9999999999999,0|0,3:0|0:0,0:0:0:0:
443,96,40834,1,0,0:0:0:0:
367,46,41127,2,0,L|287:39,1,74.9999999999999,8|2,0:3|0:3,0:0:0:0:
210,75,41712,2,0,L|143:69,2,37.5,0|0|0,3:0|3:0|3:0,0:0:0:0:
270,196,42444,1,8,0:3:0:0:
218,269,42736,6,0,P|176:274|135:265,1,74.9999999999999,8|8,0:3|0:3,0:0:0:0:
61,305,43322,2,0,P|56:263|65:222,1,74.9999999999999,2|2,0:0|0:0,0:0:0:0:
74,187,43761,2,0,L|-12:196,2,74.9999999999999,2|2|8,3:0|0:0|0:3,0:0:0:0:
149,75,44785,1,8,0:3:0:0:
234,101,45078,6,0,L|323:93,1,74.9999999999999,0|8,3:0|0:3,0:0:0:0:
349,72,45517,2,0,P|364:106|365:144,1,74.9999999999999,2|0,0:0|0:0,0:0:0:0:
300,206,46102,1,2,0:3:0:0:
347,282,46395,2,0,L|402:279,2,37.5,0|8|0,3:0|0:3|3:0,0:0:0:0:
224,340,47127,1,8,0:3:0:0:
136,319,47419,5,4,0:0:0:0:
136,319,47566,2,0,L|128:238,1,74.9999999999999,0|0,0:0|3:0,0:0:0:0:
42,217,48151,2,0,L|50:136,1,74.9999999999999,8|2,0:3|0:0,0:0:0:0:
114,80,48736,2,0,P|150:66|206:68,1,74.9999999999999,2|8,0:0|0:3,0:0:0:0:
300,135,49468,1,8,0:3:0:0:
348,58,49761,6,0,B|423:53|423:53|467:71,1,112.5,2|0,3:0|3:0,0:0:0:0:
506,142,50492,2,0,P|511:181|503:230,1,74.9999999999999,8|2,0:3|0:3,0:0:0:0:
447,284,51078,2,0,L|453:343,2,37.5,0|0|0,3:0|3:0|3:0,0:0:0:0:
318,243,51809,1,8,0:3:0:0:
249,185,52102,5,0,3:0:0:0:
249,185,52248,2,0,L|257:97,2,74.9999999999999,2|0|8,0:0|3:0|3:3,0:0:0:0:
135,259,53273,1,0,3:0:0:0:
135,259,53419,2,0,L|127:347,2,74.9999999999999,2|8|2,3:0|0:3|3:0,0:0:0:0:
49,154,54444,6,0,P|38:107|62:36,1,112.5,0|0,3:0|0:0,0:0:0:0:
140,20,55175,2,0,B|177:17|177:17|222:25,1,74.9999999999999,8|2,0:3|0:3,0:0:0:0:
301,45,55761,2,0,L|352:39,2,37.5,2|8|2,0:3|0:3|3:0,0:0:0:0:
256,172,56492,1,8,0:0:0:0:
181,121,56785,5,12,0:0:0:0:
181,121,56931,2,0,P|165:164|177:216,1,74.9999999999999,2|2,3:0|3:0,0:0:0:0:
227,259,57517,2,0,L|318:251,1,74.9999999999999,2|4,3:0|3:2,0:0:0:0:
383,215,58102,2,0,B|390:257|390:257|379:292,2,74.9999999999999,2|2|2,0:3|3:0|0:0,0:0:0:0:
358,81,59127,5,12,0:2:0:0:
358,81,59273,2,0,P|296:59|260:61,1,74.9999999999999,2|2,3:0|3:0,0:0:0:0:
210,105,59858,2,0,L|125:101,1,74.9999999999999,2|4,3:0|3:2,0:0:0:0:
50,132,60444,2,0,L|-15:128,2,37.5,2|8|2,0:3|0:3|3:0,0:0:0:0:
116,192,61029,1,2,0:3:0:0:
195,301,61468,5,12,0:0:0:0:
195,301,61614,2,0,L|302:295,1,74.9999999999999,2|2,3:0|3:0,0:0:0:0:
328,228,62200,2,0,L|435:233,1,74.9999999999999,2|4,3:0|3:2,0:0:0:0:
480,186,62785,2,0,P|489:143|468:94,2,74.9999999999999,2|2|2,0:3|3:0|0:0,0:0:0:0:
433,316,63809,5,12,0:3:0:0:
433,316,63956,2,0,L|358:312,1,74.9999999999999,2|8,3:0|0:3,0:0:0:0:
269,328,64541,2,0,B|231:333|231:333|194:324,1,74.9999999999999,8|12,0:0|0:0,0:0:0:0:
110,293,65127,2,0,L|45:289,2,37.5,2|8|2,0:3|0:3|0:3,0:0:0:0:
180,236,65712,1,2,3:0:0:0:
109,179,66005,6,0,P|88:136|109:38,2,150,4|2|4,0:0|3:0|0:0,0:0:0:0:
192,146,67468,2,0,B|232:139|232:139|288:146,1,74.9999999999999,0|8,0:0|0:3,0:0:0:0:
305,166,67907,2,0,B|339:170|339:170|379:163,1,74.9999999999999,8|2,0:3|3:0,0:0:0:0:
453,213,68492,6,0,P|468:173|453:112,1,74.9999999999999,4|4,0:0|3:2,0:0:0:0:
403,76,69078,1,8,0:3:0:0:
403,76,69224,2,0,B|368:71|368:71|328:78,1,74.9999999999999,8|8,0:0|0:0,0:0:0:0:
252,30,69809,2,0,L|168:44,1,74.9999999999999,2|2,0:3|0:3,0:0:0:0:
142,70,70248,2,0,L|78:58,2,37.5,8|2|8,0:3|3:0|0:3,0:0:0:0:
206,133,70834,6,0,P|220:171|211:248,1,112.5,4|2,0:0|3:0,0:0:0:0:
153,309,71566,2,0,P|187:329|236:330,1,74.9999999999999,8|2,0:3|3:0,0:0:0:0:
296,281,72151,2,0,P|327:261|364:257,1,74.9999999999999,2|0,0:3|3:0,0:0:0:0:
407,270,72590,2,0,B|420:236|420:236|411:177,1,74.9999999999999,8|2,0:3|3:0,0:0:0:0:
402,108,73175,6,0,P|364:98|295:105,1,74.9999999999999,4|4,0:0|3:2,0:0:0:0:
247,138,73761,1,8,0:3:0:0:
247,138,73907,2,0,P|209:137|173:127,1,74.9999999999999,8|8,0:0|0:0,0:0:0:0:
121,53,74492,2,0,P|86:107|89:160,1,112.5,2|8,0:3|0:3,0:0:0:0:
150,217,75224,1,8,0:3:0:0:
89,285,75517,6,0,B|130:305|130:305|242:295,1,150,12|2,0:0|3:0,0:0:0:0:
278,290,76248,1,0,3:0:0:0:
324,212,76541,2,0,P|363:201|415:209,1,74.9999999999999,2|0,3:3|3:0,0:0:0:0:
483,229,77127,2,0,P|484:191|474:155,1,74.9999999999999,8|0,0:3|0:0,0:0:0:0:
442,123,77566,1,2,3:0:0:0:
357,93,77858,6,0,L|197:83,1,150,4|8,0:0|0:3,0:0:0:0:
162,80,78590,1,2,0:0:0:0:
83,35,78883,2,0,B|68:71|68:71|75:116,1,74.9999999999999,8|0,0:3|0:0,0:0:0:0:
136,171,79468,2,0,B|141:206|141:206|126:242,1,74.9999999999999,0|2,0:0|0:3,0:0:0:0:
105,282,79907,1,0,3:0:0:0:
177,335,80200,6,0,P|256:347|328:316,1,150,12|0,0:0|3:0,0:0:0:0:
353,292,80931,1,8,0:3:0:0:
436,326,81224,2,0,L|444:241,1,74.9999999999999,0|0,0:0|0:0,0:0:0:0:
380,186,81809,2,0,L|387:111,1,74.9999999999999,2|2,3:0|0:0,0:0:0:0:
392,66,82248,1,2,3:0:0:0:
303,84,82541,6,0,L|310:9,2,74.9999999999999,0|2|8,3:0|0:0|0:3,0:0:0:0:
218,114,83419,1,2,3:0:0:0:
137,73,83712,2,0,L|132:25,2,37.5,2|2|8,3:0|0:0|0:3,0:0:0:0:
138,163,84297,2,0,L|51:152,1,74.9999999999999,8|8,0:0|0:3,0:0:0:0:
10,226,84883,6,0,B|41:249|41:249|111:257,1,74.9999999999999,8|8,0:0|0:3,0:0:0:0:
112,280,85322,2,0,B|150:284|150:284|214:256,1,74.9999999999999,8|8,0:0|0:3,0:0:0:0:
227,279,85761,2,0,B|260:264|260:264|298:268,1,74.9999999999999,8|2,0:0|3:0,0:0:0:0:
388,279,86346,1,8,0:3:0:0:
459,224,86639,2,0,L|515:230,2,37.5,8|2|2,0:3|0:3|3:0,0:0:0:0:
434,185,87078,1,0,0:0:0:0:
434,185,87224,1,4,0:0:0:0:
256,192,101273,12,8,104785,0:3:0:0:
378,104,105663,5,8,0:3:0:0:
294,71,105956,2,0,L|287:163,1,74.9999999999999,4|8,0:0|0:0,0:0:0:0:
219,203,106541,2,0,B|178:208|178:208|127:196,1,74.9999999999999,2|8,3:0|0:0,0:0:0:0:
100,208,106980,2,0,B|67:200|67:200|26:205,2,74.9999999999999,6|0|0,0:0|3:0|0:0,0:0:0:0:
185,312,108005,1,8,0:0:0:0:
259,362,108297,6,0,P|309:366|342:352,1,74.9999999999999,4|8,0:0|0:0,0:0:0:0:
398,297,108883,2,0,L|404:216,1,74.9999999999999,2|8,3:0|0:0,0:0:0:0:
433,187,109322,2,0,B|471:182|471:182|505:193,2,74.9999999999999,4|0|2,0:0|3:0|3:0,0:0:0:0:
300,210,110346,1,8,0:0:0:0:
225,158,110639,6,0,P|212:121|217:78,1,74.9999999999999,4|8,0:0|0:0,0:0:0:0:
240,47,111078,2,0,L|332:40,2,74.9999999999999,2|0|4,0:0|3:0|0:0,0:0:0:0:
155,15,111956,2,0,L|74:21,1,74.9999999999999,2|0,3:0|0:0,0:0:0:0:
31,146,112687,1,8,0:0:0:0:
99,204,112980,5,4,0:0:0:0:
99,204,113127,2,0,P|119:157|114:114,1,74.9999999999999,0|0,0:0|0:0,0:0:0:0:
198,92,113712,2,0,L|279:98,1,74.9999999999999,0|6,3:0|0:0,0:0:0:0:
347,46,114297,2,0,L|428:52,1,74.9999999999999,0|2,3:0|3:0,0:0:0:0:
466,56,114736,1,0,0:0:0:0:
508,135,115029,1,8,0:0:0:0:
465,214,115322,6,0,B|439:220|439:220|340:206,1,112.5,6|0,0:0|0:0,0:0:0:0:
267,232,116053,1,2,3:3:0:0:
192,282,116346,2,0,P|176:233|204:166,1,112.5,6|0,0:0|0:0,0:0:0:0:
223,142,116931,2,0,P|241:89|225:36,1,112.5,2|10,3:0|0:0,0:0:0:0:
135,46,117663,6,0,B|78:36|78:36|11:46,1,112.5,6|2,0:0|3:0,0:0:0:0:
1,131,118395,1,2,3:3:0:0:
62,196,118687,2,0,B|90:210|90:210|182:205,1,112.5,6|10,0:0|0:0,0:0:0:0:
216,201,119273,2,0,B|297:196|297:196|325:210,1,112.5,2|10,3:0|0:0,0:0:0:0:
415,208,120005,6,0,B|438:168|438:168|428:81,1,112.5,6|0,0:0|0:0,0:0:0:0:
362,44,120736,1,2,3:3:0:0:
291,99,121029,2,0,L|163:94,1,112.5,6|0,0:0|0:0,0:0:0:0:
145,124,121614,2,0,L|32:119,1,112.5,2|10,3:0|0:0,0:0:0:0:
59,205,122346,5,14,0:0:0:0:
59,205,122492,2,0,L|158:208,1,74.9999999999999,12|2,0:0|3:0,0:0:0:0:
204,264,123078,1,10,0:3:0:0:
279,215,123370,2,0,P|339:205|403:228,1,112.5,12|8,0:0|0:3,0:0:0:0:
453,280,124102,1,8,0:0:0:0:
475,192,124395,1,8,0:3:0:0:
475,192,124541,1,6,0:0:0:0:
