osu file format v14

[General]
AudioFilename: audio.mp3
AudioLeadIn: 0
PreviewTime: 23858
Countdown: 0
SampleSet: Soft
StackLeniency: 0.3
Mode: 0
LetterboxInBreaks: 0
WidescreenStoryboard: 1

[Editor]
Bookmarks: 590,9956,19322,28687,38053,55614,56785,66151,68639,73175,75517,84883,87224,96590,105956,115322,124687
DistanceSpacing: 1.2
BeatDivisor: 4
GridSize: 4
TimelineZoom: 1.4

[Metadata]
Title:Cookie Bouquets
TitleUnicode:Cookie Bouquets
Artist:Dormir
ArtistUnicode:Dormir
Creator:dsco
Version:Hard
Source:beatmania IIDX 15 DJ TROOPERS
Tags:tomosuke crimm petit march konami L.E.D. breakcore fanzhen0019 finshie sammish su1fu7 fanzhen sulfur bemani cs reflec beat limelight Vincent Bui Naoya Miyadai Ryousuke Takeuchi D.B.D
BeatmapID:1454925
BeatmapSetID:675125

[Difficulty]
HPDrainRate:4.7
CircleSize:3.5
OverallDifficulty:6
ApproachRate:6.5
SliderMultiplier:1.35
SliderTickRate:1

[Events]
//Background and Video events
0,0,"fuck.jpg",0,0
//Break Periods
2,87424,102639
//Storyboard Layer 0 (Background)
//Storyboard Layer 1 (Fail)
//Storyboard Layer 2 (Pass)
//Storyboard Layer 3 (Foreground)
//Storyboard Sound Samples

[TimingPoints]
590.427184466019,292.682926829268,4,2,0,60,1,0
103614,-100,4,2,0,30,0,0
105517,-100,4,2,0,60,0,0
105956,-100,4,2,0,60,0,1
124395,-100,4,2,0,60,0,0

[Colours]
Combo1 : 97,170,194
Combo2 : 253,215,239
Combo3 : 220,71,98
Combo4 : 210,234,242

[HitObjects]
493,81,19029,5,8,0:3:0:0:
493,81,19102,1,8,0:3:0:0:
493,81,19175,1,10,0:3:0:0:
451,151,19322,6,0,B|470:189|470:189|459:297,1,135,4|8,0:0|0:0,0:0:0:0:
322,365,19907,2,0,B|302:326|302:326|313:218,1,135,2|8,3:0|0:0,0:0:0:0:
258,173,20346,6,0,L|264:105,1,67.5,6|0,0:0|0:0,0:0:0:0:
213,43,20639,2,0,P|177:32|133:44,1,67.5,0|0,3:0|0:0,0:0:0:0:
73,5,20931,1,2,3:0:0:0:
87,85,21078,2,0,L|73:231,1,135,2|8,0:0|0:0,0:0:0:0:
190,330,21663,6,0,P|258:350|319:321,1,135,4|8,0:0|0:0,0:0:0:0:
372,267,22102,1,0,0:0:0:0:
436,315,22248,2,0,L|430:384,2,67.5,2|2|8,3:0|3:0|0:0,0:0:0:0:
508,278,22687,6,0,L|502:210,1,67.5,4|0,0:0|0:0,0:0:0:0:
430,172,22980,2,0,L|435:104,1,67.5,0|8,3:0|0:0,0:0:0:0:
381,44,23273,2,0,P|334:64|230:55,1,135,2|0,3:0|3:0,0:0:0:0:
175,32,23712,2,0,L|167:-18,2,33.75,8|8|10,0:0|0:0|0:0,0:0:0:0:
101,111,24005,6,0,L|95:205,1,67.5,4|0,0:0|0:0,0:0:0:0:
91,258,24297,1,8,0:0:0:0:
164,223,24444,2,0,B|197:209|197:209|312:229,1,135,2|0,0:0|3:0,0:0:0:0:
373,246,24883,1,8,0:0:0:0:
449,218,25029,6,0,P|473:181|473:137,1,67.5,4|0,0:0|0:0,0:0:0:0:
412,107,25322,2,0,P|414:62|392:24,1,67.5,2|0,3:0|0:0,0:0:0:0:
336,1,25614,1,2,3:0:0:0:
268,46,25761,2,0,L|111:30,1,135,2|8,0:0|0:0,0:0:0:0:
34,160,26346,5,4,0:0:0:0:
84,222,26492,2,0,P|111:182|77:92,2,135,0|2|0,0:0|0:0|3:0,0:0:0:0:
3,234,27224,1,8,0:0:0:0:
55,328,27370,6,0,L|140:334,1,67.5,6|10,0:0|0:3,0:0:0:0:
195,252,27663,2,0,L|280:246,1,67.5,0|8,3:0|0:0,0:0:0:0:
336,326,27956,2,0,P|402:339|475:297,1,135,2|10,3:0|0:0,0:0:0:0:
480,232,28395,2,0,L|525:221,2,33.75,8|8|10,0:0|0:0|0:0,0:0:0:0:
389,173,28687,6,0,P|377:138|388:89,1,67.5,6|2,0:0|0:0,0:0:0:0:
415,34,28980,1,10,0:0:0:0:
340,2,29127,2,0,L|199:14,1,135,2|0,3:0|0:0,0:0:0:0:
53,70,29712,6,0,P|36:129|54:210,1,135,6|2,0:0|3:3,0:0:0:0:
110,253,30151,1,10,0:0:0:0:
63,319,30297,2,0,B|108:343|108:343|211:331,1,135,2|2,3:0|3:3,0:0:0:0:
245,272,30736,2,0,L|311:263,1,67.5,10|0,0:0|0:0,0:0:0:0:
382,302,31029,6,0,P|392:267|379:219,1,67.5,6|2,0:0|0:0,0:0:0:0:
366,157,31322,1,10,0:0:0:0:
417,94,31468,2,0,B|433:69|433:69|306:76,1,135,2|2,3:0|3:3,0:0:0:0:
181,5,32053,6,0,L|46:12,1,135,6|2,0:0|3:3,0:0:0:0:
8,84,32492,1,10,0:0:0:0:
70,136,32639,2,0,P|86:175|79:265,1,135,2|2,3:0|3:3,0:0:0:0:
126,332,33078,2,0,P|150:299|161:265,1,67.5,10|0,0:0|0:0,0:0:0:0:
215,216,33370,6,0,L|299:219,1,67.5,6|2,0:0|0:0,0:0:0:0:
354,180,33663,1,10,0:0:0:0:
323,105,33809,2,0,P|374:101|436:180,1,135,2|2,3:0|3:3,0:0:0:0:
388,312,34395,6,0,B|350:334|350:334|233:325,1,135,6|2,0:0|3:3,0:0:0:0:
182,353,34834,1,10,0:0:0:0:
114,308,34980,2,0,P|83:253|105:159,1,135,2|2,3:0|3:3,0:0:0:0:
162,147,35419,2,0,L|171:69,1,67.5,10|0,0:0|0:0,0:0:0:0:
256,14,35712,5,4,0:0:0:0:
317,66,35858,2,0,L|309:133,1,67.5,4|8,0:0|0:3,0:0:0:0:
343,206,36151,2,0,P|379:215|418:208,1,67.5,6|8,0:0|0:3,0:0:0:0:
479,251,36444,2,0,L|520:246,2,33.75,2|0|0,0:3|0:3|0:0,0:0:0:0:
461,329,36736,6,0,L|299:309,1,135,6|2,0:0|3:0,0:0:0:0:
261,360,37175,1,8,0:0:0:0:
208,297,37322,2,0,L|215:255,2,33.75,2|0|8,3:0|0:0|0:0,0:0:0:0:
140,341,37614,2,0,L|133:383,2,33.75,2|2|8,3:0|3:0|0:0,0:0:0:0:
86,279,37907,1,0,0:0:0:0:
100,172,38053,5,4,0:0:0:0:
27,134,38200,2,0,B|10:86|10:86|38:-5,1,135,0|0,0:0|3:0,0:0:0:0:
101,52,38639,2,0,P|170:67|251:56,1,135,2|2,0:0|0:0,0:0:0:0:
309,90,39078,2,0,P|371:75|443:81,2,135,2|2|8,3:3|0:0|0:3,0:0:0:0:
277,164,39809,2,0,L|243:161,2,33.75,2|2|2,0:0|0:0|0:3,0:0:0:0:
332,223,40102,2,0,P|341:259|333:295,1,67.5,8|2,0:3|3:0,0:0:0:0:
300,361,40395,6,0,L|151:352,1,135,0|8,3:0|0:3,0:0:0:0:
87,377,40834,2,0,B|67:337|67:337|80:244,1,135,0|8,0:0|0:3,0:0:0:0:
109,88,41419,1,2,0:3:0:0:
177,44,41566,6,0,L|248:40,1,67.5,0|0,3:0|3:0,0:0:0:0:
229,119,41858,2,0,L|296:115,1,67.5,0|0,3:0|3:0,0:0:0:0:
373,89,42151,2,0,B|475:83|475:83|453:125,1,135,8|8,0:3|0:3,0:0:0:0:
425,185,42590,1,2,3:0:0:0:
481,243,42736,6,0,P|490:278|481:314,1,67.5,8|0,0:3|0:0,0:0:0:0:
410,343,43029,2,0,P|401:308|410:272,1,67.5,8|0,0:3|3:0,0:0:0:0:
344,225,43322,2,0,B|310:241|310:241|203:232,1,135,2|2,0:0|0:0,0:0:0:0:
164,167,43761,2,0,P|135:208|154:290,2,135,2|2|8,3:0|0:0|0:3,0:0:0:0:
243,154,44492,2,0,L|293:158,2,33.75,2|2|2,0:0|0:0|0:3,0:0:0:0:
193,89,44785,2,0,L|102:83,1,67.5,8|2,0:3|3:0,0:0:0:0:
73,21,45078,6,0,B|40:58|40:58|51:150,1,135,0|8,3:0|0:3,0:0:0:0:
16,217,45517,2,0,B|26:301|26:301|67:329,1,135,2|0,0:0|0:0,0:0:0:0:
191,224,46102,1,2,0:3:0:0:
226,297,46248,6,0,P|269:312|313:305,1,67.5,8|0,0:3|3:0,0:0:0:0:
354,361,46541,2,0,P|368:318|361:274,1,67.5,8|0,0:3|3:0,0:0:0:0:
318,232,46834,1,8,0:3:0:0:
368,168,46980,2,0,L|409:171,2,33.75,2|2|8,0:0|0:0|0:3,0:0:0:0:
322,100,47273,1,8,0:3:0:0:
262,44,47419,5,4,0:0:0:0:
207,104,47566,2,0,P|151:114|71:85,1,135,0|0,0:0|3:0,0:0:0:0:
13,239,48151,2,0,B|-10:203|-10:203|2:82,2,135,8|2|2,0:3|0:0|0:0,0:0:0:0:
76,289,48883,1,8,0:3:0:0:
142,243,49029,2,0,P|189:227|291:262,1,135,8|8,0:3|0:3,0:0:0:0:
346,217,49468,1,8,0:3:0:0:
456,98,49761,6,0,B|475:65|475:65|354:79,1,135,2|8,3:0|0:3,0:0:0:0:
307,36,50200,2,0,B|210:47|210:47|229:14,2,135,0|8|2,3:0|0:3|0:3,0:0:0:0:
310,116,50931,2,0,L|314:203,1,67.5,0|0,3:0|3:0,0:0:0:0:
254,240,51224,2,0,L|250:327,1,67.5,0|0,3:0|3:0,0:0:0:0:
179,345,51517,2,0,L|181:388,2,33.75,8|0|2,0:3|0:0|0:0,0:0:0:0:
119,290,51809,2,0,L|117:256,2,33.75,8|0|2,0:3|0:0|3:0,0:0:0:0:
55,340,52102,5,0,3:0:0:0:
0,278,52248,2,0,B|-13:246|-13:246|5:142,1,135,2|0,0:0|3:0,0:0:0:0:
54,82,52687,2,0,P|90:93|130:84,1,67.5,0|8,0:0|3:3,0:0:0:0:
183,38,52980,2,0,P|216:34|248:44,1,67.5,2|2,0:0|0:3,0:0:0:0:
318,4,53273,5,0,3:0:0:0:
370,65,53419,2,0,B|383:97|383:97|365:201,1,135,2|8,3:0|0:3,0:0:0:0:
305,250,53858,2,0,L|313:343,2,67.5,2|2|8,0:0|3:0|0:3,0:0:0:0:
206,120,54444,6,0,L|51:113,1,135,0|8,3:0|0:3,0:0:0:0:
0,154,54883,1,0,0:0:0:0:
68,196,55029,2,0,P|90:239|67:322,1,135,2|8,0:0|0:3,0:0:0:0:
136,365,55468,6,0,B|211:374|211:374|271:347,1,135,2|2,0:3|0:3,0:0:0:0:
324,294,55907,2,0,P|361:285|402:301,1,67.5,8|2,0:3|3:0,0:0:0:0:
454,339,56200,1,8,0:3:0:0:
463,258,56346,1,0,3:0:0:0:
472,177,56492,1,8,0:0:0:0:
365,54,56785,6,0,L|272:52,1,67.5,12|2,0:0|3:0,0:0:0:0:
221,23,57078,1,8,0:3:0:0:
235,102,57224,2,0,P|168:109|93:98,2,135,2|2|4,3:0|3:0|3:2,0:0:0:0:
307,246,58102,6,0,L|374:244,1,67.5,2|8,0:3|0:3,0:0:0:0:
438,294,58395,2,0,B|462:257|462:257|453:159,2,135,2|2|8,3:0|0:0|0:3,0:0:0:0:
363,327,59127,6,0,L|295:328,1,67.5,12|2,0:2|3:0,0:0:0:0:
224,366,59419,1,8,0:3:0:0:
189,292,59566,2,0,P|115:307|29:280,2,135,2|2|4,3:0|3:0|3:2,0:0:0:0:
316,191,60444,6,0,P|327:145|307:103,1,67.5,2|8,0:3|0:3,0:0:0:0:
260,74,60736,1,2,3:0:0:0:
335,44,60883,2,0,L|341:4,2,33.75,8|8|2,0:3|0:3|0:3,0:0:0:0:
396,96,61175,1,2,3:0:0:0:
463,243,61468,6,0,P|469:278|457:313,1,67.5,12|2,0:0|3:0,0:0:0:0:
387,271,61761,1,8,0:3:0:0:
336,334,61907,2,0,B|359:349|359:349|221:361,2,135,2|2|4,3:0|3:0|3:2,0:0:0:0:
213,227,62785,6,0,L|145:231,1,67.5,2|8,0:3|0:3,0:0:0:0:
71,199,63078,2,0,B|62:304|62:304|77:341,2,135,2|2|8,3:0|0:0|0:3,0:0:0:0:
16,139,63809,6,0,L|21:71,1,67.5,12|2,0:3|3:0,0:0:0:0:
79,13,64102,1,2,3:0:0:0:
147,55,64248,2,0,B|181:42|181:42|309:52,2,135,8|8|12,0:3|0:0|0:0,0:0:0:0:
243,185,65127,6,0,P|253:224|244:263,1,67.5,2|8,0:3|0:3,0:0:0:0:
190,306,65419,2,0,L|146:302,2,33.75,2|0|8,0:3|3:0|0:3,0:0:0:0:
250,359,65712,2,0,L|346:349,1,67.5,2|8,3:0|0:3,0:0:0:0:
397,340,66005,1,4,0:0:0:0:
366,236,66151,5,12,0:3:0:0:
424,179,66297,2,0,B|521:174|521:174|495:223,2,135,2|2|8,3:0|3:0|0:3,0:0:0:0:
403,100,67029,1,2,0:0:0:0:
346,158,67175,2,0,L|278:160,2,67.5,4|0|0,0:0|3:0|0:0,0:0:0:0:
366,236,67614,5,8,0:3:0:0:
388,315,67761,1,8,0:3:0:0:
309,295,67907,2,0,P|249:280|157:305,1,135,8|2,0:3|3:0,0:0:0:0:
38,211,68492,6,0,P|85:221|126:210,1,67.5,4|2,0:0|0:3,0:0:0:0:
160,160,68785,2,0,L|151:98,2,33.75,4|0|8,3:2|3:0|0:3,0:0:0:0:
231,199,69078,1,8,0:3:0:0:
297,152,69224,2,0,B|321:181|321:181|307:300,2,135,8|8|2,0:0|0:0|0:3,0:0:0:0:
227,110,69956,1,8,0:3:0:0:
358,15,70248,6,0,P|393:7|449:30,1,67.5,8|2,0:3|3:0,0:0:0:0:
457,87,70541,2,0,P|421:94|365:71,1,67.5,8|2,0:3|3:0,0:0:0:0:
310,95,70834,2,0,B|272:108|272:108|164:83,1,135,4|2,0:0|3:0,0:0:0:0:
100,65,71273,1,2,3:0:0:0:
50,128,71419,2,0,P|17:131|-21:120,2,67.5,2|8|2,0:3|0:3|0:0,0:0:0:0:
127,154,71858,6,0,P|151:218|126:305,1,135,2|2,3:0|0:3,0:0:0:0:
196,340,72297,2,0,L|273:328,1,67.5,8|0,0:3|3:0,0:0:0:0:
324,276,72590,2,0,L|375:284,2,33.75,8|0|2,0:3|0:0|0:3,0:0:0:0:
273,212,72883,2,0,P|260:176|272:132,1,67.5,2|8,3:0|0:3,0:0:0:0:
316,86,73175,5,4,0:0:0:0:
471,39,73468,2,0,L|481:-3,2,33.75,4|0|8,3:2|0:0|0:3,0:0:0:0:
451,118,73761,1,8,0:3:0:0:
433,197,73907,2,0,L|425:229,2,33.75,8|0|8,0:0|0:0|0:0,0:0:0:0:
374,142,74200,1,8,0:0:0:0:
296,165,74346,6,0,P|257:170|226:163,1,67.5,2|2,3:0|0:3,0:0:0:0:
162,117,74639,2,0,P|128:111|95:116,1,67.5,8|2,0:3|0:3,0:0:0:0:
32,166,74931,2,0,B|17:206|17:206|38:316,1,135,8|8,0:3|0:3,0:0:0:0:
184,359,75517,6,0,P|243:372|319:349,1,135,12|8,0:0|0:3,0:0:0:0:
347,278,75956,1,0,3:0:0:0:
419,313,76102,2,0,L|412:387,2,67.5,2|0|8,3:0|3:0|0:3,0:0:0:0:
483,263,76541,6,0,L|476:195,1,67.5,2|0,3:3|0:0,0:0:0:0:
502,118,76834,2,0,P|468:114|425:132,1,67.5,0|8,3:0|0:3,0:0:0:0:
361,93,77127,2,0,P|329:102|295:98,1,67.5,8|8,0:3|0:0,0:0:0:0:
216,119,77419,1,0,0:0:0:0:
239,41,77566,1,2,3:0:0:0:
81,75,77858,6,0,P|61:152|92:231,1,135,4|2,0:0|3:0,0:0:0:0:
138,254,78297,1,2,0:0:0:0:
218,244,78444,2,0,P|217:278|202:309,2,67.5,8|2|8,0:3|0:0|0:3,0:0:0:0:
267,179,78883,6,0,P|268:145|283:114,1,67.5,8|2,0:3|0:3,0:0:0:0:
356,83,79175,2,0,P|390:84|421:99,1,67.5,0|8,0:0|0:0,0:0:0:0:
491,137,79468,2,0,P|490:171|475:202,1,67.5,0|8,0:0|0:0,0:0:0:0:
401,231,79761,1,2,0:3:0:0:
464,279,79907,1,0,3:0:0:0:
319,353,80200,6,0,B|286:367|286:367|162:352,1,135,12|8,0:0|0:3,0:0:0:0:
146,284,80639,1,10,0:3:0:0:
71,314,80785,2,0,L|78:385,2,67.5,0|8|2,3:0|0:3|0:0,0:0:0:0:
82,233,81224,6,0,P|89:199|80:155,1,67.5,0|2,0:0|3:0,0:0:0:0:
29,106,81517,1,0,0:0:0:0:
53,27,81663,2,0,L|16:22,2,33.75,8|8|2,0:3|0:3|3:0,0:0:0:0:
110,88,81956,2,0,B|144:93|144:93|177:84,1,67.5,8|2,0:3|0:0,0:0:0:0:
251,54,82248,1,2,3:0:0:0:
399,119,82541,6,0,L|406:42,2,67.5,0|0|2,3:0|3:0|0:0,0:0:0:0:
340,175,82980,1,8,0:3:0:0:
396,234,83127,2,0,P|410:287|382:368,1,135,8|2,0:3|3:0,0:0:0:0:
234,305,83712,6,0,L|238:262,2,33.75,2|0|2,3:0|0:0|0:0,0:0:0:0:
160,339,84005,2,0,P|118:345|86:340,1,67.5,8|0,0:3|3:0,0:0:0:0:
26,296,84297,1,8,0:0:0:0:
53,136,84590,1,8,3:0:0:0:
53,136,84663,1,8,3:0:0:0:
53,136,84736,1,8,3:0:0:0:
116,186,84883,6,0,L|122:260,2,67.5,8|2|8,0:0|3:0|0:3,0:0:0:0:
179,135,85322,2,0,L|184:67,2,67.5,8|2|8,0:0|3:0|0:3,0:0:0:0:
235,193,85761,2,0,P|287:211|373:165,1,135,8|2,0:0|3:0,0:0:0:0:
397,111,86200,5,2,0:3:0:0:
442,177,86346,2,0,L|525:181,1,67.5,8|8,0:3|0:3,0:0:0:0:
505,261,86639,2,0,L|437:257,1,67.5,8|2,0:3|0:3,0:0:0:0:
377,311,86931,2,0,L|309:307,1,67.5,2|8,3:0|0:3,0:0:0:0:
237,345,87224,5,4,0:0:0:0:
256,192,103614,12,8,105370,0:3:0:0:
69,287,105663,5,8,0:3:0:0:
69,287,105736,1,8,0:3:0:0:
69,287,105809,1,10,0:3:0:0:
113,218,105956,6,0,P|96:169|108:84,1,135,4|8,0:0|0:0,0:0:0:0:
262,44,106541,2,0,P|279:93|267:178,1,135,2|8,3:0|0:0,0:0:0:0:
218,238,106980,6,0,B|211:277|211:277|223:326,1,67.5,6|0,0:0|0:0,0:0:0:0:
287,346,107273,2,0,L|354:346,1,67.5,0|0,3:0|0:0,0:0:0:0:
407,284,107566,1,0,0:0:0:0:
477,324,107712,2,0,B|493:283|493:283|476:179,1,135,2|8,0:0|0:0,0:0:0:0:
448,33,108297,6,0,P|373:21|314:35,1,135,4|8,0:0|0:0,0:0:0:0:
266,98,108736,1,0,0:0:0:0:
192,64,108883,2,0,B|184:34|184:34|199:-10,2,67.5,2|2|8,3:0|3:0|0:0,0:0:0:0:
113,85,109322,6,0,L|104:176,1,67.5,4|0,0:0|0:0,0:0:0:0:
170,202,109614,2,0,L|179:293,1,67.5,0|8,3:0|0:0,0:0:0:0:
241,317,109907,2,0,B|279:329|279:329|378:308,1,135,2|0,3:0|3:0,0:0:0:0:
426,248,110346,2,0,L|484:252,2,33.75,8|8|10,0:0|0:0|0:0,0:0:0:0:
363,167,110639,6,0,L|359:94,1,67.5,4|0,0:0|0:0,0:0:0:0:
312,33,110931,1,8,0:0:0:0:
245,80,111078,2,0,P|182:94|100:72,1,135,2|0,0:0|3:0,0:0:0:0:
47,32,111517,1,8,0:0:0:0:
3,99,111663,6,0,P|-3:139|10:181,1,67.5,4|0,0:0|0:0,0:0:0:0:
76,198,111956,2,0,P|81:231|75:264,1,67.5,2|0,3:0|0:0,0:0:0:0:
130,323,112248,1,2,3:0:0:0:
203,287,112395,2,0,P|244:299|339:273,1,135,2|8,0:0|0:0,0:0:0:0:
406,310,112834,1,2,0:0:0:0:
436,213,112980,5,4,0:0:0:0:
378,155,113127,2,0,B|392:125|392:125|366:19,2,135,0|0|0,0:0|0:0|0:0,0:0:0:0:
292,89,113858,1,8,0:0:0:0:
248,188,114005,6,0,P|209:196|171:185,1,67.5,6|10,0:0|0:3,0:0:0:0:
82,229,114297,2,0,P|73:190|84:152,1,67.5,0|8,3:0|0:0,0:0:0:0:
14,77,114590,2,0,B|52:59|52:59|157:72,1,135,2|10,3:0|0:0,0:0:0:0:
248,28,115029,1,8,0:0:0:0:
248,28,115102,1,8,0:0:0:0:
248,28,115175,1,10,0:0:0:0:
317,70,115322,6,0,L|386:62,1,67.5,6|2,0:0|0:0,0:0:0:0:
456,97,115614,1,10,0:0:0:0:
390,145,115761,2,0,P|381:212|405:286,1,135,2|0,3:0|0:0,0:0:0:0:
257,358,116346,6,0,B|227:343|227:343|113:339,1,135,6|2,0:0|3:3,0:0:0:0:
55,298,116785,1,10,0:0:0:0:
120,250,116931,2,0,P|138:203|119:116,1,135,2|2,3:0|3:3,0:0:0:0:
141,42,117370,2,0,B|179:48|179:48|221:43,1,67.5,10|0,0:0|0:0,0:0:0:0:
285,21,117663,6,0,B|313:17|313:17|351:23,1,67.5,6|2,0:0|0:0,0:0:0:0:
384,98,117956,1,10,0:0:0:0:
457,64,118102,2,0,P|481:126|460:214,1,135,2|2,3:0|3:3,0:0:0:0:
359,304,118687,6,0,B|317:319|317:319|199:303,1,135,6|2,0:0|3:3,0:0:0:0:
193,232,119127,1,10,0:0:0:0:
137,291,119273,2,0,P|112:238|147:163,1,135,2|2,3:0|3:3,0:0:0:0:
204,122,119712,2,0,P|214:86|199:45,1,67.5,10|0,0:0|0:0,0:0:0:0:
136,16,120005,6,0,L|62:12,1,67.5,6|2,0:0|0:0,0:0:0:0:
13,71,120297,1,10,0:0:0:0:
62,135,120444,2,0,B|77:167|77:167|63:283,1,135,2|0,3:0|0:0,0:0:0:0:
208,342,121029,6,0,P|265:307|349:314,1,135,6|2,0:0|3:3,0:0:0:0:
404,343,121468,1,10,0:0:0:0:
462,286,121614,2,0,L|472:150,1,135,2|2,3:0|3:3,0:0:0:0:
433,79,122053,2,0,P|389:61|343:69,1,67.5,10|0,0:0|0:0,0:0:0:0:
277,117,122346,5,14,0:0:0:0:
206,35,122492,2,0,L|56:45,2,135,12|2|10,0:0|3:0|0:3,0:0:0:0:
277,117,123224,1,8,0:3:0:0:
192,184,123370,6,0,P|170:242|203:336,1,135,12|2,0:0|0:3,0:0:0:0:
256,350,123809,1,8,0:3:0:0:
327,310,123956,2,0,L|332:267,2,33.75,2|2|8,0:3|0:0|0:0,0:0:0:0:
401,341,124248,2,0,L|404:374,2,33.75,2|8|8,3:0|0:3|0:3,0:0:0:0:
449,275,124541,2,0,P|484:263|526:272,1,67.5,6|0,0:0|0:0,0:0:0:0:
